osu file format v14

[General]
AudioFilename: audio.mp3
AudioLeadIn: 0
PreviewTime: 55168
Countdown: 0
SampleSet: Soft
StackLeniency: 0.4
Mode: 0
LetterboxInBreaks: 0
WidescreenStoryboard: 1

[Editor]
DistanceSpacing: 1
BeatDivisor: 4
GridSize: 4
TimelineZoom: 1.6

[Metadata]
Title:Oato ga Yoroshikutte... yo! (TV Size)
TitleUnicode:お後がよろしくって…よ! (TV Size)
Artist:Goku Rakujo-kai
ArtistUnicode:極♨落女会
Creator:browiec
Version:Easy!
Source:じょしらく
Tags:JOSHIRAKU opening 佐倉綾音 南條愛乃 小岩井ことり 後藤沙緒里 山本希望 japanese anime pop jpop j-pop Rakujokai 蕪羅亭魔梨威 Marii Buratei Sakura Ayane 防波亭手寅 Bouhatei Bohatei Tetora Yamamoto Nozomi 波浪浮亭木胡桃 Harokitei Haroukitei Kigurumi Koiwai Kotori 空琉美遊亭丸京 Kuurubiyuutei Gankyou Gankyo Kurubiyutei Nanjo Nanjou Yoshino 暗落亭苦来 Kukuru Anrakutei Gotou Goto Saori akitoshi corinn -laura-
BeatmapID:4508611
BeatmapSetID:2141451

[Difficulty]
HPDrainRate:2
CircleSize:3
OverallDifficulty:3.6
ApproachRate:4.5
SliderMultiplier:0.899999999999999
SliderTickRate:1

[Events]
//Background and Video events
0,0,"339155.jpg",0,0
//Break Periods
//Storyboard Layer 0 (Background)
//Storyboard Layer 1 (Fail)
//Storyboard Layer 2 (Pass)
//Storyboard Layer 3 (Foreground)
//Storyboard Layer 4 (Overlay)
//Storyboard Sound Samples

[TimingPoints]
724,317.460317460317,4,2,1,60,1,0
5803,-100,4,2,1,70,0,0
17231,-100,4,2,1,50,0,0
27390,-100,4,2,1,60,0,0
35009,-100,4,2,1,70,0,0
37549,-100,4,2,1,50,0,0
45168,-100,4,2,1,60,0,0
50247,-100,4,2,1,70,0,0
55327,-100,4,2,1,75,0,0
73104,-100,4,2,1,70,0,0
75485,-100,4,2,1,75,0,0
80723,-100,4,2,1,70,0,0
88343,-100,4,2,1,5,0,0

[Colours]
Combo1 : 245,146,46
Combo2 : 249,51,51

[HitObjects]
133,137,724,5,14,3:2:0:0:
440,324,1993,1,14,3:2:0:0:
269,56,3263,6,0,L|83:32,1,180,14|14,3:2|3:2,0:2:0:0:
48,162,4374,2,0,L|181:145,1,135,14|10,3:2|3:2,0:2:0:0:
271,134,5168,1,14,3:2:0:0:
405,254,5803,5,4,3:2:0:0:
345,320,6120,2,1,P|300:329|256:320,1,89.9999999999999,10|0,0:2|3:2,0:2:0:0:
207,245,6755,2,0,P|220:201|250:168,1,89.9999999999999,10|0,0:2|3:2,0:2:0:0:
299,93,7390,1,10,0:2:0:0:
229,36,7708,1,2,3:2:0:0:
151,82,8025,2,0,L|61:70,1,89.9999999999999,10|0,0:2|3:2,0:2:0:0:
49,160,8660,6,1,L|138:171,1,89.9999999999999,10|0,0:2|3:2,0:2:0:0:
196,238,9295,2,0,L|285:227,1,89.9999999999999,10|0,0:2|3:2,0:2:0:0:
341,156,9930,1,10,0:2:0:0:
429,144,10247,1,2,3:2:0:0:
476,220,10565,2,0,P|485:263|476:307,1,89.9999999999999,10|4,0:2|3:2,0:2:0:0:
395,348,11200,6,0,B|332:355|332:355|285:332|285:332|221:340,1,180,10|10,0:2|0:2,0:2:0:0:
158,276,12152,2,0,L|24:259,2,135,2|2|10,3:2|3:2|0:2,0:2:0:0:
241,245,13422,5,2,3:2:0:0:
291,169,13739,1,10,0:2:0:0:
234,98,14057,1,2,3:2:0:0:
149,129,14374,1,10,0:2:0:0:
256,192,14692,12,4,15962,3:2:0:0:
151,220,17231,5,4,3:2:0:0:
228,267,17549,1,10,0:2:0:0:
305,221,17866,2,0,L|438:204,2,135,2|2|10,3:2|3:2|0:2,0:2:0:0:
232,167,19136,2,0,P|223:123|232:79,1,89.9999999999999,2|8,3:2|0:2,0:0:0:0:
302,23,19771,5,0,3:2:0:0:
389,45,20089,1,10,0:2:0:0:
396,134,20406,2,0,L|379:267,2,135,2|2|10,3:2|3:2|0:2,0:2:0:0:
478,167,21676,2,0,L|467:256,1,89.9999999999999,2|8,3:2|0:2,0:0:0:0:
434,340,22311,5,0,3:2:0:0:
344,349,22628,1,10,0:2:0:0:
288,277,22946,2,0,L|154:260,2,135,2|2|10,3:2|0:2|0:2,0:2:0:0:
362,227,24216,2,0,P|371:183|362:139,1,89.9999999999999,2|10,3:2|0:2,0:0:0:0:
294,80,24850,5,2,3:2:0:0:
205,91,25167,1,10,0:2:0:0:
169,173,25485,1,2,3:2:0:0:
221,245,25803,1,10,0:2:0:0:
309,235,26120,2,0,L|398:223,1,89.9999999999999,0|10,0:2|3:2,0:0:0:0:
470,278,26755,1,2,3:2:0:0:
308,355,27390,5,6,3:2:0:0:
220,334,27708,1,10,0:2:0:0:
131,314,28025,2,0,L|120:224,1,89.9999999999999,2|10,3:2|0:2,0:2:0:0:
43,177,28660,2,0,P|77:147|119:133,1,89.9999999999999,0|10,0:2|0:2,0:0:0:0:
198,176,29295,2,0,P|231:205|273:219,1,89.9999999999999,2|10,3:2|0:2,0:0:0:0:
360,192,29930,5,2,3:2:0:0:
378,103,30247,1,10,0:2:0:0:
313,40,30565,2,0,L|223:51,1,89.9999999999999,2|10,3:2|0:2,0:2:0:0:
142,90,31200,2,0,P|133:133|142:177,1,89.9999999999999,0|10,0:2|0:2,0:0:0:0:
215,230,31835,2,0,P|223:273|214:317,1,89.9999999999999,2|10,3:2|0:2,0:0:0:0:
137,363,32470,5,2,3:2:0:0:
56,323,32787,1,10,0:2:0:0:
69,234,33104,2,0,L|81:144,1,89.9999999999999,2|10,3:2|0:2,0:2:0:0:
125,67,33739,2,0,P|81:57|37:66,2,89.9999999999999,0|10|2,0:2|0:2|3:2,0:0:0:0:
179,138,34692,1,10,0:2:0:0:
232,209,35009,6,0,L|215:343,2,135,6|6|6,3:2|3:2|3:2,0:0:0:0:
350,74,36597,1,8,0:2:0:0:
429,31,36914,2,0,P|437:75|428:119,1,89.9999999999999,10|2,0:2|3:2,0:0:0:0:
352,165,37549,5,6,3:2:0:0:
273,122,37866,1,2,0:2:0:0:
192,163,38184,1,10,0:2:0:0:
196,252,38501,1,2,0:2:0:0:
276,291,38819,2,0,B|340:283|340:283|387:307|387:307|450:299,1,180,2|10,3:2|0:2,0:0:0:0:
484,216,39771,1,2,0:2:0:0:
422,149,40089,6,0,L|434:59,2,89.9999999999999,2|2|10,3:2|0:2|0:2,0:2:0:0:
345,196,41041,1,0,0:2:0:0:
273,251,41358,2,0,P|229:259|185:250,1,89.9999999999999,2|2,3:2|0:2,0:2:0:0:
140,172,41993,2,0,P|154:129|184:95,1,89.9999999999999,10|2,0:2|3:2,0:0:0:0:
260,47,42628,5,6,3:2:0:0:
308,121,42946,1,2,0:2:0:0:
355,196,43263,1,10,0:2:0:0:
403,271,43581,1,2,0:2:0:0:
348,342,43898,2,0,B|216:358|216:358|177:330,1,180,2|10,3:2|0:2,0:0:0:0:
92,172,45168,6,0,P|154:111|238:133,1,180,6|0,3:2|3:2,0:2:0:0:
308,190,46120,1,10,0:2:0:0:
373,251,46438,2,0,L|463:239,2,89.9999999999999,2|10|0,3:2|0:2|3:2,0:0:0:0:
313,317,47390,1,10,0:2:0:0:
227,290,47708,6,0,P|218:246|227:202,1,89.9999999999999,6|10,3:2|0:2,0:2:0:0:
300,149,48343,2,0,P|308:105|299:61,1,89.9999999999999,2|10,3:2|0:2,0:0:0:0:
216,27,48977,2,0,B|152:19|152:19|105:42|105:42|42:35,1,180,6|2,3:2|3:2,0:2:0:0:
111,201,50247,5,12,0:2:0:0:
256,192,50406,12,14,52628,3:2:0:0:
111,201,55327,6,1,L|122:111,1,89.9999999999999,6|10,3:2|0:2,0:2:0:0:
211,127,55962,2,0,L|199:217,1,89.9999999999999,2|8,3:2|0:2,0:0:0:0:
235,298,56597,1,0,0:0:0:0:
323,313,56914,1,10,0:2:0:0:
386,249,57231,2,0,P|395:205|386:161,1,89.9999999999999,2|10,3:2|0:2,0:0:0:0:
314,107,57866,6,0,L|224:95,1,89.9999999999999,2|10,3:2|0:2,0:2:0:0:
145,53,58501,2,0,P|136:96|145:140,1,89.9999999999999,2|10,3:2|0:2,0:0:0:0:
220,190,59136,1,2,3:2:0:0:
256,272,59454,1,10,0:2:0:0:
202,344,59771,1,2,3:2:0:0:
113,337,60089,1,10,0:2:0:0:
74,255,60406,6,0,L|86:165,1,89.9999999999999,2|10,3:2|0:2,0:2:0:0:
156,111,61041,2,0,L|246:122,1,89.9999999999999,2|8,3:2|0:2,0:0:0:0:
334,134,61676,2,0,B|342:198|342:198|318:245|318:245|326:307,1,180,0|2,0:0|3:2,0:0:0:0:
401,355,62628,1,10,0:2:0:0:
463,289,62946,6,0,P|472:245|463:201,1,89.9999999999999,2|10,3:2|0:2,0:0:0:0:
390,148,63581,2,0,L|256:131,2,135,2|2|10,3:2|3:2|0:2,0:0:0:0:
463,201,64850,1,2,3:2:0:0:
463,289,65168,1,8,0:2:0:0:
388,338,65485,6,1,L|297:348,1,89.9999999999999,6|10,3:2|0:2,0:2:0:0:
223,297,66120,2,0,L|132:286,1,89.9999999999999,2|8,3:2|0:2,0:0:0:0:
67,226,66755,1,0,0:0:0:0:
79,137,67072,1,10,0:2:0:0:
161,101,67389,2,0,P|204:92|248:101,1,89.9999999999999,2|10,3:2|0:2,0:0:0:0:
301,174,68024,6,0,L|290:263,1,89.9999999999999,2|10,3:2|0:2,0:0:0:0:
343,334,68659,2,0,P|386:343|430:334,1,89.9999999999999,2|10,3:2|0:2,0:0:0:0:
476,256,69294,1,2,3:2:0:0:
483,166,69612,1,10,0:2:0:0:
410,113,69929,1,2,3:2:0:0:
328,149,70247,1,10,0:2:0:0:
315,238,70565,6,0,L|327:328,1,89.9999999999999,2|10,3:2|0:2,0:2:0:0:
239,349,71200,2,0,L|227:259,1,89.9999999999999,2|8,3:2|0:2,0:0:0:0:
205,172,71835,2,0,P|164:139|53:189,1,180,0|2,0:0|3:2,0:0:0:0:
46,271,72786,1,10,0:2:0:0:
105,337,73104,5,10,3:2:0:0:
272,271,73739,1,10,3:2:0:0:
398,221,74216,2,1,L|415:87,1,135,10|10,3:2|3:2,0:2:0:0:
348,26,75009,1,2,3:2:0:0:
243,111,75485,6,0,L|109:94,1,135,6|10,3:2|0:2,0:2:0:0:
39,150,76279,1,2,3:2:0:0:
133,245,76755,2,1,L|267:228,1,135,6|10,3:2|0:2,0:2:0:0:
337,285,77549,1,2,3:2:0:0:
223,358,78025,6,1,L|89:341,1,135,6|10,3:2|0:2,0:2:0:0:
38,266,78819,1,2,3:2:0:0:
168,142,79454,1,10,3:2:0:0:
307,256,80089,1,10,3:2:0:0:
430,126,80723,5,4,3:2:0:0:
393,43,81040,2,1,P|349:34|305:43,1,89.9999999999999,10|0,0:2|3:2,0:2:0:0:
215,45,81675,2,0,P|228:87|257:120,1,89.9999999999999,10|0,0:2|3:2,0:2:0:0:
318,187,82311,2,0,L|308:276,2,89.9999999999999,10|2|10,0:2|3:2|0:2,0:2:0:0:
346,101,83263,5,2,3:2:0:0:
436,85,83580,1,10,0:2:0:0:
479,165,83898,1,2,3:2:0:0:
418,230,84215,1,10,0:2:0:0:
337,192,84533,2,0,B|274:200|274:200|228:176|228:176|164:184,2,180,2|0|8,3:2|3:2|0:2,0:2:0:0:
256,192,86120,12,0,88343,0:2:0:0:
