osu file format v14

[General]
AudioFilename: audio.mp3
AudioLeadIn: 0
PreviewTime: 55168
Countdown: 0
SampleSet: None
StackLeniency: 0.4
Mode: 0
LetterboxInBreaks: 0
WidescreenStoryboard: 1

[Editor]
DistanceSpacing: 2.9
BeatDivisor: 4
GridSize: 32
TimelineZoom: 1.6

[Metadata]
Title:Oato ga Yoroshikutte... yo! (TV Size)
TitleUnicode:お後がよろしくって…よ! (TV Size)
Artist:Goku Rakujo-kai
ArtistUnicode:極♨落女会
Creator:browiec
Version:Akitoshi's Extreme!
Source:じょしらく
Tags:JOSHIRAKU opening 佐倉綾音 南條愛乃 小岩井ことり 後藤沙緒里 山本希望 japanese anime pop jpop j-pop Rakujokai 蕪羅亭魔梨威 Marii Buratei Sakura Ayane 防波亭手寅 Bouhatei Bohatei Tetora Yamamoto Nozomi 波浪浮亭木胡桃 Harokitei Haroukitei Kigurumi Koiwai Kotori 空琉美遊亭丸京 Kuurubiyuutei Gankyou Gankyo Kurubiyutei Nanjo Nanjou Yoshino 暗落亭苦来 Kukuru Anrakutei Gotou Goto Saori akitoshi corinn -laura-
BeatmapID:4512359
BeatmapSetID:2141451

[Difficulty]
HPDrainRate:5.5
CircleSize:3.8
OverallDifficulty:9.1
ApproachRate:9.3
SliderMultiplier:1.75
SliderTickRate:1

[Events]
//Background and Video events
0,0,"339155.jpg",0,0
//Break Periods
//Storyboard Layer 0 (Background)
//Storyboard Layer 1 (Fail)
//Storyboard Layer 2 (Pass)
//Storyboard Layer 3 (Foreground)
//Storyboard Layer 4 (Overlay)
//Storyboard Sound Samples

[TimingPoints]
724,317.460317460317,4,2,1,60,1,0
724,-111.111111111111,4,2,1,60,0,0
3263,-166.666666666666,4,2,1,60,0,0
3898,-125,4,2,1,60,0,0
4374,-111.111111111111,4,2,1,60,0,0
5803,-100,4,2,1,70,0,0
7311,-100,4,2,1,5,0,0
7390,-100,4,2,1,70,0,0
9850,-100,4,2,1,5,0,0
9930,-100,4,2,1,70,0,0
14930,-100,4,2,1,5,0,0
15009,-100,4,2,1,70,0,0
15962,-125,4,2,1,70,0,0
17231,-90.909090909091,4,2,1,50,0,0
17549,-142.857142857143,4,2,1,50,0,0
19454,-90.909090909091,4,2,1,50,0,0
19692,-90.909090909091,4,2,1,5,0,0
19771,-90.909090909091,4,2,1,50,0,0
20089,-142.857142857143,4,2,1,50,0,0
21993,-90.909090909091,4,2,1,50,0,0
22231,-90.909090909091,4,2,1,5,0,0
22311,-90.909090909091,4,2,1,50,0,0
22628,-142.857142857143,4,2,1,50,0,0
23581,-90.909090909091,4,2,1,50,0,0
23898,-142.857142857143,4,2,1,50,0,0
24533,-90.9090909090909,4,2,1,50,0,0
24771,-90.9090909090909,4,2,1,5,0,0
24850,-142.857142857143,4,2,1,50,0,0
25089,-142.857142857143,4,2,1,50,0,0
25168,-90.9090909090909,4,2,1,50,0,0
25406,-90.9090909090909,4,2,1,5,0,0
25485,-142.857142857143,4,2,1,50,0,0
25723,-142.857142857143,4,2,1,5,0,0
25803,-90.9090909090909,4,2,1,50,0,0
25882,-90.9090909090909,4,2,1,5,0,0
25962,-142.857142857143,4,2,1,50,0,0
27073,-76.9230769230769,4,2,1,50,0,0
27311,-76.9230769230769,4,2,1,5,0,0
27390,-111.111111111111,4,2,1,60,0,0
29612,-166.666666666666,4,2,1,60,0,0
29850,-166.666666666666,4,2,1,5,0,0
29930,-111.111111111111,4,2,1,60,0,0
32152,-166.666666666666,4,2,1,60,0,0
32390,-166.666666666666,4,2,1,5,0,0
32470,-111.111111111111,4,2,1,60,0,0
35009,-100,4,2,1,70,0,0
37549,-125,4,2,1,50,0,0
45168,-111.111111111111,4,2,1,60,0,0
47946,-111.111111111111,4,2,1,60,0,0
48025,-111.111111111111,4,2,1,60,0,0
49216,-111.111111111111,4,2,1,60,0,0
49295,-111.111111111111,4,2,1,60,0,0
50247,-100,4,2,1,70,0,0
52628,-95.2380952380952,4,2,1,70,0,0
55009,-142.857142857143,4,2,1,70,0,0
55247,-142.857142857143,4,2,1,5,0,0
55327,-90.9090909090909,4,2,1,75,0,1
57549,-71.4285714285714,4,2,1,75,0,1
57787,-71.4285714285714,4,2,1,5,0,1
57866,-90.9090909090909,4,2,1,75,0,1
59771,-142.857142857143,4,2,1,75,0,1
60089,-71.4285714285714,4,2,1,75,0,1
60406,-90.9090909090909,4,2,1,75,0,1
62628,-71.4285714285714,4,2,1,75,0,1
62866,-71.4285714285714,4,2,1,5,0,1
62946,-90.9090909090909,4,2,1,75,0,1
67708,-71.4285714285714,4,2,1,75,0,1
67946,-71.4285714285714,4,2,1,5,0,1
68025,-90.9090909090909,4,2,1,75,0,1
69930,-142.857142857143,4,2,1,75,0,1
70247,-71.4285714285714,4,2,1,75,0,1
70565,-90.9090909090909,4,2,1,75,0,1
72787,-71.4285714285714,4,2,1,75,0,1
73025,-71.4285714285714,4,2,1,5,0,1
73104,-100,4,2,1,70,0,0
75485,-90.9090909090909,4,2,1,75,0,1
80406,-142.857142857143,4,2,1,75,0,1
80644,-142.857142857143,4,2,1,5,0,1
80723,-100,4,2,1,70,0,0
82231,-100,4,2,1,5,0,0
82311,-100,4,2,1,70,0,0
84771,-100,4,2,1,5,0,0
84850,-100,4,2,1,70,0,0
88343,-100,4,2,1,5,0,0

[Colours]
Combo1 : 245,146,46
Combo2 : 249,51,51

[HitObjects]
176,111,724,5,14,3:2:0:0:
256,314,882,1,14,3:2:0:0:
256,314,1676,5,2,0:0:0:0:
336,111,1993,5,14,3:2:0:0:
256,314,2151,1,14,3:2:0:0:
256,314,2946,5,2,0:2:0:0:
176,111,3263,6,0,B|75:85|75:85|90:104|99:133,1,157.499995193482,14|0,3:2|0:2,0:2:0:0:
248,186,3898,6,0,B|304:174|304:174|328:188|328:188|394:173,1,140,14|0,3:2|0:2,0:2:0:0:
182,256,4374,6,0,B|141:265|141:265|99:249,1,78.7499975967408,14|0,3:2|0:2,0:2:0:0:
258,96,4692,1,10,3:2:0:0:
282,284,4850,2,0,P|273:337|268:376,1,78.7499975967408,10|2,3:2|0:2,0:2:0:0:
149,147,5168,5,14,3:2:0:0:
343,185,5327,1,8,0:2:0:0:
343,185,5406,1,8,0:2:0:0:
343,185,5485,2,0,L|397:172,1,39.3749987983704,8|8,0:2|0:2,0:2:0:0:
282,284,5644,2,0,L|228:271,1,39.3749987983704,8|8,0:2|0:2,0:2:0:0:
83,245,5803,6,0,B|62:282|62:282|80:328,1,87.5,4|0,3:2|0:2,0:2:0:0:
252,184,6120,2,1,P|240:111|224:2,1,175,10|0,0:2|3:2,0:2:0:0:
171,227,6597,1,0,0:2:0:0:
343,185,6755,2,0,P|388:181|435:202,1,87.5,10|0,0:2|0:2,0:2:0:0:
269,336,7073,6,0,B|201:325|212:379|139:365,1,131.25,0|0,3:2|0:0,0:2:0:0:
79,323,7390,2,0,P|66:283|76:238,1,87.5,10|0,0:2|0:2,0:2:0:0:
156,82,7708,1,2,3:2:0:0:
254,201,7866,1,0,3:2:0:0:
86,150,8025,2,0,P|37:157|0:162,1,87.5,10|0,0:2|0:2,0:2:0:0:
219,15,8343,6,0,P|262:21|305:27,1,87.5,0|0,3:2|0:2,0:2:0:0:
434,146,8660,2,1,P|350:162|279:98,1,175,10|0,0:2|3:2,0:2:0:0:
430,50,9136,1,0,3:2:0:0:
499,220,9295,2,0,P|488:270|481:308,1,87.5,10|0,0:2|0:2,0:2:0:0:
291,250,9612,6,0,P|338:244|405:298,1,131.25,0|0,3:2|0:0,0:2:0:0:
357,357,9930,2,0,P|306:351|274:322,1,87.5,10|0,0:2|0:2,0:2:0:0:
224,199,10247,1,2,3:2:0:0:
159,371,10406,1,8,3:2:0:0:
75,206,10565,2,0,P|66:162|80:114,1,87.5,10|0,0:2|0:2,0:2:0:0:
244,11,10882,6,0,B|238:46|238:46|243:60|243:60|237:97,1,87.5,4|0,3:2|0:2,0:2:0:0:
148,259,11200,2,0,P|84:242|29:292,1,131.25,10|0,0:2|0:0,0:2:0:0:
63,350,11517,2,0,P|120:352|153:329,1,87.5,0|0,3:2|3:2,0:0:0:0:
269,188,11835,2,0,P|225:180|177:173,1,87.5,10|0,0:2|0:2,0:2:0:0:
309,319,12152,6,0,B|407:298|389:377|491:346,1,175,2|8,3:2|0:2,0:2:0:0:
394,146,12628,2,1,B|367:133|338:118|338:118|368:239,1,175,2|0,3:2|3:2,0:2:0:0:
492,347,13104,1,10,0:2:0:0:
479,180,13263,1,2,0:2:0:0:
309,319,13422,6,0,P|265:326|212:309,1,87.5,2|0,3:2|0:2,0:2:0:0:
70,198,13739,1,10,0:2:0:0:
235,179,13898,1,2,0:2:0:0:
133,275,14057,1,2,3:2:0:0:
149,135,14216,1,2,3:2:0:0:
314,231,14374,2,0,P|356:222|401:213,1,87.5,10|0,0:2|0:2,0:2:0:0:
133,295,14692,6,0,P|68:315|5:277,1,131.25,2|0,3:2|0:0,0:2:0:0:
1,210,15009,2,0,P|43:200|89:190,1,87.5,8|0,0:2|0:2,0:2:0:0:
233,160,15327,1,0,3:2:0:0:
133,275,15485,1,0,3:2:0:0:
152,91,15644,2,0,P|142:48|132:3,1,87.5,8|0,0:2|0:2,0:2:0:0:
101,188,15962,5,4,3:2:0:0:
233,160,16120,1,0,3:2:0:0:
133,295,16279,1,8,0:2:0:0:
156,108,16437,1,8,0:2:0:0:
266,275,16597,5,0,3:2:0:0:
266,275,16676,1,8,0:2:0:0:
266,275,16755,1,8,0:2:0:0:
101,188,16914,1,8,0:2:0:0:
253,73,17073,1,8,0:2:0:0:
253,73,17152,1,8,0:2:0:0:
253,73,17231,6,0,B|298:93|298:93|351:77,1,96.250002937317,4|0,3:2|0:0,0:2:0:0:
436,32,17549,2,0,P|447:59|445:102,1,61.2499981307984,10|2,0:2|0:2,0:0:0:0:
390,163,17866,6,0,P|399:224|407:287,1,122.499996261597,2|10,3:2|0:2,0:2:0:0:
464,356,18343,2,0,P|406:377|340:349,1,122.499996261597,2|2,3:2|3:2,0:2:0:0:
291,287,18819,2,0,P|255:295|218:303,1,61.2499981307984,10|2,0:2|0:2,0:2:0:0:
145,325,19136,1,2,3:2:0:0:
145,325,19295,1,2,3:2:0:0:
153,199,19454,6,0,B|252:209|252:209|230:195|214:164,1,144.375004405975,8|0,0:2|0:0,0:2:0:0:
194,99,19771,6,0,B|165:100|146:112|146:112|125:96|93:93,1,96.250002937317,0|0,3:2|3:2,0:0:0:0:
4,151,20089,2,0,P|10:187|15:220,1,61.2499981307984,10|2,0:2|0:2,0:2:0:0:
26,304,20406,2,0,B|90:292|82:335|144:324,1,122.499996261597,2|10,3:2|0:2,0:2:0:0:
215,267,20882,6,0,P|193:325|211:382,1,122.499996261597,2|2,3:2|3:2,0:2:0:0:
284,327,21358,2,0,P|315:338|357:333,1,61.2499981307984,10|2,0:2|0:2,0:2:0:0:
430,301,21676,1,2,3:2:0:0:
430,301,21835,1,2,3:2:0:0:
378,187,21993,6,0,B|332:189|282:209|282:209|288:185|307:153,1,144.375004405975,8|0,0:2|0:0,0:2:0:0:
343,97,22311,6,0,B|334:60|334:60|339:46|339:46|330:3,1,96.250002937317,0|0,3:2|3:2,0:0:0:0:
225,3,22628,2,0,P|215:30|213:62,1,61.2499981307984,10|2,0:2|0:2,0:2:0:0:
210,154,22946,2,0,P|150:175|92:143,1,122.499996261597,2|10,3:2|0:2,0:2:0:0:
40,80,23422,1,2,0:2:0:0:
8,201,23581,6,0,B|17:244|17:244|12:258|12:258|21:295,1,96.250002937317,0|2,3:2|3:2,0:0:0:0:
97,365,23898,2,0,P|102:332|108:302,1,61.2499981307984,10|0,0:2|0:2,0:2:0:0:
188,257,24216,1,2,3:2:0:0:
188,257,24374,1,0,3:2:0:0:
284,337,24533,6,0,B|313:333|334:322|334:322|353:336|376:341|376:341|395:331|431:325,1,144.375004405975,10|0,0:2|0:0,0:2:0:0:
497,339,24850,2,0,P|506:298|483:241,1,91.8749971961976,2|0,3:2|0:2,0:2:0:0:
477,232,25168,6,0,B|448:228|427:217|427:217|408:231|385:236|385:236|366:226|330:220,1,144.375004405975,10|0,0:2|0:0,0:2:0:0:
264,234,25485,2,0,P|254:193|277:136,1,91.8749971961976,2|0,3:2|0:0,0:2:0:0:
283,127,25803,6,0,P|279:101|274:74,1,48.1250014686585,10|0,0:2|0:0,0:0:0:0:
188,38,25962,2,0,P|122:28|70:60,1,122.499996261597,2|2,3:2|3:2,0:2:0:0:
8,118,26438,6,0,P|14:150|18:183,1,61.2499981307984,10|0,3:2|0:2,0:2:0:0:
99,221,26755,2,0,P|103:190|109:160,1,61.2499981307984,2|0,3:2|0:0,0:0:0:0:
275,79,27073,6,0,P|334:90|298:180,1,170.624992189408,10|0,3:2|0:0,0:2:0:0:
237,205,27390,6,1,B|282:193|297:215|335:221|303:233|318:204|325:237|297:215|325:237|348:250|390:239,1,157.499995193482,6|10,3:2|0:2,0:2:0:0:
258,290,27866,1,2,0:2:0:0:
153,234,28025,2,0,P|149:194|168:149,1,78.7499975967408,2|0,3:2|0:2,0:2:0:0:
264,70,28343,1,10,0:2:0:0:
397,152,28501,6,0,P|433:146|483:139,1,78.7499975967408,2|0,3:2|0:2,0:2:0:0:
355,76,28819,1,2,3:2:0:0:
400,242,28977,2,0,P|436:236|486:229,1,78.7499975967408,10|2,0:2|0:2,0:0:0:0:
306,165,29295,1,2,3:2:0:0:
342,318,29454,1,2,3:2:0:0:
197,245,29612,6,0,P|148:239|112:270,1,78.7499975967408,10|0,0:2|0:0,0:2:0:0:
108,270,29930,6,0,P|75:215|97:118,1,157.499995193482,2|10,3:2|0:2,0:2:0:0:
162,32,30406,1,2,0:2:0:0:
283,104,30565,2,0,P|276:146|268:194,1,78.7499975967408,2|0,3:2|0:2,0:2:0:0:
247,337,30882,1,10,0:2:0:0:
358,234,31041,6,0,B|444:219|433:276|509:259,1,157.499995193482,2|2,3:2|3:2,0:2:0:0:
467,82,31517,2,0,P|458:126|452:160,1,78.7499975967408,10|2,0:2|0:2,0:0:0:0:
385,320,31835,1,2,3:2:0:0:
322,159,31993,1,2,3:2:0:0:
168,239,32152,6,0,P|114:229|86:225,1,78.7499975967408,10|0,0:2|0:0,0:2:0:0:
66,221,32470,6,0,P|56:181|67:142,1,78.7499975967408,2|0,3:2|0:0,0:2:0:0:
151,13,32787,1,10,0:2:0:0:
24,58,32946,1,2,0:2:0:0:
166,123,33104,2,0,P|202:117|246:110,1,78.7499975967408,2|0,3:2|0:2,0:2:0:0:
393,89,33422,1,10,0:2:0:0:
321,255,33581,6,0,B|215:228|215:228|246:276,1,157.499995193482,2|2,3:2|3:2,0:2:0:0:
404,292,34057,2,0,P|412:251|403:216,1,78.7499975967408,10|0,0:2|0:2,0:2:0:0:
269,131,34374,2,0,P|300:158|335:168,1,78.7499975967408,2|0,3:2|0:2,0:2:0:0:
477,96,34692,2,0,P|437:109|411:134,1,78.7499975967408,10|0,0:2|0:2,0:2:0:0:
305,336,35009,5,6,3:2:0:0:
186,151,35168,1,2,3:2:0:0:
403,216,35327,1,8,0:2:0:0:
273,19,35485,5,6,3:2:0:0:
239,226,35644,1,2,3:2:0:0:
439,108,35803,1,8,0:2:0:0:
197,62,35962,6,0,B|71:86|71:86|117:122,1,175,6|0,3:2|0:2,0:2:0:0:
255,223,36438,1,0,3:2:0:0:
287,15,36597,1,8,0:2:0:0:
403,216,36755,1,0,3:2:0:0:
403,216,36835,1,0,3:2:0:0:
403,216,36914,5,10,0:2:0:0:
179,170,37073,1,8,3:2:0:0:
365,98,37231,1,2,3:2:0:0:
277,308,37390,1,0,3:2:0:0:
160,176,37549,6,1,B|78:199|78:199|51:188|32:161,1,140,6|2,3:2|0:2,0:2:0:0:
13,62,38025,1,0,3:2:0:0:
137,83,38184,2,0,P|141:51|148:5,1,70,10|0,0:2|0:2,0:2:0:0:
251,13,38501,2,0,P|256:47|260:82,1,70,2|0,0:2|3:2,0:0:0:0:
260,82,38739,1,0,3:2:0:0:
260,82,38819,5,2,3:2:0:0:
385,73,38977,2,0,P|447:66|511:116,1,140,8|0,0:2|3:2,0:2:0:0:
501,236,39454,2,0,P|462:225|420:217,1,70,10|0,0:2|0:2,0:2:0:0:
343,164,39771,2,0,P|309:173|275:180,1,70,2|0,0:2|3:2,0:2:0:0:
258,188,40009,1,0,3:0:0:0:
258,188,40089,6,0,P|277:144|245:59,1,140,2|2,3:2|0:2,0:2:0:0:
155,10,40565,1,0,3:2:0:0:
105,125,40723,2,0,P|112:161|119:198,1,70,10|2,0:2|0:2,0:0:0:0:
198,262,41041,2,0,P|191:298|184:335,1,70,0|2,0:2|3:2,0:0:0:0:
184,330,41279,1,0,3:2:0:0:
184,330,41358,5,2,3:2:0:0:
300,380,41517,2,0,P|355:365|449:347,1,140,8|0,0:2|3:2,0:0:0:0:
500,200,41993,5,10,0:2:0:0:
348,255,42152,1,0,3:2:0:0:
455,344,42311,1,2,3:2:0:0:
409,184,42470,1,0,3:2:0:0:
409,184,42549,1,0,3:2:0:0:
409,184,42628,6,0,B|443:98|443:98|422:86|394:60,1,140,6|2,3:2|0:2,0:2:0:0:
322,4,43104,1,0,3:2:0:0:
260,115,43263,2,0,P|267:149|272:183,1,70,10|0,0:2|0:2,0:2:0:0:
169,204,43581,2,0,P|161:169|156:135,1,70,2|0,0:2|3:2,0:0:0:0:
156,135,43819,1,0,3:2:0:0:
156,135,43898,5,2,3:2:0:0:
238,265,44057,2,0,P|167:297|95:258,1,140,8|0,0:2|3:2,0:2:0:0:
12,178,44533,2,0,P|49:184|94:191,1,70,10|0,0:2|0:2,0:2:0:0:
232,130,44850,2,0,P|194:136|149:143,1,70,8|0,0:2|0:0,0:0:0:0:
299,47,45168,6,0,B|263:137|263:137|291:151|314:194,2,157.499995193482,6|8|0,3:2|0:2|3:2,0:2:0:0:
394,173,45962,1,0,3:2:0:0:
219,219,46120,1,10,0:2:0:0:
356,278,46279,1,2,0:2:0:0:
270,119,46438,6,0,P|230:107|178:115,1,78.7499975967408,2|2,3:2|0:2,0:0:0:0:
37,165,46755,1,10,0:2:0:0:
142,233,46914,2,0,P|178:226|228:217,1,78.7499975967408,2|0,0:2|3:2,0:2:0:0:
115,138,47231,1,0,3:2:0:0:
162,330,47390,2,0,P|198:323|248:314,1,78.7499975967408,10|0,0:2|0:2,0:2:0:0:
425,226,47708,6,0,B|378:215|378:215|355:222|355:222|294:207,1,118.124996395111,6|0,3:2|0:2,0:2:0:0:
258,152,48025,2,0,P|253:113|265:76,1,78.7499975967408,10|0,0:2|0:2,0:2:0:0:
380,6,48343,1,2,3:2:0:0:
346,122,48501,1,0,3:2:0:0:
217,4,48660,2,0,P|174:11|122:21,1,78.7499975967408,10|0,0:2|0:2,0:2:0:0:
57,196,48977,6,0,B|126:214|126:214|147:205|172:176,1,118.124996395111,6|0,3:2|0:2,0:2:0:0:
239,162,49295,2,0,P|256:202|251:249,1,78.7499975967408,8|0,0:2|0:2,0:2:0:0:
206,378,49612,1,2,3:2:0:0:
335,302,49771,1,0,3:2:0:0:
169,291,49930,2,0,P|127:299|79:307,1,78.7499975967408,8|2,0:2|3:2,0:0:0:0:
145,92,50247,6,0,B|164:131|164:131|152:175,1,87.5,12|0,0:2|0:2,0:2:0:0:
23,352,50565,2,0,B|4:313|4:313|16:269,1,87.5,8|0,0:2|3:2,0:0:0:0:
248,153,50882,5,8,0:2:0:0:
206,367,51041,1,0,3:2:0:0:
395,170,51200,1,8,0:2:0:0:
353,384,51359,1,0,3:2:0:0:
247,138,51517,5,8,0:2:0:0:
411,295,51676,1,0,3:2:0:0:
367,36,51835,1,8,0:2:0:0:
260,266,51993,1,0,3:2:0:0:
202,3,52152,5,10,3:2:0:0:
399,186,52311,1,10,3:2:0:0:
110,171,52470,1,0,3:2:0:0:
325,377,52628,6,0,B|364:378|395:366|395:366|434:388|434:388|463:374|520:375,1,183.749994392395,14|0,3:2|3:2,0:2:0:0:
265,178,53104,2,0,P|250:221|260:266,1,91.8749971961976,8|0,0:2|3:2,0:0:0:0:
430,23,53422,5,8,0:2:0:0:
128,58,53581,1,0,3:2:0:0:
453,194,53739,1,8,0:2:0:0:
152,230,53898,1,0,3:2:0:0:
432,37,54057,5,10,3:2:0:0:
330,360,54216,1,8,3:2:0:0:
126,233,54374,5,0,3:2:0:0:
95,239,54453,1,0,3:2:0:0:
63,245,54532,1,0,3:2:0:0:
31,250,54612,1,0,3:2:0:0:
0,256,54691,5,10,3:2:0:0:
129,80,54850,1,8,3:2:0:0:
247,352,55009,6,0,P|282:372|331:359,1,91.8749971961976,2|0,0:0|0:0,0:0:0:0:
341,347,55327,6,1,B|359:302|359:302|340:257,1,96.250002937317,6|0,3:2|0:0,0:2:0:0:
103,235,55644,2,0,B|84:279|84:279|102:324,1,96.250002937317,10|2,0:2|0:2,0:0:0:0:
222,133,55962,1,2,3:2:0:0:
30,164,56120,1,2,3:2:0:0:
217,272,56279,1,8,0:2:0:0:
349,102,56438,6,0,P|359:55|340:3,1,96.250002937317,2|0,0:2|0:0,0:2:0:0:
218,112,56755,1,2,0:2:0:0:
417,207,56914,2,0,P|463:196|511:187,1,96.250002937317,10|2,0:2|0:2,0:2:0:0:
341,119,57231,1,2,3:2:0:0:
405,310,57390,1,2,3:2:0:0:
178,254,57549,6,0,B|117:252|71:289|71:289|74:253|104:224,1,183.749994392395,10|0,0:2|0:0,0:2:0:0:
151,159,57866,6,0,P|143:109|136:62,1,96.250002937317,2|2,3:2|0:2,0:2:0:0:
298,269,58184,2,0,P|290:316|283:364,1,96.250002937317,10|2,0:2|0:2,0:2:0:0:
240,107,58501,1,2,3:2:0:0:
410,216,58660,1,2,3:2:0:0:
178,254,58819,2,0,P|120:259|84:240,1,96.250002937317,10|2,0:2|0:2,0:0:0:0:
342,129,59136,5,2,3:2:0:0:
194,342,59295,1,2,0:2:0:0:
158,56,59454,1,10,0:2:0:0:
343,284,59612,1,2,0:2:0:0:
434,86,59771,6,0,P|429:55|422:15,1,61.2499981307984,2|0,3:2|3:2,0:2:0:0:
344,143,60089,6,0,P|334:81|320:1,1,122.499996261597,10|0,0:2|0:2,0:2:0:0:
199,251,60406,5,2,3:2:0:0:
431,301,60565,1,2,0:2:0:0:
229,136,60723,2,0,P|175:134|128:157,1,96.250002937317,10|2,0:2|0:2,0:0:0:0:
254,317,61041,1,2,3:2:0:0:
344,143,61200,1,2,3:2:0:0:
179,249,61358,1,8,0:2:0:0:
431,301,61517,6,0,B|455:274|494:261|494:261|456:142,1,192.500005874634,2|0,0:2|0:2,0:2:0:0:
245,43,61993,2,0,P|237:89|229:142,1,96.250002937317,10|0,0:2|0:2,0:2:0:0:
72,252,62311,1,2,3:2:0:0:
110,82,62470,1,0,3:2:0:0:
246,269,62628,6,0,B|298:291|354:254|354:254|325:280|324:320,1,183.749994392395,10|0,0:2|0:0,0:2:0:0:
411,319,62946,6,0,P|459:332|507:315,1,96.250002937317,2|2,3:2|0:2,0:0:0:0:
341,152,63263,1,10,0:2:0:0:
323,332,63422,1,2,0:2:0:0:
209,104,63581,1,2,3:2:0:0:
430,215,63739,1,2,3:2:0:0:
161,267,63898,1,10,0:2:0:0:
323,51,64057,6,0,B|446:82|446:82|411:18,1,192.500005874634,2|2,3:2|3:2,0:2:0:0:
247,188,64533,2,0,P|292:178|344:167,1,96.250002937317,10|2,0:2|0:2,0:0:0:0:
203,21,64850,1,2,3:2:0:0:
186,269,65009,1,8,0:2:0:0:
186,269,65089,1,8,0:2:0:0:
186,269,65168,2,0,P|192:296|198:323,1,48.1250014686585,8|8,0:2|0:2,0:2:0:0:
319,374,65327,2,0,P|325:347|331:320,1,48.1250014686585,8|8,0:2|0:2,0:2:0:0:
421,156,65485,6,1,B|467:175|467:175|511:161,1,96.250002937317,6|0,3:2|0:0,0:2:0:0:
296,29,65803,2,0,B|251:15|251:15|205:34,1,96.250002937317,10|2,0:2|0:2,0:0:0:0:
120,206,66120,1,2,3:2:0:0:
303,147,66279,1,2,3:2:0:0:
92,76,66438,1,8,0:2:0:0:
217,281,66597,6,0,P|208:335|199:387,1,96.250002937317,2|0,0:2|0:0,0:2:0:0:
131,195,66914,1,2,0:2:0:0:
331,289,67073,2,0,P|322:343|313:395,1,96.250002937317,10|2,0:2|0:2,0:0:0:0:
232,188,67390,1,2,3:2:0:0:
433,254,67549,1,2,3:2:0:0:
327,45,67708,6,0,B|262:42|226:79|226:79|186:50|188:11,1,183.749994392395,10|0,0:2|0:0,0:2:0:0:
103,4,68025,6,0,P|79:52|90:109,1,96.250002937317,2|2,3:2|0:2,0:0:0:0:
212,277,68343,2,0,P|218:233|228:169,1,96.250002937317,10|2,0:2|0:2,0:0:0:0:
281,366,68660,1,2,3:2:0:0:
105,285,68819,1,2,3:2:0:0:
335,221,68977,2,0,P|381:239|431:232,1,96.250002937317,10|2,0:2|0:2,0:0:0:0:
227,48,69295,5,2,3:2:0:0:
209,298,69454,1,2,0:2:0:0:
403,77,69612,1,10,0:2:0:0:
385,327,69771,1,2,0:2:0:0:
155,187,69930,6,0,P|124:192|84:199,1,61.2499981307984,2|0,3:2|3:2,0:2:0:0:
212,277,70248,6,0,P|150:287|70:301,1,122.499996261597,10|0,0:2|0:2,0:2:0:0:
295,135,70565,5,2,3:2:0:0:
366,311,70723,1,2,0:2:0:0:
488,126,70882,2,0,P|493:86|475:31,1,96.250002937317,10|2,0:2|0:2,0:0:0:0:
299,153,71200,1,2,3:2:0:0:
457,220,71358,1,2,3:2:0:0:
339,31,71517,1,8,0:2:0:0:
155,187,71676,6,0,B|112:178|112:178|100:181|100:181|52:171,1,96.250002937317,2|0,0:2|0:0,0:2:0:0:
257,70,71993,1,2,3:2:0:0:
148,295,72152,1,10,0:2:0:0:
98,78,72311,1,2,3:2:0:0:
260,229,72470,2,0,P|249:279|237:339,1,96.250002937317,2|0,3:2|0:2,0:2:0:0:
413,212,72787,6,0,B|401:158|387:95|387:95|408:128|457:131,1,183.749994392395,10|0,0:2|0:0,0:2:0:0:
451,51,73104,5,10,3:2:0:0:
197,121,73263,1,10,3:2:0:0:
451,51,73739,5,10,3:2:0:0:
337,288,73898,2,0,P|287:277|247:269,1,87.5,10|0,3:2|0:0,0:0:0:0:
107,91,74216,6,1,B|175:76|175:76|212:94|212:94|282:77,1,175,10|10,3:2|3:2,0:2:0:0:
413,212,74692,2,0,P|363:201|323:193,1,87.5,10|2,3:2|0:2,0:2:0:0:
506,122,75009,1,2,3:2:0:0:
402,315,75168,1,8,0:2:0:0:
364,325,75247,1,8,0:2:0:0:
325,322,75326,1,8,0:2:0:0:
289,305,75406,1,8,0:2:0:0:
262,277,75485,6,0,B|155:304|155:304|112:286|99:245,1,192.500005874634,6|2,3:2|3:2,0:2:0:0:
373,184,75962,1,10,0:2:0:0:
256,384,76120,1,2,0:2:0:0:
209,98,76279,5,2,3:2:0:0:
402,315,76438,1,8,0:2:0:0:
386,26,76597,1,8,0:2:0:0:
132,161,76755,6,1,B|1:129|1:129|27:185,1,192.500005874634,6|2,3:2|3:2,0:2:0:0:
271,264,77231,1,10,0:2:0:0:
212,10,77390,1,2,0:2:0:0:
86,270,77549,5,2,3:2:0:0:
342,136,77708,1,8,0:2:0:0:
67,49,77866,1,8,0:2:0:0:
252,271,78025,6,1,B|292:266|320:256|320:256|365:280|365:280|394:264|448:261,1,192.500005874634,6|2,3:2|3:2,0:2:0:0:
271,84,78501,2,0,P|253:137|264:180,1,96.250002937317,10|0,0:2|0:0,0:2:0:0:
359,364,78819,1,2,3:2:0:0:
497,159,78977,5,8,0:2:0:0:
497,159,79057,1,8,0:2:0:0:
497,159,79136,2,8,P|491:129|485:102,1,48.1250014686585,8|8,0:2|0:2,0:2:0:0:
385,7,79295,2,0,P|379:30|375:54,1,48.1250014686585,10|8,0:2|0:2,0:2:0:0:
329,234,79454,5,10,3:2:0:0:
133,24,79612,1,10,3:2:0:0:
183,333,79771,1,2,0:0:0:0:
379,80,79930,1,2,3:2:0:0:
379,80,80009,1,0,3:2:0:0:
379,80,80089,5,10,3:2:0:0:
41,161,80247,1,10,3:2:0:0:
344,251,80406,6,0,B|397:244|384:277|441:270,1,91.8749971961976,2|0,0:0|0:0,0:0:0:0:
450,270,80723,6,0,B|470:309|470:309|453:349,1,87.5,4|0,3:2|0:2,0:2:0:0:
245,383,81041,2,1,P|232:296|219:209,1,175,10|0,0:2|3:2,0:2:0:0:
142,357,81517,1,0,3:2:0:0:
326,255,81676,2,0,P|335:211|323:162,1,87.5,10|0,0:2|0:2,0:2:0:0:
158,121,81993,6,0,P|83:122|41:82,1,131.25,0|0,3:2|0:0,0:2:0:0:
85,18,82311,2,0,P|126:28|175:42,1,87.5,10|0,0:2|0:2,0:2:0:0:
322,81,82628,1,2,3:2:0:0:
164,136,82787,1,0,3:2:0:0:
262,1,82946,1,10,0:2:0:0:
313,176,83104,1,2,0:2:0:0:
118,230,83263,6,0,P|72:231|25:210,1,87.5,2|0,3:2|0:2,0:2:0:0:
241,82,83581,1,10,0:2:0:0:
212,280,83739,1,2,0:2:0:0:
329,178,83898,1,2,3:2:0:0:
173,153,84057,1,2,3:2:0:0:
314,308,84216,2,0,P|361:312|400:298,1,87.5,10|0,0:2|0:2,0:2:0:0:
482,105,84533,6,0,P|419:92|335:75,1,131.25,2|0,3:2|0:0,0:2:0:0:
293,27,84850,2,0,P|250:35|207:44,1,87.5,8|0,0:2|0:2,0:2:0:0:
45,151,85168,1,0,3:2:0:0:
239,204,85327,1,0,3:2:0:0:
23,298,85485,1,8,0:2:0:0:
117,66,85644,1,8,0:2:0:0:
117,66,85723,1,8,0:2:0:0:
117,66,85803,1,8,0:2:0:0:
328,347,86120,5,6,3:2:0:0:
256,192,86200,12,0,88343,0:2:0:0:
