osu file format v14

[General]
AudioFilename: Oato Yoroshikutte... Yo! (TV Size).mp3
AudioLeadIn: 1000
PreviewTime: 55327
Countdown: 0
SampleSet: Soft
StackLeniency: 0.3
Mode: 0
LetterboxInBreaks: 0
WidescreenStoryboard: 1

[Editor]
Bookmarks: 724,5803,10882,15962,17231,22311,27390,32470,37549,42628,47708,52787,55327,60406,65485,70565,75644,80723,85803
DistanceSpacing: 1
BeatDivisor: 4
GridSize: 4
TimelineZoom: 1.8

[Metadata]
Title:Oato ga Yoroshikutte... yo! (TV Size)
TitleUnicode:お後がよろしくって…よ! (TV Size)
Artist:Goku Rakujo-kai
ArtistUnicode:極♨落女会
Creator:Fycho
Version:Kencho's Easy
Source:じょしらく
Tags:JOSHIRAKU opening 佐倉綾音 南條愛乃 小岩井ことり 後藤沙緒里 山本希望 kibbleru pata-mon kencho japanese anime pop Rakujokai 蕪羅亭魔梨威 Marii Buratei Sakura Ayane 防波亭手寅 Bouhatei Bohatei Tetora Yamamoto Nozomi 波浪浮亭木胡桃 Harokitei Haroukitei Kigurumi Koiwai Kotori 空琉美遊亭丸京 Kuurubiyuutei Gankyou Gankyo Kurubiyutei Nanjo Nanjou Yoshino 暗落亭苦来 Kukuru Anrakutei Gotou Goto Saori
BeatmapID:743660
BeatmapSetID:332231

[Difficulty]
HPDrainRate:2
CircleSize:2.5
OverallDifficulty:2.5
ApproachRate:3.5
SliderMultiplier:0.899999999999999
SliderTickRate:1

[Events]
//Background and Video events
Video,0,"JoshirakuOP.avi"
0,0,"BG.jpg",0,0
//Break Periods
//Storyboard Layer 0 (Background)
//Storyboard Layer 1 (Fail)
//Storyboard Layer 2 (Pass)
//Storyboard Layer 3 (Foreground)
//Storyboard Layer 4 (Overlay)
//Storyboard Sound Samples

[TimingPoints]
724,317.460317460317,4,2,1,70,1,0
5327,-100,4,2,1,40,0,0
5803,-100,4,2,2,70,0,1
5882,-100,4,2,2,70,0,0
13422,-100,4,2,2,70,0,0
15962,-100,4,2,2,50,0,0
17231,-100,4,1,1,40,0,0
27390,-100,4,2,2,60,0,0
37231,-100,4,2,2,40,0,0
37549,-100,4,2,2,50,0,0
37552,-100,4,2,2,50,0,0
42628,-100,4,2,2,60,0,0
44850,-100,4,2,2,40,0,0
45168,-100,4,2,2,70,0,0
50247,-100,4,2,10,70,0,0
50327,-100,4,2,2,70,0,0
55327,-100,4,2,2,80,0,1
57549,-100,4,2,2,80,0,1
57866,-100,4,2,2,80,0,1
62628,-100,4,2,2,80,0,1
62787,-100,4,2,2,80,0,1
65009,-100,4,2,2,60,0,1
65485,-100,4,2,2,80,0,1
67708,-100,4,2,2,80,0,1
67866,-100,4,2,2,80,0,1
75168,-100,4,2,2,60,0,1
75485,-100,4,2,2,80,0,1
78977,-100,4,2,2,50,0,1
79454,-100,4,2,2,80,0,0
80723,-100,4,2,2,80,0,1
80803,-100,4,2,2,60,0,0
84533,-100,4,2,2,70,0,0
86438,-100,4,2,2,60,0,0
86755,-100,4,2,2,50,0,0
87073,-100,4,2,2,40,0,0
87390,-100,4,2,2,30,0,0
87708,-100,4,2,2,20,0,0
88025,-100,4,2,2,10,0,0
88343,-100,4,2,2,5,0,0

[Colours]
Combo1 : 255,128,128
Combo2 : 128,255,128
Combo3 : 255,255,128
Combo4 : 128,255,255

[HitObjects]
167,266,724,6,0,P|253:286|340:265,1,180,4|0,1:2|0:0,0:0:0:0:
429,108,1993,2,0,P|342:87|255:108,1,180,4|0,1:2|0:0,0:0:0:0:
110,215,3263,6,0,P|106:259|110:304,1,89.9999999999999,4|0,1:2|0:0,0:0:0:0:
197,282,3898,2,0,P|263:270|329:280,2,135,12|4|0,0:0|1:2|1:0,0:0:0:0:
110,304,5168,1,0,1:0:0:0:
108,123,5803,5,4,0:0:0:0:
196,139,6120,2,0,P|240:144|285:139,1,89.9999999999999,8|2,0:0|0:0,0:0:0:0:
358,86,6755,2,0,P|402:81|447:86,1,89.9999999999999,8|2,0:0|0:0,0:0:0:0:
425,173,7390,2,0,P|418:217|425:261,2,89.9999999999999,8|0|8,0:0|0:0|0:0,0:0:0:0:
447,86,8343,5,2,0:0:0:0:
360,111,8660,2,0,P|315:116|270:111,1,89.9999999999999,8|2,0:0|0:0,0:0:0:0:
198,58,9295,2,0,P|153:53|108:58,1,89.9999999999999,8|2,0:0|0:0,0:0:0:0:
127,146,9930,2,0,P|133:190|126:234,2,89.9999999999999,8|0|8,0:0|0:0|0:0,0:0:0:0:
108,58,10882,5,4,0:0:0:0:
193,86,11200,2,0,B|262:117|323:87|323:87|349:124,1,180,8|8,0:0|0:0,0:0:0:0:
296,196,12152,2,0,P|233:219|166:213,2,135,4|4|8,0:0|0:0|0:0,0:0:0:0:
378,158,13422,6,0,P|422:153|467:157,1,89.9999999999999,0|8,0:0|0:0,0:0:0:0:
444,244,14057,2,0,P|439:288|445:333,1,89.9999999999999,0|8,0:0|0:0,0:0:0:0:
358,358,14692,2,0,P|245:308|284:192,1,270,4|8,0:0|0:0,0:0:0:0:
353,133,15962,2,0,P|420:145|486:133,2,135,4|8|8,3:0|0:0|0:0,0:0:0:0:
267,104,17231,5,4,1:2:0:0:
182,73,17549,2,0,P|137:67|24:140,1,180,8|8,1:0|0:0,0:0:0:0:
15,223,18501,2,0,L|18:312,1,89.9999999999999,0|8,0:0|0:0,0:0:0:0:
95,358,19136,2,0,P|139:363|184:357,1,89.9999999999999,0|8,0:0|0:0,0:0:0:0:
246,291,19771,5,4,0:2:0:0:
284,209,20089,2,0,P|374:199|464:229,1,180,10|8,0:0|0:0,0:0:0:0:
476,137,21041,2,0,P|478:92|469:48,2,89.9999999999999,0|8|0,0:0|0:0|0:0,0:0:0:0:
458,225,21993,1,8,0:0:0:0:
407,303,22311,6,0,P|363:307|318:302,1,89.9999999999999,4|10,0:2|0:0,0:0:0:0:
246,246,22946,2,0,B|206:232|206:232|113:242,2,135,0|0|10,0:0|0:0|0:0,0:0:0:0:
330,215,24216,2,0,P|334:170|329:126,1,89.9999999999999,0|8,0:0|0:0,0:0:0:0:
296,41,24850,5,0,0:0:0:0:
212,76,25168,2,0,P|168:80|123:75,1,89.9999999999999,0|0,0:0|0:0,0:0:0:0:
33,58,25803,2,0,L|37:102,1,45,8|4,0:0|0:2,0:0:0:0:
10,188,26279,2,0,L|14:232,1,45,2|8,0:0|0:0,0:0:0:0:
27,321,26755,2,0,P|71:325|116:321,1,89.9999999999999,0|10,0:0|0:2,0:0:0:0:
201,290,27390,5,4,0:0:0:0:
276,340,27708,2,0,L|465:328,1,180,8|8,0:0|0:0,0:0:0:0:
451,238,28660,2,0,L|361:244,1,89.9999999999999,0|8,0:0|0:0,0:0:0:0:
271,246,29295,2,0,P|226:250|181:246,1,89.9999999999999,2|8,0:0|0:0,0:0:0:0:
91,234,29930,5,4,0:0:0:0:
85,144,30247,2,0,P|132:73|232:70,1,180,8|8,0:0|0:0,0:0:0:0:
307,89,31200,2,0,P|309:44|300:0,2,89.9999999999999,0|8|0,0:0|0:0|0:0,0:0:0:0:
285,176,32152,1,8,0:0:0:0:
303,264,32470,6,0,P|347:268|392:263,1,89.9999999999999,4|8,0:0|0:0,0:0:0:0:
475,227,33105,2,0,P|484:293|470:359,2,135,2|4|8,0:0|0:0|0:0,0:0:0:0:
422,154,34374,2,0,P|377:149|332:154,1,89.9999999999999,0|8,0:0|0:0,0:0:0:0:
259,205,35009,6,0,L|214:200,1,45,4|8,0:0|0:0,0:0:0:0:
164,275,35485,2,0,L|119:270,1,45,4|8,0:0|0:0,0:0:0:0:
29,261,35962,2,0,P|5:176|51:102,1,180,4|8,0:0|0:0,0:0:0:0:
139,120,36914,2,0,P|184:126|229:121,1,89.9999999999999,8|8,0:0|0:0,0:0:0:0:
209,208,37549,6,0,P|202:252|208:296,2,89.9999999999999,4|0|8,0:0|0:0|0:0,0:0:0:0:
228,121,38501,1,0,0:0:0:0:
153,69,38819,2,0,P|74:104|62:190,1,180,8|8,0:0|0:0,0:0:0:0:
129,249,39771,1,0,0:0:0:0:
209,208,40089,6,0,P|253:201|297:205,1,89.9999999999999,8|0,0:0|0:0,0:0:0:0:
374,252,40723,2,0,P|418:256|463:249,1,89.9999999999999,10|0,0:0|0:0,0:0:0:0:
504,169,41358,2,0,P|491:83|412:48,1,180,8|8,0:0|0:0,0:0:0:0:
333,91,42310,1,4,0:3:0:0:
329,181,42628,6,0,P|372:194|417:195,2,89.9999999999999,4|0|8,0:0|0:0|0:0,0:0:0:0:
250,137,43580,1,0,0:0:0:0:
250,227,43898,2,0,P|215:306|130:319,1,180,8|8,0:0|0:0,0:0:0:0:
48,284,44850,1,8,0:0:0:0:
98,209,45168,6,0,P|103:164|99:119,1,89.9999999999999,4|8,0:0|0:0,0:0:0:0:
78,31,45803,2,0,P|122:26|167:30,1,89.9999999999999,2|8,0:0|0:0,0:0:0:0:
249,68,46438,2,0,P|314:82|380:69,2,135,2|2|8,0:0|0:0|0:0,0:0:0:0:
176,121,47708,6,0,P|171:165|175:210,1,89.9999999999999,4|8,0:0|0:0,0:0:0:0:
247,264,48343,2,0,P|251:308|246:353,1,89.9999999999999,2|8,0:0|0:0,0:0:0:0:
156,342,48977,2,0,P|112:337|67:341,1,89.9999999999999,4|8,0:0|0:0,0:0:0:0:
25,260,49612,2,0,P|16:193|36:129,2,135,2|0|8,0:0|0:0|0:0,0:0:0:0:
66,341,50882,6,0,P|111:346|156:342,1,89.9999999999999,8|10,0:0|0:0,0:0:0:0:
228,288,51517,2,0,P|272:283|317:288,1,89.9999999999999,8|8,0:0|0:0,0:0:0:0:
399,327,52152,2,0,B|444:341|486:335|486:335|504:292,2,135,8|4|8,0:0|0:0|0:0,0:0:0:0:
317,288,53422,6,0,P|312:244|315:199,1,89.9999999999999,8|8,0:0|0:0,0:0:0:0:
332,110,54057,2,0,P|252:78|181:128,1,180,4|4,0:0|0:0,0:0:0:0:
280,278,55327,6,0,P|323:286|368:283,1,89.9999999999999,4|8,0:0|0:0,0:0:0:0:
456,260,55962,2,0,B|502:252|502:252|512:304|499:339,2,135,0|2|8,0:0|0:0|0:0,0:0:0:0:
369,283,57231,2,0,P|324:286|281:278,1,89.9999999999999,0|4,0:0|0:0,0:0:0:0:
198,240,57866,6,0,P|154:231|109:234,2,89.9999999999999,0|8|0,0:0|0:0|0:0,0:0:0:0:
280,278,58819,1,8,0:0:0:0:
274,188,59136,2,0,P|273:121|302:60,2,135,6|2|8,0:0|0:0|0:0,0:0:0:0:
280,278,60406,6,0,P|285:322|276:366,1,89.9999999999999,4|8,0:0|0:0,0:0:0:0:
189,343,61041,2,0,P|122:332|57:348,2,135,0|2|8,0:0|0:0|0:0,0:0:0:0:
276,367,62310,2,0,P|320:373|365:369,1,89.9999999999999,0|8,0:0|0:0,0:0:0:0:
410,290,62946,6,0,P|415:245|411:200,1,89.9999999999999,4|8,0:0|0:0,0:0:0:0:
372,119,63581,2,0,B|359:73|369:28|369:28|411:19,2,135,4|4|8,0:0|0:0|0:0,0:0:0:0:
324,195,64850,2,0,P|279:200|234:196,1,89.9999999999999,8|8,0:0|0:0,0:0:0:0:
159,146,65485,6,0,P|114:141|69:147,1,89.9999999999999,4|8,0:0|0:0,0:0:0:0:
95,233,66120,2,0,P|108:298|93:363,2,135,2|2|8,0:0|0:0|0:0,0:0:0:0:
69,147,67390,2,0,P|63:102|67:57,1,89.9999999999999,2|12,0:0|0:0,0:0:0:0:
156,72,68025,6,0,P|200:76|245:70,1,89.9999999999999,0|8,0:0|0:0,0:0:0:0:
330,41,68660,2,0,P|374:35|419:39,1,89.9999999999999,0|8,0:0|0:0,0:0:0:0:
394,125,69295,2,0,P|381:190|396:255,2,135,6|2|8,0:0|0:0|0:0,0:0:0:0:
419,39,70565,6,0,P|374:34|330:41,1,89.9999999999999,4|8,0:0|0:0,0:0:0:0:
245,69,71200,2,0,P|200:75|156:72,1,89.9999999999999,0|8,0:0|0:0,0:0:0:0:
120,154,71835,2,0,P|112:198|117:242,2,89.9999999999999,0|4|0,0:0|0:0|0:0,0:0:0:0:
156,72,72787,1,4,0:0:0:0:
233,117,73104,6,0,P|277:121|322:118,1,89.9999999999999,8|0,0:0|0:0,0:0:0:0:
404,79,73739,2,0,B|452:66|494:73|494:73|508:114,2,135,8|4|8,0:0|0:0|0:0,0:0:0:0:
323,118,75009,1,8,0:0:0:0:
323,118,75485,6,0,L|323:253,1,135,4|8,0:0|0:0,0:0:0:0:
323,343,76279,1,8,0:0:0:0:
323,343,76755,6,0,L|188:343,1,135,4|8,0:0|0:0,0:0:0:0:
98,343,77549,1,8,0:0:0:0:
98,343,78025,6,0,L|98:208,1,135,4|8,0:0|0:0,0:0:0:0:
98,118,78819,1,8,0:0:0:0:
219,176,79295,6,0,P|284:193|348:175,1,135,8|0,0:0|0:0,0:0:0:0:
432,144,80089,2,0,P|437:188|433:233,1,89.9999999999999,8|2,0:0|0:0,0:0:0:0:
403,318,80723,6,0,L|313:320,2,89.9999999999999,4|8|2,0:0|0:0|0:0,0:0:0:0:
433,233,81676,2,0,L|343:236,1,89.9999999999999,8|2,0:0|0:0,0:0:0:0:
270,182,82311,2,0,P|266:137|271:92,2,89.9999999999999,8|0|8,0:0|0:0|0:0,0:0:0:0:
343,236,83263,6,0,P|348:281|344:326,1,89.9999999999999,4|8,0:0|0:0,0:0:0:0:
261,360,83898,2,0,P|216:365|171:361,1,89.9999999999999,0|8,0:0|0:0,0:0:0:0:
90,323,84533,2,0,P|44:209|154:154,1,270,4|8,0:0|0:0,0:0:0:0:
129,241,85803,5,8,0:0:0:0:
256,192,86120,12,0,88343,0:0:0:0:
