osu file format v14

[General]
AudioFilename: Oato Yoroshikutte... Yo! (TV Size).mp3
AudioLeadIn: 1000
PreviewTime: 55327
Countdown: 0
SampleSet: Soft
StackLeniency: 0.3
Mode: 0
LetterboxInBreaks: 0
WidescreenStoryboard: 1

[Editor]
DistanceSpacing: 1.1
BeatDivisor: 4
GridSize: 4
TimelineZoom: 1.8

[Metadata]
Title:Oato ga Yoroshikutte... yo! (TV Size)
TitleUnicode:お後がよろしくって…よ! (TV Size)
Artist:Goku Rakujo-kai
ArtistUnicode:極♨落女会
Creator:Fycho
Version:Hard
Source:じょしらく
Tags:JOSHIRAKU opening 佐倉綾音 南條愛乃 小岩井ことり 後藤沙緒里 山本希望 kibbleru pata-mon kencho japanese anime pop Rakujokai 蕪羅亭魔梨威 Marii Buratei Sakura Ayane 防波亭手寅 Bouhatei Bohatei Tetora Yamamoto Nozomi 波浪浮亭木胡桃 Harokitei Haroukitei Kigurumi Koiwai Kotori 空琉美遊亭丸京 Kuurubiyuutei Gankyou Gankyo Kurubiyutei Nanjo Nanjou Yoshino 暗落亭苦来 Kukuru Anrakutei Gotou Goto Saori
BeatmapID:743659
BeatmapSetID:332231

[Difficulty]
HPDrainRate:5.5
CircleSize:4
OverallDifficulty:6
ApproachRate:7.5
SliderMultiplier:1.5
SliderTickRate:1

[Events]
//Background and Video events
Video,0,"JoshirakuOP.avi"
0,0,"BG.jpg",0,0
//Break Periods
//Storyboard Layer 0 (Background)
//Storyboard Layer 1 (Fail)
//Storyboard Layer 2 (Pass)
//Storyboard Layer 3 (Foreground)
//Storyboard Layer 4 (Overlay)
//Storyboard Sound Samples

[TimingPoints]
724,317.460317460317,4,2,1,70,1,0
5327,-100,4,2,1,40,0,0
5803,-100,4,2,2,70,0,1
5882,-100,4,2,2,70,0,0
13422,-100,4,2,2,70,0,0
15962,-100,4,2,2,50,0,0
17231,-100,4,1,1,40,0,0
27390,-100,4,2,2,60,0,0
37231,-133.333333333333,4,2,2,40,0,0
37549,-133.333333333333,4,2,2,50,0,0
42628,-133.333333333333,4,2,2,60,0,0
44850,-133.333333333333,4,2,2,40,0,0
45168,-100,4,2,2,70,0,0
55327,-100,4,2,2,80,0,1
57549,-83.3333333333333,4,2,2,80,0,1
57866,-100,4,2,2,80,0,1
62628,-100,4,2,2,80,0,1
62787,-100,4,2,2,80,0,1
65009,-100,4,2,2,60,0,1
65485,-100,4,2,2,80,0,1
67708,-83.3333333333333,4,2,2,80,0,1
67866,-100,4,2,2,80,0,1
75168,-100,4,2,2,60,0,1
75485,-100,4,2,2,80,0,1
78977,-100,4,2,2,50,0,1
79454,-100,4,2,2,80,0,0
80723,-100,4,2,2,80,0,1
80803,-100,4,2,2,60,0,0
84533,-100,4,2,2,50,0,0
86438,-100,4,2,2,60,0,0
86755,-100,4,2,2,50,0,0
87073,-100,4,2,2,40,0,0
87390,-100,4,2,2,30,0,0
87708,-100,4,2,2,20,0,0
88025,-100,4,2,2,10,0,0
88343,-100,4,2,2,5,0,0

[Colours]
Combo1 : 255,128,128
Combo2 : 128,255,128
Combo3 : 255,255,128
Combo4 : 128,255,255

[HitObjects]
135,117,724,5,4,1:2:0:0:
135,117,882,1,4,1:2:0:0:
377,117,1993,5,4,1:2:0:0:
377,117,2151,1,4,1:2:0:0:
256,72,2946,5,8,0:0:0:0:
256,300,3263,5,4,1:2:0:0:
256,300,3422,1,0,0:0:0:0:
56,320,3898,2,0,P|80:248|60:180,1,150,4|0,1:2|0:0,0:0:0:0:
82,99,4374,6,0,P|168:94|233:95,1,150,4|0,1:2|1:0,0:0:0:0:
296,146,4850,1,0,1:0:0:0:
373,116,5009,1,0,1:0:0:0:
451,142,5168,6,0,P|474:195|454:304,1,150,0|0,1:0|1:0,0:0:0:0:
387,316,5644,1,0,1:0:0:0:
307,294,5803,6,0,P|210:290|143:317,2,150,4|8|2,0:0|0:0|0:0,0:0:0:0:
350,222,6597,1,0,0:0:0:0:
350,222,6755,2,0,L|376:122,1,75,8|0,0:0|0:0,0:0:0:0:
354,67,7073,6,0,L|503:75,2,150,2|8|0,0:0|0:0|0:0,0:0:0:0:
274,90,7866,1,2,0:0:0:0:
205,43,8025,1,8,0:0:0:0:
194,125,8184,1,2,0:0:0:0:
124,79,8343,6,0,P|97:131|88:222,1,150,2|8,0:0|0:0,0:0:0:0:
141,283,8819,1,0,0:0:0:0:
194,345,8977,2,0,L|352:308,1,150,2|8,0:0|0:0,0:0:0:0:
423,312,9454,1,0,0:0:0:0:
474,247,9612,6,0,P|488:187|485:166,1,75,2|0,0:0|0:0,0:0:0:0:
417,128,9930,2,0,P|366:163|354:180,1,75,8|2,0:0|0:0,0:0:0:0:
299,230,10247,2,0,P|241:251|216:249,1,75,0|2,0:0|0:0,0:0:0:0:
155,211,10565,1,8,0:0:0:0:
155,211,10882,6,0,L|107:357,2,150,4|8|2,0:0|0:0|0:0,0:0:0:0:
110,140,11676,2,0,P|71:120|28:119,2,75,0|8|2,0:0|0:0|0:0,0:0:0:0:
191,124,12152,6,0,P|274:127|354:78,1,150,4|8,0:0|0:0,0:0:0:0:
409,67,12628,2,0,P|406:115|409:234,1,150,4|0,0:0|0:0,0:0:0:0:
358,309,13104,2,0,P|349:273|329:242,1,75,8|2,0:0|0:0,0:0:0:0:
246,251,13422,6,0,P|231:285|229:324,1,75,0|2,0:0|0:0,0:0:0:0:
299,366,13739,1,8,0:0:0:0:
358,309,13898,1,2,0:0:0:0:
442,316,14057,2,0,L|504:361,2,75,0|2|8,0:0|0:0|0:0,0:0:0:0:
326,197,14692,6,0,L|493:167,2,150,4|8|2,0:0|0:0|0:0,0:0:0:0:
252,234,15485,1,2,0:0:0:0:
170,222,15644,1,8,0:0:0:0:
109,278,15803,1,2,0:0:0:0:
65,207,15962,5,4,3:0:0:0:
65,207,16120,1,4,3:0:0:0:
127,153,16279,1,8,0:0:0:0:
127,153,16438,1,8,0:0:0:0:
93,77,16597,2,0,L|86:38,2,37.5,4|8|8,3:0|0:0|0:0,0:0:0:0:
169,47,16914,1,8,0:0:0:0:
222,109,17073,1,8,0:3:0:0:
222,109,17152,1,8,0:3:0:0:
222,109,17231,6,0,L|305:93,1,75,4|0,0:2|1:0,0:0:0:0:
374,69,17549,2,0,P|418:140|403:210,2,150,8|0|8,1:0|0:0|0:0,0:0:0:0:
295,94,18343,6,0,L|142:124,1,150,2|0,0:0|0:0,0:0:0:0:
5,101,18819,2,0,P|29:128|66:136,1,75,10|0,0:0|0:0,0:0:0:0:
120,198,19136,2,0,L|104:274,1,75
84,352,19454,2,0,P|164:319|259:330,1,150,8|4,0:0|0:2,0:0:0:0:
303,350,19930,5,0,0:0:0:0:
383,333,20089,2,0,P|400:256|370:189,2,150,10|0|8,0:0|0:0|0:0,0:0:0:0:
303,350,20882,6,0,L|136:366,1,150,2|0,0:0|0:0,0:0:0:0:
98,297,21358,2,0,P|57:240|57:226,1,75,10|0,0:0|0:0,0:0:0:0:
186,171,21676,2,0,P|173:205|144:229,1,75,0|0,0:0|0:0,0:0:0:0:
57,239,21993,2,0,L|83:83,1,150,8|4,0:0|0:2,0:0:0:0:
163,77,22470,5,0,0:0:0:0:
225,23,22628,2,0,P|279:37|303:41,1,75,10|0,0:0|0:0,0:0:0:0:
326,113,22946,2,0,P|394:147|467:135,1,150,0|8,0:0|0:0,0:0:0:0:
496,212,23422,6,0,L|502:290,2,75,0|4|0,0:0|0:2|0:0,0:0:0:0:
414,226,23898,2,0,L|400:376,1,150,10|0,0:0|0:0,0:0:0:0:
326,338,24374,1,0,0:0:0:0:
270,276,24533,2,0,P|208:264|190:269,1,75,8|0,0:0|0:0,0:0:0:0:
129,312,24850,6,0,L|115:136,1,150,0|8,0:0|0:0,0:0:0:0:
340,52,25485,2,0,L|351:201,1,150,0|8,0:0|0:0,0:0:0:0:
296,263,25962,6,0,P|229:281|172:212,1,150,4|2,0:2|0:0,0:0:0:0:
187,149,26438,2,0,P|112:142|37:133,1,150,8|0,0:0|0:0,0:0:0:0:
145,362,27073,2,0,P|189:348|299:364,1,150,10|4,0:2|0:0,0:0:0:0:
453,334,27708,5,8,0:0:0:0:
486,259,27866,1,2,0:0:0:0:
486,259,28025,2,0,P|470:178|481:102,1,150,0|8,0:0|0:0,0:0:0:0:
428,45,28501,6,0,P|325:63|267:49,1,150,2|2,0:0|0:0,0:0:0:0:
199,43,28977,2,0,P|147:66|126:92,1,75,8|2,0:0|0:0,0:0:0:0:
202,127,29295,2,0,P|188:155|179:200,1,75,2|2,0:0|0:0,0:0:0:0:
263,202,29612,2,0,P|330:235|406:218,1,150,8|4,0:0|0:0,0:0:0:0:
222,280,30247,6,0,P|219:325|233:359,1,75,8|2,0:0|0:0,0:0:0:0:
309,375,30565,2,0,P|386:340|394:267,1,150,2|8,0:0|0:0,0:0:0:0:
381,200,31041,2,0,L|368:120,1,75,2|0,0:0|0:0,0:0:0:0:
287,111,31358,1,2,0:0:0:0:
287,111,31517,6,0,L|299:185,1,75,8|2,0:0|0:0,0:0:0:0:
278,265,31835,1,0,0:0:0:0:
200,291,31993,1,2,0:0:0:0:
135,239,32152,2,0,P|55:233|-10:291,1,150,8|4,0:0|0:0,0:0:0:0:
263,353,32787,6,0,L|346:333,1,75,8|2,0:0|0:0,0:0:0:0:
418,336,33104,2,0,P|450:260|417:173,1,150,2|8,0:0|0:0,0:0:0:0:
365,150,33581,6,0,P|298:150|224:217,1,150,4|0,0:0|0:0,0:0:0:0:
195,271,34057,2,0,P|213:200|195:103,1,150,8|2,0:0|0:0,0:0:0:0:
129,87,34533,1,0,0:0:0:0:
193,35,34692,2,0,L|281:23,1,75,8|0,0:0|0:0,0:0:0:0:
335,70,35009,6,0,L|426:76,2,75,4|8|0,0:0|0:0|0:0,0:0:0:0:
353,150,35485,2,0,L|445:166,2,75,4|8|0,0:0|0:0|0:0,0:0:0:0:
303,217,35962,2,0,L|462:263,1,150,4|0,0:0|0:0,0:0:0:0:
391,319,36438,5,2,0:0:0:0:
308,314,36597,2,0,P|265:333|226:355,1,75,8|2,0:0|0:0,0:0:0:0:
160,336,36914,2,0,P|144:248|88:208,1,150,8|8,0:0|0:0,0:0:0:0:
116,36,37549,6,0,P|168:88|216:96,1,112.500004291535,4|0,0:0|0:0,0:0:0:0:
282,102,38025,1,0,0:0:0:0:
358,83,38184,2,0,L|341:213,1,112.500004291535,8|0,0:0|0:0,0:0:0:0:
197,303,38819,6,0,L|214:186,1,112.500004291535,12|0,0:0|0:0,0:0:0:0:
157,136,39295,1,0,0:0:0:0:
83,108,39454,2,0,P|30:114|5:114,1,56.2500021457673,8|0,0:0|0:0,0:0:0:0:
0,195,39771,2,0,P|53:189|78:189,1,56.2500021457673,0|8,0:0|0:0,0:0:0:0:
125,227,40089,6,0,L|107:338,1,112.500004291535,8|0,0:0|0:0,0:0:0:0:
178,371,40565,1,0,0:0:0:0:
254,353,40723,1,8,0:0:0:0:
299,288,40882,2,0,P|370:264|430:263,1,112.500004291535,0|8,0:0|0:0,0:0:0:0:
478,227,41358,6,0,P|495:156|481:113,1,112.500004291535,6|2,0:0|0:0,0:0:0:0:
326,125,41993,2,0,P|315:179|332:232,1,112.500004291535,10|2,0:0|0:0,0:0:0:0:
348,368,42628,6,0,L|212:381,1,112.500004291535,4|0,0:0|0:0,0:0:0:0:
169,336,43104,1,0,0:0:0:0:
90,336,43263,2,0,P|71:229|80:212,1,112.500004291535,8|0,0:0|0:0,0:0:0:0:
172,110,43898,5,12,0:0:0:0:
172,110,44057,2,0,L|291:97,1,112.500004291535,8|12,0:0|0:0,0:0:0:0:
356,127,44533,2,0,L|479:113,1,112.500004291535,8|8,0:0|0:0,0:0:0:0:
451,323,45168,6,0,P|416:298|385:258,1,75,4|0,0:0|0:0,0:0:0:0:
323,232,45485,2,0,P|286:242|223:338,1,150,8|2,0:0|0:0,0:0:0:0:
141,339,45962,1,0,0:0:0:0:
60,321,46120,2,0,P|77:279|79:248,1,75,8|0,0:0|0:0,0:0:0:0:
39,176,46438,5,2,0:0:0:0:
111,135,46597,1,0,0:0:0:0:
73,61,46755,1,8,0:0:0:0:
73,61,46914,1,0,0:0:0:0:
143,18,47073,2,0,P|207:14|225:17,1,75,2|0,0:0|0:0,0:0:0:0:
296,40,47390,2,0,P|308:115|298:131,1,75,8|0,0:0|0:0,0:0:0:0:
290,190,47708,6,0,P|269:261|283:334,2,150,4|8|2,0:0|0:0|0:0,0:0:0:0:
369,167,48501,1,0,0:0:0:0:
309,110,48660,2,0,P|259:88|228:93,1,75,8|0,0:0|0:0,0:0:0:0:
173,138,48977,6,0,P|89:164|16:120,2,150,4|8|2,0:0|0:0|0:0,0:0:0:0:
158,56,49771,1,0,0:0:0:0:
234,23,49930,2,0,L|321:23,1,75,8|0,0:0|0:0,0:0:0:0:
362,85,50247,6,0,L|356:167,1,75,4|2,0:0|0:0,0:0:0:0:
337,240,50565,2,0,L|357:324,1,75,8|2,0:0|0:0,0:0:0:0:
274,333,50882,2,0,L|256:260,1,75,8|2,0:0|0:0,0:0:0:0:
267,177,51200,2,0,L|272:102,1,75,8|2,0:0|0:0,0:0:0:0:
195,70,51517,6,0,P|95:80|42:98,1,150,8|8,0:0|0:0,0:0:0:0:
50,268,52152,2,0,P|150:258|203:240,1,150,8|8,0:0|0:0,0:0:0:0:
262,192,52628,6,0,L|354:318,1,150,4|0,0:0|0:0,0:0:0:0:
433,312,53104,2,0,P|465:257|461:224,1,75,8|2,0:0|0:0,0:0:0:0:
447,166,53422,2,0,L|355:172,1,75,8|2,0:0|0:0,0:0:0:0:
341,94,53739,2,0,L|426:88,1,75,8|0,0:0|0:0,0:0:0:0:
464,21,54057,5,4,0:0:0:0:
464,21,54216,1,2,0:0:0:0:
208,24,54692,1,4,0:0:0:0:
208,24,54850,1,4,0:0:0:0:
40,160,55327,5,4,0:0:0:0:
106,208,55485,2,0,P|106:269|93:296,1,75,2|8,0:0|0:0,0:0:0:0:
166,333,55803,1,2,0:0:0:0:
211,264,55962,1,0,0:0:0:0:
288,237,56120,2,0,P|339:256|359:279,1,75,2|8,0:0|0:0,0:0:0:0:
366,352,56438,6,0,P|394:238|416:206,1,150,2|2,0:0|0:0,0:0:0:0:
388,132,56914,2,0,L|302:140,2,75,8|2|0,0:0|0:0|0:0,0:0:0:0:
441,73,57390,1,2,0:0:0:0:
499,126,57549,6,0,P|512:165|508:257,1,134.999995880127,12|2,0:0|0:0,0:0:0:0:
507,257,57866,6,0,L|422:280,1,75,0|2,0:0|0:0,0:0:0:0:
358,244,58184,2,0,L|276:229,1,75,8|2,0:0|0:0,0:0:0:0:
223,286,58501,2,0,P|234:175|212:142,1,150,0|8,0:0|0:0,0:0:0:0:
143,107,58977,1,2,0:0:0:0:
77,157,59136,6,0,P|48:216|46:238,1,75,6|2,0:0|0:0,0:0:0:0:
5,113,59454,2,0,P|5:74|-14:22,1,75,8|2,0:0|0:0,0:0:0:0:
82,31,59771,2,0,P|125:77|211:70,1,150,6|8,0:0|0:0,0:0:0:0:
283,42,60247,1,2,0:0:0:0:
331,108,60406,6,0,P|350:142|390:166,1,75,4|2,0:0|0:0,0:0:0:0:
464,153,60723,2,0,P|488:114|494:75,2,75,8|2|0,0:0|0:0|0:0,0:0:0:0:
426,226,61200,1,2,0:0:0:0:
423,308,61358,2,0,L|322:299,1,75,8|2,0:0|0:0,0:0:0:0:
265,302,61676,6,0,P|123:309|104:322,2,150,0|8|0,0:0|0:0|0:0,0:0:0:0:
348,259,62470,1,2,0:0:0:0:
423,308,62628,1,8,0:0:0:0:
423,308,62946,6,0,L|454:225,1,75,4|2,0:0|0:0,0:0:0:0:
453,155,63263,2,0,L|426:84,1,75,8|2,0:0|0:0,0:0:0:0:
345,102,63581,1,4,0:0:0:0:
345,102,63739,1,2,0:0:0:0:
269,68,63898,1,8,0:0:0:0:
192,100,64057,6,0,P|124:186|123:258,1,150,4|2,0:0|0:0,0:0:0:0:
43,303,64533,2,0,P|45:253|27:203,1,75,8|0,0:0|0:0,0:0:0:0:
38,146,64850,1,8,0:0:0:0:
88,80,65009,2,0,L|90:21,2,37.5,8|8|8,0:0|0:0|0:0,0:0:0:0:
138,145,65327,1,8,0:0:0:0:
138,145,65406,1,8,0:0:0:0:
138,145,65485,6,0,P|194:164|238:164,1,75,4|2,0:0|0:0,0:0:0:0:
276,214,65803,2,0,P|259:282|265:315,1,75,8|2,0:0|0:0,0:0:0:0:
324,336,66120,2,0,P|400:316|479:324,1,150,2|8,0:0|0:0,0:0:0:0:
496,242,66597,6,0,P|483:189|493:83,1,150,2|2,0:0|0:0,0:0:0:0:
418,52,67073,2,0,P|405:87|403:144,1,75,8|2,0:0|0:0,0:0:0:0:
344,239,67390,2,0,P|344:179|334:154,1,75,2|2,0:0|0:0,0:0:0:0:
268,117,67708,6,0,P|217:128|149:205,1,134.999995880127,12|0,0:0|0:0,0:0:0:0:
156,196,68025,6,0,L|69:184,1,75,0|2,0:0|0:0,0:0:0:0:
201,266,68343,2,0,L|275:276,1,75,8|2,0:0|0:0,0:0:0:0:
138,327,68660,2,0,L|51:315,1,75,0|2,0:0|0:0,0:0:0:0:
201,373,68978,2,0,L|275:383,1,75,8|2,0:0|0:0,0:0:0:0:
354,360,69295,6,0,P|370:273|374:205,1,150,6|8,0:0|0:0,0:0:0:0:
285,161,69771,1,2,0:0:0:0:
285,161,69930,2,0,P|269:239|265:314,1,150,2|8,0:0|0:0,0:0:0:0:
201,373,70406,1,2,0:0:0:0:
201,373,70565,5,4,0:0:0:0:
139,318,70723,2,0,P|65:324|46:331,2,75,2|8|2,0:0|0:0|0:0,0:0:0:0:
162,238,71200,1,2,0:0:0:0:
243,226,71358,2,0,P|250:170|241:127,1,75,2|8,0:0|0:0,0:0:0:0:
167,131,71676,6,0,P|204:93|313:89,1,150,2|2,0:0|0:0,0:0:0:0:
360,134,72152,2,0,L|468:117,2,75,4|0|0,0:0|0:0|0:0,0:0:0:0:
346,287,72787,2,0,L|496:306,1,150,4|8,0:0|0:0,0:0:0:0:
187,186,73739,5,8,0:0:0:0:
434,169,74216,6,0,P|470:73|376:6,1,225,4|8,0:0|0:0,0:0:0:0:
245,92,75009,1,8,0:0:0:0:
165,115,75168,2,0,L|97:102,2,37.5,8|8|8,0:0|0:0|0:0,0:0:0:0:
207,185,75485,6,0,P|212:282|195:348,1,150,4|0,0:0|0:0,0:0:0:0:
200,332,75962,2,0,P|112:302|34:321,1,150,8|8,0:0|0:0,0:0:0:0:
17,238,76438,1,2,0:0:0:0:
32,156,76597,1,8,0:0:0:0:
98,108,76755,6,0,P|174:82|273:97,1,150,4|0,0:0|0:0,0:0:0:0:
261,166,77231,2,0,L|300:1,1,150,8|8,0:0|0:0,0:0:0:0:
376,36,77708,2,0,L|385:115,1,75,2|8,0:0|0:0,0:0:0:0:
391,192,78025,6,0,P|316:193|244:214,1,150,4|0,0:0|0:0,0:0:0:0:
175,260,78501,2,0,P|165:297|168:352,1,75,8|2,0:0|0:0,0:0:0:0:
244,356,78819,1,8,0:0:0:0:
319,324,78977,2,0,L|337:253,2,37.5,8|8|8,0:0|0:0|0:0,0:0:0:0:
397,350,79295,1,8,0:0:0:0:
397,350,79374,1,8,0:0:0:0:
397,350,79454,6,0,L|419:267,1,75,8|8,0:0|0:0,0:0:0:0:
420,194,79771,2,0,P|354:213|286:204,1,112.5,0|8,0:0|0:0,0:0:0:0:
271,197,80089,1,8,0:0:0:0:
214,137,80247,2,0,P|163:131|112:143,1,75,8|2,0:0|0:0,0:0:0:0:
77,189,80565,1,0,0:0:0:0:
15,135,80723,6,0,L|44:55,1,75,4|0,0:0|0:0,0:0:0:0:
122,50,81041,2,0,L|96:120,1,75,8|0,0:0|0:0,0:0:0:0:
178,122,81358,2,0,L|207:42,1,75,2|0,0:0|0:0,0:0:0:0:
285,39,81676,2,0,L|259:109,1,75,8|0,0:0|0:0,0:0:0:0:
279,206,81993,6,0,L|366:188,1,75,2|0,0:0|0:0,0:0:0:0:
435,189,82311,2,0,P|437:226|467:359,2,150,8|2|8,0:0|0:0|0:0,0:0:0:0:
459,110,83104,1,0,0:0:0:0:
424,34,83263,6,0,P|378:38|346:45,1,75,4|2,0:0|0:0,0:0:0:0:
274,80,83581,2,0,L|118:71,1,150,8|0,0:0|0:0,0:0:0:0:
88,145,84057,1,2,0:0:0:0:
146,203,84216,2,0,P|170:267|169:289,1,75,8|2,0:0|0:0,0:0:0:0:
130,345,84533,6,0,P|84:357|-5:298,2,150,4|8|8,0:0|0:0|0:0,0:0:0:0:
271,221,85485,1,8,0:0:0:0:
206,150,85644,2,0,L|202:106,3,25,8|8|8|0,0:0|0:0|0:0|0:0,0:0:0:0:
432,150,86120,5,4,0:0:0:0:
256,192,86200,12,0,88343,0:0:0:0:
