osu file format v14

[General]
AudioFilename: audio.mp3
AudioLeadIn: 0
PreviewTime: -1
Countdown: 0
SampleSet: None
StackLeniency: 0.7
Mode: 0
LetterboxInBreaks: 0
WidescreenStoryboard: 1

[Editor]
DistanceSpacing: 1.5
BeatDivisor: 6
GridSize: 32
TimelineZoom: 1.2

[Metadata]
Title:Imperator
TitleUnicode:Imperator
Artist:Gokki
ArtistUnicode:Gokki
Creator:bufy37
Version:Insane
Source:
Tags:gokki гокки император imperor imperator
BeatmapID:4538033
BeatmapSetID:2143827

[Difficulty]
HPDrainRate:5
CircleSize:5
OverallDifficulty:4
ApproachRate:7
SliderMultiplier:1.4
SliderTickRate:2

[Events]
//Background and Video events
0,0,"Звездопад.jpg",0,0
//Break Periods
2,68888,69709
2,117273,137758
//Storyboard Layer 0 (Background)
//Storyboard Layer 1 (Fail)
//Storyboard Layer 2 (Pass)
//Storyboard Layer 3 (Foreground)
//Storyboard Layer 4 (Overlay)
//Storyboard Sound Samples

[TimingPoints]
0,365.853658536585,4,2,0,100,1,0

[HitObjects]
120,154,0,5,0,0:0:0:0:
191,210,274,1,0,0:0:0:0:
258,156,548,1,0,0:0:0:0:
324,216,823,1,0,0:0:0:0:
255,224,1097,2,0,L|143:225,1,105
150,224,1646,1,0,0:0:0:0:
150,224,1829,1,0,0:0:0:0:
158,236,2012,1,0,0:0:0:0:
159,237,2195,1,0,0:0:0:0:
280,167,2560,5,0,0:0:0:0:
280,167,2652,1,0,0:0:0:0:
127,101,2926,6,0,P|211:103|224:103,2,70
225,97,3567,1,0,0:0:0:0:
148,156,3841,2,0,P|241:157|249:157,1,70
332,156,4298,1,0,0:0:0:0:
161,97,4573,5,0,0:0:0:0:
256,102,4756,1,0,0:0:0:0:
165,206,4939,1,0,0:0:0:0:
262,209,5121,1,0,0:0:0:0:
157,113,5487,2,0,L|159:205,1,70
254,96,5853,5,0,0:0:0:0:
353,97,6219,1,0,0:0:0:0:
244,192,6402,2,0,L|336:192,1,70
346,99,6951,1,0,0:0:0:0:
348,196,7134,1,0,0:0:0:0:
348,196,7499,1,0,0:0:0:0:
233,195,7682,1,0,0:0:0:0:
233,195,7865,1,0,0:0:0:0:
155,103,8048,5,0,0:0:0:0:
188,245,8414,1,0,0:0:0:0:
264,35,8597,1,0,0:0:0:0:
321,248,8780,1,0,0:0:0:0:
399,112,9146,1,0,0:0:0:0:
167,131,9329,1,0,0:0:0:0:
278,259,9512,1,0,0:0:0:0:
266,36,9786,1,0,0:0:0:0:
298,133,9999,5,0,0:0:0:0:
298,133,10060,1,0,0:0:0:0:
145,94,11707,6,0,P|339:93|347:93,1,186.666666666667
142,170,12439,2,0,L|378:168,1,233.333333333333
103,206,13536,2,0,P|263:59|396:212,1,466.666666666667
384,105,14999,2,0,B|352:267|170:168|170:168|173:145,1,280
167,161,15975,1,0,0:0:0:0:
151,77,16463,6,0,L|278:79,4,105
170,151,17926,2,0,B|242:154|240:154,1,70
174,234,18292,2,0,P|316:235|317:236,1,140
162,117,19451,6,0,L|338:117,2,163.333333333333
154,77,20853,2,0,B|342:72|342:72|367:66,2,210
148,174,22317,2,0,B|333:309|378:153|378:153|392:186,1,303.333333333333
167,103,23323,5,0,0:0:0:0:
231,179,23506,1,0,0:0:0:0:
302,96,23689,1,0,0:0:0:0:
388,136,23871,2,0,P|404:233|302:272,1,210
124,106,24695,5,0,0:0:0:0:
253,107,24878,1,0,0:0:0:0:
257,207,25060,1,0,0:0:0:0:
134,206,25243,1,0,0:0:0:0:
184,39,25426,1,0,0:0:0:0:
342,70,25701,6,0,P|340:294|330:305,1,245
182,143,26524,6,0,L|296:144,2,105
194,98,27347,5,0,0:0:0:0:
194,98,27530,1,0,0:0:0:0:
305,96,27804,1,0,0:0:0:0:
305,96,27987,1,0,0:0:0:0:
316,198,28262,6,0,P|157:198|157:199,1,245
157,194,29085,1,0,0:0:0:0:
308,200,29268,1,0,0:0:0:0:
238,268,29451,1,0,0:0:0:0:
182,86,29725,5,0,0:0:0:0:
194,181,29908,1,0,0:0:0:0:
316,102,30091,1,0,0:0:0:0:
316,102,30274,5,0,0:0:0:0:
182,86,30457,1,0,0:0:0:0:
194,181,30640,1,0,0:0:0:0:
131,69,30914,6,0,P|379:69|380:69,1,245
376,69,31646,2,0,L|380:264,1,175
379,243,32195,2,0,L|156:250,1,210
181,126,33018,5,0,0:0:0:0:
250,124,33201,1,0,0:0:0:0:
321,124,33384,1,0,0:0:0:0:
398,126,33567,1,0,0:0:0:0:
321,193,33749,1,0,0:0:0:0:
254,194,33932,1,0,0:0:0:0:
114,145,34390,6,0,L|241:144,1,105
189,123,34939,2,0,P|402:123|403:123,1,210
181,237,35762,5,0,0:0:0:0:
275,74,35945,1,0,0:0:0:0:
336,243,36128,1,0,0:0:0:0:
170,137,36310,1,0,0:0:0:0:
374,142,36493,1,0,0:0:0:0:
374,66,36768,6,0,B|182:65|183:65,1,175
206,147,37499,1,0,0:0:0:0:
327,150,37682,1,0,0:0:0:0:
327,150,37865,1,0,0:0:0:0:
302,225,38140,6,0,P|218:225|218:226,1,105
226,200,38597,1,0,0:0:0:0:
226,200,38780,1,0,0:0:0:0:
232,208,38963,1,0,0:0:0:0:
324,117,39146,2,0,L|323:209,1,70
138,108,39603,6,0,B|196:108|196:108|203:109,4,35
336,91,40243,5,0,0:0:0:0:
334,179,40426,1,0,0:0:0:0:
336,91,40609,1,0,0:0:0:0:
432,92,40792,1,0,0:0:0:0:
336,91,40975,1,0,0:0:0:0:
333,184,41158,1,0,0:0:0:0:
148,105,41432,6,0,P|277:151|255:183,1,245
259,179,42256,1,0,0:0:0:0:
259,179,42347,1,0,0:0:0:0:
380,67,42530,1,0,0:0:0:0:
381,202,42713,1,0,0:0:0:0:
367,271,42987,6,0,P|211:243|185:203,1,210
188,209,43719,1,0,0:0:0:0:
188,209,43902,1,0,0:0:0:0:
186,123,44085,2,0,B|247:125|246:125,3,35
319,96,44634,1,0,0:0:0:0:
322,185,44817,1,0,0:0:0:0:
412,74,45091,6,0,B|431:185|391:197|392:197,1,105
408,177,45548,1,0,0:0:0:0:
408,177,45731,1,0,0:0:0:0:
255,86,45914,1,0,0:0:0:0:
255,86,46189,1,0,0:0:0:0:
256,189,46463,5,0,0:0:0:0:
384,110,46829,5,0,0:0:0:0:
388,205,47012,1,0,0:0:0:0:
250,126,47286,5,0,0:0:0:0:
250,126,47378,1,0,0:0:0:0:
256,230,47652,1,0,0:0:0:0:
172,228,47835,1,0,0:0:0:0:
181,141,48018,1,0,0:0:0:0:
181,141,48201,1,0,0:0:0:0:
174,56,48292,2,0,L|256:57,1,70
374,69,48567,5,0,0:0:0:0:
377,189,48749,1,0,0:0:0:0:
378,291,48932,1,0,0:0:0:0:
246,63,49207,5,0,0:0:0:0:
247,192,49390,1,0,0:0:0:0:
249,318,49573,1,0,0:0:0:0:
353,71,49847,6,0,B|354:159|370:167|369:167,3,70
306,86,50670,1,0,0:0:0:0:
195,108,51219,5,0,0:0:0:0:
195,108,51402,1,0,0:0:0:0:
195,108,51585,1,0,0:0:0:0:
195,108,51768,1,0,0:0:0:0:
195,108,51951,1,0,0:0:0:0:
195,108,52134,1,0,0:0:0:0:
195,108,52317,1,0,0:0:0:0:
195,108,52499,1,0,0:0:0:0:
263,100,52682,6,0,P|381:99|381:100,1,175
384,86,53323,1,0,0:0:0:0:
374,176,53506,2,0,B|261:174|261:174|264:215,1,140
148,144,54146,6,0,L|191:86,1,70
186,91,54512,1,0,0:0:0:0:
265,107,54786,5,0,0:0:0:0:
264,209,54969,1,0,0:0:0:0:
380,215,55152,1,0,0:0:0:0:
381,112,55335,1,0,0:0:0:0:
127,62,55518,5,0,0:0:0:0:
128,283,55792,1,0,0:0:0:0:
360,283,56067,1,0,0:0:0:0:
362,69,56341,1,0,0:0:0:0:
185,170,56524,6,0,L|341:170,1,140
214,79,58170,5,0,0:0:0:0:
329,125,58353,1,0,0:0:0:0:
220,201,58536,1,0,0:0:0:0:
324,276,58719,1,0,0:0:0:0:
416,186,58810,6,0,B|243:85|243:85|171:42|136:39,1,315
138,39,59817,1,0,0:0:0:0:
135,114,59999,1,0,0:0:0:0:
138,110,60091,1,0,0:0:0:0:
135,183,60365,1,0,0:0:0:0:
135,183,60457,1,0,0:0:0:0:
410,115,60640,6,0,P|253:69|227:104,1,210
241,80,61371,1,0,0:0:0:0:
246,162,61554,1,0,0:0:0:0:
347,168,61737,1,0,0:0:0:0:
245,84,61920,1,0,0:0:0:0:
347,168,62103,1,0,0:0:0:0:
125,196,62378,6,0,B|251:233|251:233,1,105
150,100,62926,5,0,0:0:0:0:
150,100,63109,1,0,0:0:0:0:
150,100,63292,1,0,0:0:0:0:
150,100,63475,1,0,0:0:0:0:
150,100,63658,1,0,0:0:0:0:
289,88,63932,6,0,P|286:246|317:248,1,245
315,245,64847,1,0,0:0:0:0:
375,117,65030,1,0,0:0:0:0:
251,150,65213,1,0,0:0:0:0:
406,209,65396,1,0,0:0:0:0:
102,80,65670,5,0,0:0:0:0:
296,68,65853,1,0,0:0:0:0:
179,206,66036,1,0,0:0:0:0:
234,210,66219,2,0,L|345:208,1,105
373,184,66768,1,0,0:0:0:0:
306,280,66951,5,0,0:0:0:0:
190,160,67134,1,0,0:0:0:0:
274,117,67317,1,0,0:0:0:0:
207,250,67499,1,0,0:0:0:0:
124,93,68140,2,0,P|184:94|231:96,2,105
225,84,70609,6,0,B|166:164|216:230|215:230,1,140
296,222,71158,2,0,B|371:144|304:88|304:82,1,140
389,101,72164,6,0,P|416:208|380:246,1,140
318,102,72713,2,0,P|268:168|291:243,1,140
100,87,73262,6,0,P|58:177|89:216,1,140
201,99,73719,2,0,P|239:148|186:235,1,175
225,98,74542,6,0,B|191:195|228:273|228:273|251:266,1,175
357,95,75182,2,0,B|394:176|372:266|372:266|401:283,1,175
211,99,75823,5,0,0:0:0:0:
333,110,76006,1,0,0:0:0:0:
215,231,76189,1,0,0:0:0:0:
340,229,76371,1,0,0:0:0:0:
431,165,76554,1,0,0:0:0:0:
216,56,76737,1,0,0:0:0:0:
161,142,77195,6,0,B|235:66|344:139|333:260|231:309|125:230|154:169,1,385
161,110,78475,2,0,B|340:109|340:109|367:107,1,175
148,206,79115,1,0,0:0:0:0:
324,202,79298,1,0,0:0:0:0:
328,306,79481,1,0,0:0:0:0:
430,252,79664,1,0,0:0:0:0:
139,120,79939,6,0,B|326:125|326:125|327:124,1,175
313,124,80487,1,0,0:0:0:0:
313,124,80579,1,0,0:0:0:0:
323,128,80670,1,0,0:0:0:0:
139,191,80853,6,0,L|317:193,1,175
315,197,81493,1,0,0:0:0:0:
315,197,81585,1,0,0:0:0:0:
137,249,81859,5,0,0:0:0:0:
137,249,82042,1,0,0:0:0:0:
137,249,82225,1,0,0:0:0:0:
137,249,82408,1,0,0:0:0:0:
137,249,82591,1,0,0:0:0:0:
137,249,82682,2,0,B|225:251|224:251,2,70
337,241,83414,5,0,0:0:0:0:
337,241,83597,1,0,0:0:0:0:
337,241,83780,1,0,0:0:0:0:
337,241,83963,1,0,0:0:0:0:
337,241,84146,1,0,0:0:0:0:
332,237,84329,2,0,L|239:236,2,70
328,112,84969,5,0,0:0:0:0:
328,112,85152,1,0,0:0:0:0:
328,112,85335,1,0,0:0:0:0:
328,112,85518,1,0,0:0:0:0:
328,112,85701,1,0,0:0:0:0:
319,107,85884,2,0,B|238:106|238:106|231:108,2,70
113,157,86432,5,0,0:0:0:0:
113,157,86615,1,0,0:0:0:0:
113,157,86798,1,0,0:0:0:0:
113,157,86981,1,0,0:0:0:0:
113,157,87164,1,0,0:0:0:0:
113,157,87347,2,0,L|189:158,2,70
337,165,87896,5,0,0:0:0:0:
337,165,88079,1,0,0:0:0:0:
337,165,88262,1,0,0:0:0:0:
337,165,88445,1,0,0:0:0:0:
337,165,88628,1,0,0:0:0:0:
330,162,88810,2,0,L|250:164,2,70
94,79,89359,5,0,0:0:0:0:
133,202,89542,1,0,0:0:0:0:
209,90,89725,1,0,0:0:0:0:
266,201,89908,1,0,0:0:0:0:
338,90,90091,1,0,0:0:0:0:
356,200,90274,2,0,L|307:285,2,70
77,204,90823,5,0,0:0:0:0:
148,84,91006,1,0,0:0:0:0:
176,204,91189,1,0,0:0:0:0:
77,121,91371,1,0,0:0:0:0:
235,126,91554,1,0,0:0:0:0:
149,147,91737,2,0,L|251:149,2,70
99,54,92286,5,0,0:0:0:0:
346,56,92469,1,0,0:0:0:0:
352,211,92652,1,0,0:0:0:0:
105,217,92835,1,0,0:0:0:0:
222,126,93018,1,0,0:0:0:0:
225,228,93201,2,0,L|224:102,2,105
345,99,93932,5,0,0:0:0:0:
362,209,94115,1,0,0:0:0:0:
196,134,94298,1,0,0:0:0:0:
211,237,94481,1,0,0:0:0:0:
88,55,94664,2,0,L|333:53,1,245
340,150,95487,6,0,L|65:155,1,245
91,261,96310,1,0,0:0:0:0:
237,265,96493,1,0,0:0:0:0:
343,189,96676,1,0,0:0:0:0:
236,152,96859,1,0,0:0:0:0:
110,153,97042,1,0,0:0:0:0:
217,52,97225,2,0,L|371:54,1,140
172,102,98048,5,0,0:0:0:0:
172,102,98231,1,0,0:0:0:0:
172,102,98414,1,0,0:0:0:0:
172,102,98597,1,0,0:0:0:0:
172,102,98780,1,0,0:0:0:0:
172,102,98963,1,0,0:0:0:0:
172,102,99146,1,0,0:0:0:0:
172,102,99329,1,0,0:0:0:0:
304,86,99603,6,0,P|297:205|245:194,1,210
160,89,100335,1,0,0:0:0:0:
311,95,100518,1,0,0:0:0:0:
311,95,100609,1,0,0:0:0:0:
311,95,100701,1,0,0:0:0:0:
400,101,100975,6,0,L|400:165,1,35
159,191,101341,6,0,L|281:193,1,105
301,90,101890,5,0,0:0:0:0:
302,209,102073,1,0,0:0:0:0:
217,123,102256,1,0,0:0:0:0:
219,194,102439,1,0,0:0:0:0:
94,190,102713,5,0,0:0:0:0:
194,254,102896,1,0,0:0:0:0:
201,121,103079,1,0,0:0:0:0:
359,118,103445,2,0,L|363:300,1,175
140,111,104999,6,0,L|332:105,1,175
316,107,105731,1,0,0:0:0:0:
316,107,105914,1,0,0:0:0:0:
316,107,106097,1,0,0:0:0:0:
336,206,106371,6,0,L|178:229,1,140
200,231,106920,1,0,0:0:0:0:
200,231,107103,1,0,0:0:0:0:
200,231,107286,1,0,0:0:0:0:
117,179,107469,6,0,L|123:139,1,35
112,74,107926,2,0,B|273:79|273:79|273:80,1,140
258,80,108384,1,0,0:0:0:0:
338,92,108567,1,0,0:0:0:0:
301,213,108749,1,0,0:0:0:0:
154,171,108932,1,0,0:0:0:0:
425,151,109115,1,0,0:0:0:0:
164,98,109756,5,0,0:0:0:0:
164,98,109939,1,0,0:0:0:0:
164,98,110121,1,0,0:0:0:0:
164,98,110304,1,0,0:0:0:0:
164,98,110487,1,0,0:0:0:0:
315,82,110853,6,0,L|316:200,1,105
316,192,111219,1,0,0:0:0:0:
248,196,111402,2,0,L|132:195,1,105
144,78,111859,1,0,0:0:0:0:
313,82,112042,1,0,0:0:0:0:
315,209,112225,1,0,0:0:0:0:
115,202,112499,6,0,L|253:112,1,140
315,117,113140,1,0,0:0:0:0:
316,231,113323,1,0,0:0:0:0:
125,144,113780,2,0,L|280:87,1,140
151,238,114329,2,0,L|331:222,1,175
359,102,114969,6,0,P|362:207|362:218,2,105
129,76,116341,5,0,0:0:0:0:
129,76,116524,1,0,0:0:0:0:
129,76,116707,1,0,0:0:0:0:
129,76,116890,1,0,0:0:0:0:
129,76,117073,1,0,0:0:0:0:
256,192,138658,12,0,140487,0:0:0:0:
117,187,140670,6,0,L|272:158,1,140
254,161,141219,2,0,L|376:185,1,105
122,97,141676,1,0,0:0:0:0:
122,234,141859,1,0,0:0:0:0:
255,226,142042,1,0,0:0:0:0:
262,229,142225,1,0,0:0:0:0:
258,107,142408,5,0,0:0:0:0:
381,110,142591,1,0,0:0:0:0:
160,58,142865,2,0,L|151:176,1,105
153,165,143323,1,0,0:0:0:0:
258,70,143506,1,0,0:0:0:0:
254,163,143689,1,0,0:0:0:0:
373,79,143871,6,0,L|310:231,1,140
319,207,144512,1,0,0:0:0:0:
256,181,144878,5,0,0:0:0:0:
256,181,145060,1,0,0:0:0:0:
256,181,145243,1,0,0:0:0:0:
256,181,145426,1,0,0:0:0:0:
256,181,145609,1,0,0:0:0:0:
256,181,145792,1,0,0:0:0:0:
249,104,146067,6,0,L|183:107,1,35
207,106,146341,2,0,L|159:109,1,35
99,216,146615,1,0,0:0:0:0:
281,209,146798,1,0,0:0:0:0:
365,125,146981,1,0,0:0:0:0:
421,40,147164,1,0,0:0:0:0:
257,67,147439,6,0,P|136:117|178:176,1,245
175,174,148262,1,0,0:0:0:0:
175,174,148445,1,0,0:0:0:0:
204,252,148719,6,0,L|357:246,1,140
333,110,149359,2,0,L|333:275,1,140
137,132,149999,2,0,L|133:245,4,105
219,160,152195,5,0,0:0:0:0:
323,159,152378,1,0,0:0:0:0:
323,159,152560,1,0,0:0:0:0:
195,252,152835,2,0,L|315:252,1,105
382,172,153384,1,0,0:0:0:0:
385,259,153658,1,0,0:0:0:0:
291,265,153841,1,0,0:0:0:0:
295,173,154024,1,0,0:0:0:0:
298,178,154207,1,0,0:0:0:0:
298,178,154390,1,0,0:0:0:0:
168,72,154756,6,0,P|154:242|154:243,1,140
261,75,155487,2,0,P|418:92|427:142,1,210
430,111,156219,1,0,0:0:0:0:
256,190,156585,5,0,0:0:0:0:
256,190,156768,1,0,0:0:0:0:
256,190,156951,1,0,0:0:0:0:
256,190,157134,1,0,0:0:0:0:
256,190,157317,1,0,0:0:0:0:
87,103,157682,6,0,L|183:105,2,70
310,76,158231,2,0,P|412:162|319:240,1,280
329,240,159146,1,0,0:0:0:0:
329,240,159329,1,0,0:0:0:0:
112,119,159603,6,0,L|302:114,1,175
280,121,160335,1,0,0:0:0:0:
280,121,160518,1,0,0:0:0:0:
315,224,160792,1,0,0:0:0:0:
154,238,160975,1,0,0:0:0:0:
157,121,161158,1,0,0:0:0:0:
302,118,161341,1,0,0:0:0:0:
220,41,161524,6,0,P|222:164|222:182,4,140
140,89,163536,2,0,L|141:187,1,70
286,191,163902,1,0,0:0:0:0:
288,88,164085,1,0,0:0:0:0:
145,193,164268,1,0,0:0:0:0:
123,268,164542,5,0,0:0:0:0:
296,270,164725,1,0,0:0:0:0:
454,279,164908,1,0,0:0:0:0:
148,93,165091,5,0,0:0:0:0:
136,144,165274,1,0,0:0:0:0:
244,142,165457,1,0,0:0:0:0:
247,85,165640,1,0,0:0:0:0:
327,100,165823,1,0,0:0:0:0:
327,100,166006,1,0,0:0:0:0:
391,163,166463,6,0,L|354:269,2,105
267,215,167195,2,0,L|101:196,1,140
122,231,167926,1,0,0:0:0:0:
157,161,168292,5,0,0:0:0:0:
157,161,168475,1,0,0:0:0:0:
157,161,168658,1,0,0:0:0:0:
157,161,168841,1,0,0:0:0:0:
157,161,169024,1,0,0:0:0:0:
379,70,169390,6,0,L|366:147,2,70
379,70,169939,1,0,0:0:0:0:
379,70,170030,1,0,0:0:0:0:
389,186,170304,6,0,L|136:179,1,245
144,179,171128,1,0,0:0:0:0:
144,179,171310,1,0,0:0:0:0:
144,179,171493,1,0,0:0:0:0:
144,179,171676,1,0,0:0:0:0:
150,95,172042,6,0,L|243:101,1,70
306,87,172408,2,0,L|305:194,1,105
222,85,172865,1,0,0:0:0:0:
223,198,173048,1,0,0:0:0:0:
138,198,173323,6,0,L|139:89,5,105
255,62,175243,6,0,L|254:119,1,35
332,61,175609,2,0,L|269:165,1,105
277,150,176067,1,0,0:0:0:0:
277,150,176249,1,0,0:0:0:0:
312,250,176432,2,0,L|141:251,1,140
147,96,177073,5,0,0:0:0:0:
147,96,177164,1,0,0:0:0:0:
224,98,177347,1,0,0:0:0:0:
224,98,177530,1,0,0:0:0:0:
317,95,177713,1,0,0:0:0:0:
317,95,177804,1,0,0:0:0:0:
317,95,178170,1,0,0:0:0:0:
356,192,178353,6,0,L|183:213,1,175
182,213,178902,1,0,0:0:0:0:
160,144,179085,1,0,0:0:0:0:
246,78,179268,1,0,0:0:0:0:
277,165,179451,1,0,0:0:0:0:
154,157,179999,5,0,0:0:0:0:
154,157,180182,1,0,0:0:0:0:
154,157,180365,1,0,0:0:0:0:
154,157,180548,1,0,0:0:0:0:
154,157,180731,1,0,0:0:0:0:
298,92,181189,6,0,L|300:175,2,70
185,117,181829,1,0,0:0:0:0:
263,186,182012,1,0,0:0:0:0:
346,145,182195,1,0,0:0:0:0:
352,92,182378,1,0,0:0:0:0:
213,101,182743,6,0,P|166:163|220:246,1,175
214,240,183475,1,0,0:0:0:0:
341,94,184024,6,0,P|335:247|245:242,1,280
328,79,184939,2,0,P|197:105|179:169,1,210
373,156,185579,6,0,L|373:250,2,70
147,95,187317,5,0,0:0:0:0:
282,110,187682,1,0,0:0:0:0:
333,208,187865,1,0,0:0:0:0:
420,101,188048,1,0,0:0:0:0:
123,156,188414,1,0,0:0:0:0:
123,156,188597,1,0,0:0:0:0:
282,73,188963,5,0,0:0:0:0:
414,103,189146,1,0,0:0:0:0:
420,227,189329,1,0,0:0:0:0:
298,280,189512,1,0,0:0:0:0:
215,158,189878,1,0,0:0:0:0:
316,69,190060,5,0,0:0:0:0:
425,160,190243,1,0,0:0:0:0:
318,271,190609,1,0,0:0:0:0:
195,165,190792,1,0,0:0:0:0:
309,154,190975,5,0,0:0:0:0:
206,264,191341,1,0,0:0:0:0:
195,165,191524,1,0,0:0:0:0:
140,89,193170,5,0,0:0:0:0:
232,97,193536,1,0,0:0:0:0:
322,96,193719,1,0,0:0:0:0:
439,91,193902,1,0,0:0:0:0:
170,181,194268,5,0,0:0:0:0:
253,180,194451,1,0,0:0:0:0:
347,180,194817,1,0,0:0:0:0:
442,182,194999,1,0,0:0:0:0:
116,262,195182,5,0,0:0:0:0:
215,263,195365,1,0,0:0:0:0:
318,265,195731,1,0,0:0:0:0:
432,265,195914,1,0,0:0:0:0:
110,75,196097,5,0,0:0:0:0:
110,172,196463,1,0,0:0:0:0:
211,169,196646,1,0,0:0:0:0:
216,73,196829,1,0,0:0:0:0:
144,56,197195,5,0,0:0:0:0:
144,56,197378,1,0,0:0:0:0:
256,192,197499,12,0,200831,0:0:0:0:
