osu file format v14

[General]
AudioFilename: audio.mp3
AudioLeadIn: 0
PreviewTime: -1
Countdown: 0
SampleSet: Soft
StackLeniency: 0.7
Mode: 0
LetterboxInBreaks: 0
WidescreenStoryboard: 0

[Editor]
DistanceSpacing: 1.5
BeatDivisor: 1
GridSize: 32
TimelineZoom: 0.4

[Metadata]
Title:Imperator
TitleUnicode:Imperator
Artist:Gokki
ArtistUnicode:Gokki
Creator:bufy37
Version:Hard
Source:
Tags:gokki гокки император imperor imperator
BeatmapID:4513650
BeatmapSetID:2143827

[Difficulty]
HPDrainRate:6
CircleSize:5
OverallDifficulty:4
ApproachRate:7
SliderMultiplier:1.4
SliderTickRate:2

[Events]
//Background and Video events
0,0,"Звездопад.jpg",0,0
//Break Periods
2,117639,139587
//Storyboard Layer 0 (Background)
//Storyboard Layer 1 (Fail)
//Storyboard Layer 2 (Pass)
//Storyboard Layer 3 (Foreground)
//Storyboard Layer 4 (Overlay)
//Storyboard Sound Samples

[TimingPoints]
0,365.853658536585,4,2,0,100,1,0

[HitObjects]
64,176,0,6,0,B|256:0|497:166|399:360,1,560
100,322,2926,2,0,B|71:34|502:69,1,560
154,64,5853,5,0,0:0:0:0:
180,65,6219,1,0,0:0:0:0:
205,65,6585,1,0,0:0:0:0:
231,65,6951,1,0,0:0:0:0:
261,66,7317,1,0,0:0:0:0:
155,224,8414,5,0,1:1:0:0:
274,70,8780,1,0,1:1:0:0:
362,218,9146,1,0,1:1:0:0:
87,240,9512,2,0,P|86:89|95:72,1,140
165,163,10243,2,0,P|309:162|335:156,1,140
172,87,11707,1,0,1:1:0:0:
231,190,12073,1,0,1:1:0:0:
363,71,12439,1,0,1:1:0:0:
412,215,12804,1,0,1:1:0:0:
192,268,13170,1,0,1:1:0:0:
77,159,13536,2,0,P|330:23|406:202,1,420
384,79,14634,2,0,L|244:166,5,140
155,60,17195,5,0,0:0:0:0:
329,63,17560,1,0,0:0:0:0:
331,223,17926,1,0,0:0:0:0:
161,226,18292,1,0,0:0:0:0:
166,53,18658,2,0,P|319:54|333:54,1,140
122,151,19390,6,0,P|279:150|282:133,11,140
177,75,23780,1,0,0:0:0:0:
304,41,24146,1,0,0:0:0:0:
372,176,24512,1,0,0:0:0:0:
316,90,24878,1,0,0:0:0:0:
163,226,25243,1,0,0:0:0:0:
408,51,25609,1,0,0:0:0:0:
272,299,25975,1,0,0:0:0:0:
174,89,26341,5,0,0:0:0:0:
409,217,26707,1,0,0:0:0:0:
150,157,27073,1,0,0:0:0:0:
269,68,27439,1,0,0:0:0:0:
323,88,27804,1,0,0:0:0:0:
355,198,28170,1,0,0:0:0:0:
411,88,28536,1,0,0:0:0:0:
168,113,29268,5,0,0:0:0:0:
353,116,29634,1,0,0:0:0:0:
354,233,29999,1,0,0:0:0:0:
170,224,30365,1,0,0:0:0:0:
251,146,30731,1,0,0:0:0:0:
253,43,31097,5,0,0:0:0:0:
252,254,31463,1,0,0:0:0:0:
252,141,31829,1,0,0:0:0:0:
255,50,32195,1,0,0:0:0:0:
383,52,32560,1,0,0:0:0:0:
123,278,32926,1,0,0:0:0:0:
126,55,33292,1,0,0:0:0:0:
414,261,33658,1,0,0:0:0:0:
215,123,34390,2,0,P|376:122|387:122,1,140
417,158,35121,5,0,0:0:0:0:
129,160,35487,1,0,0:0:0:0:
255,32,35853,1,0,0:0:0:0:
257,224,36219,1,0,0:0:0:0:
255,126,36585,1,0,0:0:0:0:
323,222,36951,1,0,0:0:0:0:
187,223,37317,1,0,0:0:0:0:
416,62,37682,1,0,0:0:0:0:
62,322,38048,1,0,0:0:0:0:
154,48,38414,6,0,P|153:197|153:213,1,140
160,187,38780,2,0,L|238:36,1,140
256,62,39146,2,0,L|324:192,1,140
356,189,39512,6,0,L|442:50,1,140
434,75,39878,2,0,L|455:248,1,140
446,246,40243,2,0,L|304:266,1,140
307,265,40609,2,0,L|152:211,1,140
164,205,40975,2,0,L|226:74,1,140
228,68,41341,2,0,L|373:110,1,140
362,106,41707,2,0,L|329:250,1,140
166,77,42439,5,0,0:0:0:0:
203,131,42804,1,0,0:0:0:0:
252,185,43170,1,0,0:0:0:0:
310,237,43536,1,0,0:0:0:0:
372,291,43902,1,0,0:0:0:0:
370,202,44268,1,0,0:0:0:0:
369,112,44634,1,0,0:0:0:0:
371,35,44999,1,0,0:0:0:0:
269,122,45365,1,0,0:0:0:0:
173,246,45731,1,0,0:0:0:0:
371,250,46097,1,0,0:0:0:0:
189,155,46463,5,0,0:0:0:0:
280,191,46829,5,0,0:0:0:0:
413,131,47195,1,0,0:0:0:0:
276,72,47560,1,0,0:0:0:0:
165,146,47926,1,0,0:0:0:0:
161,287,48292,1,0,0:0:0:0:
319,287,48658,1,0,0:0:0:0:
312,155,49024,5,0,0:0:0:0:
223,156,49390,1,0,0:0:0:0:
126,159,49756,1,0,0:0:0:0:
125,235,50121,1,0,0:0:0:0:
220,229,50487,1,0,0:0:0:0:
317,228,50853,1,0,0:0:0:0:
341,142,51585,5,0,0:0:0:0:
338,177,51951,1,0,0:0:0:0:
337,206,52317,1,0,0:0:0:0:
123,78,52682,6,0,P|285:79|299:79,1,140
126,166,53414,2,0,L|273:164,1,140
126,257,54146,2,0,L|285:256,1,140
265,63,54878,5,0,0:0:0:0:
308,80,55243,1,0,0:0:0:0:
350,108,55609,1,0,0:0:0:0:
386,132,55975,1,0,0:0:0:0:
426,169,56341,1,0,0:0:0:0:
367,181,56707,1,0,0:0:0:0:
317,181,57073,1,0,0:0:0:0:
266,184,57439,1,0,0:0:0:0:
215,185,57804,1,0,0:0:0:0:
113,297,58170,5,0,0:0:0:0:
245,77,58536,1,0,0:0:0:0:
344,290,58902,1,0,0:0:0:0:
98,160,59268,1,0,0:0:0:0:
364,163,59634,1,0,0:0:0:0:
98,160,59999,6,0,P|197:52|389:207,1,420
385,213,61463,1,0,0:0:0:0:
224,221,61829,1,0,0:0:0:0:
92,223,62195,1,0,0:0:0:0:
192,97,62560,1,0,0:0:0:0:
289,192,62926,1,0,0:0:0:0:
128,193,63292,5,0,0:0:0:0:
128,193,63658,1,0,0:0:0:0:
128,193,64024,1,0,0:0:0:0:
190,125,64390,1,0,0:0:0:0:
255,193,64756,1,0,0:0:0:0:
320,126,65121,1,0,0:0:0:0:
385,193,65487,1,0,0:0:0:0:
322,254,65853,1,0,0:0:0:0:
257,191,66219,1,0,0:0:0:0:
193,258,66585,1,0,0:0:0:0:
128,191,66951,1,0,0:0:0:0:
196,126,67317,1,0,0:0:0:0:
188,259,67682,1,0,0:0:0:0:
193,191,68048,5,0,0:0:0:0:
192,351,68414,1,0,0:0:0:0:
386,352,68780,1,0,0:0:0:0:
384,192,69146,1,0,0:0:0:0:
382,63,69512,5,0,0:0:0:0:
253,62,69878,1,0,0:0:0:0:
257,184,70243,1,0,0:0:0:0:
129,191,70609,1,0,0:0:0:0:
201,89,70975,5,0,0:0:0:0:
298,89,71341,1,0,0:0:0:0:
378,155,71707,6,0,P|276:256|268:264,1,140
179,156,72439,1,0,0:0:0:0:
255,67,72804,6,0,B|92:68|93:68,1,140
242,146,73536,1,0,0:0:0:0:
164,227,73902,1,0,0:0:0:0:
252,236,74268,6,0,P|405:237|417:237,1,140
362,50,74999,1,0,0:0:0:0:
362,141,75365,1,0,0:0:0:0:
366,215,75731,1,0,0:0:0:0:
225,96,76097,5,0,0:0:0:0:
224,227,76463,1,0,0:0:0:0:
381,224,76829,1,0,0:0:0:0:
380,95,77195,1,0,0:0:0:0:
133,284,77560,6,0,P|175:39|139:288,1,840
150,193,80121,6,0,L|303:194,1,140
365,192,80853,2,0,L|366:339,1,140
356,334,81585,2,0,L|186:332,1,140
155,324,82317,2,0,L|250:197,1,140
287,148,83048,1,0,0:0:0:0:
116,154,83414,1,0,0:0:0:0:
211,262,83780,5,0,0:0:0:0:
207,122,84146,5,0,0:0:0:0:
323,125,84512,1,0,0:0:0:0:
325,226,84878,1,0,0:0:0:0:
214,225,85243,1,0,0:0:0:0:
95,96,85609,1,0,0:0:0:0:
414,95,85975,1,0,0:0:0:0:
417,318,86341,1,0,0:0:0:0:
96,319,86707,1,0,0:0:0:0:
255,194,87073,1,0,0:0:0:0:
256,61,87439,1,0,0:0:0:0:
255,194,87804,1,0,0:0:0:0:
384,193,88170,1,0,0:0:0:0:
255,194,88536,1,0,0:0:0:0:
97,192,88902,1,0,0:0:0:0:
255,194,89268,1,0,0:0:0:0:
256,318,89634,1,0,0:0:0:0:
255,194,89999,1,0,0:0:0:0:
31,128,90365,6,0,L|479:126,1,420
451,192,91829,2,0,L|17:190,1,420
31,290,93292,2,0,L|496:288,1,420
451,192,94756,2,0,L|17:192,1,420
33,95,96219,2,0,L|486:95,1,420
189,64,97682,1,0,0:0:0:0:
335,64,98048,5,0,0:0:0:0:
346,159,98414,1,0,0:0:0:0:
238,205,98780,1,0,0:0:0:0:
247,150,99146,1,0,0:0:0:0:
256,287,99512,5,0,0:0:0:0:
416,127,99878,1,0,0:0:0:0:
417,286,100243,1,0,0:0:0:0:
255,133,100609,1,0,0:0:0:0:
416,130,100975,1,0,0:0:0:0:
258,263,101341,1,0,0:0:0:0:
98,255,101707,1,0,0:0:0:0:
94,99,102073,1,0,0:0:0:0:
309,96,102439,5,0,0:0:0:0:
192,191,102804,1,0,0:0:0:0:
289,289,103170,1,0,0:0:0:0:
391,192,103536,1,0,0:0:0:0:
289,192,103902,1,0,0:0:0:0:
384,96,104268,1,0,0:0:0:0:
385,291,104634,1,0,0:0:0:0:
64,289,104999,1,0,0:0:0:0:
355,62,105365,1,0,0:0:0:0:
353,287,105731,1,0,0:0:0:0:
65,67,106097,5,0,0:0:0:0:
221,192,106463,1,0,0:0:0:0:
223,324,106829,1,0,0:0:0:0:
222,58,107195,1,0,0:0:0:0:
221,192,107560,1,0,0:0:0:0:
221,324,107926,1,0,0:0:0:0:
352,193,108292,1,0,0:0:0:0:
99,193,108658,1,0,0:0:0:0:
224,191,109024,1,0,0:0:0:0:
98,65,109390,1,0,0:0:0:0:
320,68,109756,5,0,0:0:0:0:
336,129,110121,1,0,0:0:0:0:
316,180,110487,1,0,0:0:0:0:
211,100,110853,1,0,0:0:0:0:
212,198,111219,1,0,0:0:0:0:
213,319,111585,1,0,0:0:0:0:
349,322,111951,5,0,0:0:0:0:
350,197,112317,1,0,0:0:0:0:
353,61,112682,1,0,0:0:0:0:
125,96,113048,6,0,L|285:97,1,140
278,100,113780,2,0,L|279:245,1,140
273,241,114512,2,0,L|126:240,1,140
128,241,115243,2,0,B|128:88|128:88|139:76,2,140
126,319,116341,1,0,0:0:0:0:
292,104,116707,5,0,0:0:0:0:
295,222,117073,1,0,0:0:0:0:
245,231,117439,1,0,0:0:0:0:
164,99,140487,6,0,L|331:97,1,140
164,203,141219,2,0,L|322:199,1,140
318,198,141951,2,0,P|189:278|188:278,1,140
203,275,142682,2,0,L|163:128,1,140
157,136,143414,2,0,P|338:136|337:136,1,140
269,248,144146,2,0,L|374:121,1,140
288,66,144878,5,0,0:0:0:0:
331,144,145243,1,0,0:0:0:0:
289,182,145609,1,0,0:0:0:0:
139,108,145975,5,0,0:0:0:0:
133,259,146341,1,0,0:0:0:0:
134,184,146707,1,0,0:0:0:0:
138,102,147073,1,0,0:0:0:0:
134,184,147439,1,0,0:0:0:0:
134,268,147804,1,0,0:0:0:0:
335,260,148170,5,0,0:0:0:0:
256,188,148536,1,0,0:0:0:0:
349,64,148902,1,0,0:0:0:0:
125,63,149268,1,0,0:0:0:0:
128,259,149999,1,0,0:0:0:0:
256,192,150365,5,0,0:0:0:0:
255,39,150731,1,0,0:0:0:0:
255,354,151097,1,0,0:0:0:0:
447,192,151463,1,0,0:0:0:0:
65,193,151829,1,0,0:0:0:0:
66,321,152195,6,0,B|70:74|359:113|156:295|394:315|476:106|431:-4|223:39,1,700
87,37,154390,2,0,B|83:245|244:280|282:19|474:41|468:310|193:356|100:358,1,700
154,67,156585,5,0,0:0:0:0:
120,183,156951,1,0,0:0:0:0:
148,213,157317,1,0,0:0:0:0:
117,62,157682,6,0,B|434:42|456:42|415:382|72:352|7:276|58:76,1,840
34,41,160243,2,0,B|472:38|504:37|480:198|176:156|6:149|-15:144|49:262|37:298|454:266|499:268|499:266,1,1120
457,305,163536,2,0,B|28:306|9:308|23:128|489:251|482:126|472:14|88:58,1,980
159,54,166463,1,0,0:0:0:0:
419,59,166829,5,0,0:0:0:0:
263,187,167195,1,0,0:0:0:0:
68,321,167560,1,0,0:0:0:0:
413,287,167926,1,0,0:0:0:0:
369,96,168292,5,0,0:0:0:0:
402,196,168658,1,0,0:0:0:0:
382,254,169024,1,0,0:0:0:0:
118,202,169390,6,0,L|204:70,1,140
300,65,170121,2,0,L|298:222,1,140
298,204,170487,2,0,L|147:204,1,140
158,204,170853,2,0,P|159:353|159:368,1,140
158,344,171219,2,0,L|312:345,1,140
355,290,171951,1,0,0:0:0:0:
163,126,172317,1,0,0:0:0:0:
353,129,172682,1,0,0:0:0:0:
349,283,173048,5,0,0:0:0:0:
150,287,173414,1,0,0:0:0:0:
352,192,173780,5,0,0:0:0:0:
152,190,174146,1,0,0:0:0:0:
356,99,174512,5,0,0:0:0:0:
160,100,174878,1,0,0:0:0:0:
59,91,175243,5,0,0:0:0:0:
62,290,175609,1,0,0:0:0:0:
160,96,175975,5,0,0:0:0:0:
156,285,176341,1,0,0:0:0:0:
292,92,176707,5,0,0:0:0:0:
287,285,177073,1,0,0:0:0:0:
419,186,177439,5,0,0:0:0:0:
165,192,177804,1,0,0:0:0:0:
286,62,178170,2,0,L|86:276,1,280
62,62,179268,2,0,L|57:353,1,280
223,286,179999,5,0,0:0:0:0:
223,202,180365,1,0,0:0:0:0:
100,276,180731,1,0,0:0:0:0:
186,126,181097,1,0,0:0:0:0:
379,260,181463,1,0,0:0:0:0:
392,85,181829,1,0,0:0:0:0:
108,266,182195,1,0,0:0:0:0:
120,66,182560,1,0,0:0:0:0:
342,238,182926,1,0,0:0:0:0:
343,84,183292,1,0,0:0:0:0:
125,231,183658,1,0,0:0:0:0:
255,65,184024,5,0,0:0:0:0:
255,317,184390,1,0,0:0:0:0:
417,190,184756,1,0,0:0:0:0:
97,193,185121,1,0,0:0:0:0:
252,191,185487,1,0,0:0:0:0:
406,191,185853,1,0,0:0:0:0:
258,192,186219,1,0,0:0:0:0:
381,88,186585,1,0,0:0:0:0:
258,192,186951,1,0,0:0:0:0:
256,192,187317,12,0,199390,0:0:0:0:
