osu file format v14

[General]
AudioFilename: audio.mp3
AudioLeadIn: 0
PreviewTime: 37623
Countdown: 0
SampleSet: Soft
StackLeniency: 0.5
Mode: 0
LetterboxInBreaks: 0
WidescreenStoryboard: 0

[Editor]
Bookmarks: 3445,17052
DistanceSpacing: 1.2
BeatDivisor: 2
GridSize: 4
TimelineZoom: 1

[Metadata]
Title:I will -Short-
TitleUnicode:I will -Short-
Artist:Gojou Kai feat. anporin
ArtistUnicode:五条下位 feat. あんぽりん
Creator:Yuii-
Version:Normal
Source:
Tags:SYNC.ART'S Secret Seven defiance osuskrub quanhitter39 comiket 70 c70 東方Project Touhou Project
BeatmapID:1741640
BeatmapSetID:831353

[Difficulty]
HPDrainRate:4
CircleSize:3
OverallDifficulty:4
ApproachRate:5
SliderMultiplier:1.4
SliderTickRate:1

[Events]
//Background and Video events
0,0,"a.png",0,0
//Break Periods
//Storyboard Layer 0 (Background)
//Storyboard Layer 1 (Fail)
//Storyboard Layer 2 (Pass)
//Storyboard Layer 3 (Foreground)
//Storyboard Layer 4 (Overlay)
//Storyboard Sound Samples

[TimingPoints]
3553,428.571428571429,4,2,0,60,1,0
15445,-111.111111111111,4,2,0,60,0,0
16303,-133.333333333333,4,2,0,60,0,0
17053,-100,4,2,0,5,0,0
17267,-100,4,2,0,60,0,0
28481,-100,4,3,0,65,0,0
29195,-100,4,3,0,70,0,0
29624,-100,4,3,0,75,0,0
30481,-100,4,2,0,60,0,0
41160,-100,4,3,0,70,0,0
43731,-100,4,2,0,62,0,0
44160,-100,4,2,0,80,0,0
72053,-100,4,2,0,100,0,0
72195,-100,4,2,0,20,0,0

[Colours]
Combo1 : 255,173,51
Combo2 : 251,68,68
Combo3 : 223,112,0
Combo4 : 210,210,210

[HitObjects]
93,283,3553,6,0,L|93:130,1,140
108,96,4195,1,0,0:0:0:0:
224,24,4624,1,0,0:0:0:0:
324,128,5053,1,0,0:0:0:0:
324,128,5267,6,0,L|323:353,1,210
457,379,6338,1,0,0:0:0:0:
500,248,6767,1,0,0:0:0:0:
500,248,6981,6,0,L|256:248,1,210
164,312,8053,1,0,0:0:0:0:
164,312,8267,2,0,L|72:312,1,70
48,296,8695,6,0,L|48:140,1,140
112,32,9553,1,0,0:0:0:0:
216,120,9981,1,0,0:0:0:0:
320,32,10410,6,0,L|472:32,1,140
512,160,11267,1,0,0:0:0:0:
392,232,11695,1,0,0:0:0:0:
276,152,12124,6,0,L|108:152,1,140
48,260,13195,2,0,L|48:344,1,70
28,376,13624,6,0,L|184:376,1,140
212,352,14267,1,0,0:0:0:0:
308,252,14695,1,0,0:0:0:0:
192,188,15124,1,0,0:0:0:0:
72,136,15553,6,0,L|72:8,1,125.999996154785
176,52,16410,2,0,L|348:52,1,157.500006008148
376,73,17267,6,0,L|376:297,1,210,0|0,1:0|0:0,0:0:0:0:
252,344,18338,2,0,L|108:344,1,140
36,236,19195,2,0,L|180:236,1,140
224,224,19838,1,2,3:0:0:0:
120,52,20481,1,0,1:0:0:0:
157,19,20695,6,0,L|368:19,1,210,2|0,3:0|0:0,0:0:0:0:
480,104,21767,2,0,L|480:252,1,140
372,320,22624,2,0,L|372:172,1,140
240,28,23695,2,0,L|157:27,1,70,0|0,1:0|1:0,0:0:0:0:
136,64,24124,6,0,L|136:216,1,140,0|2,1:0|3:0,0:0:0:0:
96,336,24981,2,0,L|256:336,1,140,2|0,0:0|0:0,0:0:0:0:
284,352,25624,2,0,L|432:352,1,140,0|0,0:0|0:0,0:0:0:0:
512,252,26481,1,0,0:0:0:0:
420,152,26910,2,0,L|272:152,1,140
244,188,27553,5,0,1:0:0:0:
144,100,27981,2,0,L|144:264,1,140,2|2,0:0|0:0,0:0:0:0:
76,356,28838,2,0,L|-4:356,2,70,2|2|2,0:0|0:0|0:0,0:0:0:0:
204,316,29695,2,0,L|288:316,1,70,2|0,0:0|0:0,0:0:0:0:
308,296,30124,2,0,L|308:60,1,210,2|0,0:0|0:0,0:0:0:0:
340,48,30981,5,4,0:0:0:0:
460,120,31410,2,0,L|460:268,1,140,2|0,0:0|3:0,0:0:0:0:
348,344,32267,2,0,L|264:344,2,70,0|0|2,0:0|0:0|3:0,0:0:0:0:
460,260,33124,1,0,1:0:0:0:
332,208,33553,2,0,L|116:208,1,210,2|0,3:0|0:0,0:0:0:0:
76,196,34410,5,0,1:0:0:0:
61,55,34838,1,0,1:0:0:0:
196,16,35267,2,0,L|351:16,2,140,2|0|2,3:0|0:0|3:0,0:0:0:0:
232,146,36553,1,0,1:0:0:0:
124,232,36981,2,0,L|124:312,1,70,2|2,0:0|0:0,0:0:0:0:
100,344,37410,1,0,0:0:0:0:
232,300,37838,5,0,1:0:0:0:
348,376,38267,2,0,L|504:376,1,140,0|2,1:0|3:0,0:0:0:0:
504,332,38910,2,0,L|504:252,1,70
476,224,39338,1,0,0:0:0:0:
372,132,39767,2,0,L|372:40,1,70,0|0,0:0|1:0,0:0:0:0:
332,36,40195,2,0,L|112:36,1,210,0|2,0:0|0:0,0:0:0:0:
36,144,41267,6,0,L|36:220,2,70,2|0|2,0:0|0:0|0:0,0:0:0:0:
160,204,42124,2,0,L|160:280,2,70,2|0|2,0:0|0:0|0:0,0:0:0:0:
128,68,42981,1,2,2:0:0:0:
444,356,44267,1,0,1:0:0:0:
464,216,44695,5,0,1:0:0:0:
340,276,45124,2,0,L|192:276,1,140,0|2,1:0|3:0,0:0:0:0:
72,328,45981,1,2,0:0:0:0:
24,196,46410,2,0,L|120:196,1,70,0|0,1:0|0:0,0:0:0:0:
128,160,46838,2,0,L|288:160,1,140,2|2,0:0|0:0,0:0:0:0:
372,244,47695,2,0,L|460:244,1,70,0|0,1:0|0:0,0:0:0:0:
488,232,48124,5,2,0:0:0:0:
412,348,48553,2,0,L|324:348,1,70,0|0,1:0|0:0,0:0:0:0:
296,336,48982,1,2,3:0:0:0:
180,272,49410,1,2,0:0:0:0:
260,160,49838,2,0,L|164:160,1,70,0|0,1:0|0:0,0:0:0:0:
152,132,50267,2,0,L|6:131,1,140,2|2,0:0|0:0,0:0:0:0:
112,24,51124,1,0,1:3:0:0:
216,52,51553,6,0,L|372:52,1,140,0|2,1:0|3:0,0:0:0:0:
484,116,52410,1,2,3:0:0:0:
396,224,52838,2,0,L|396:384,2,140,0|2|0,1:0|3:0|1:0,0:0:0:0:
356,204,53910,2,0,L|212:204,1,140,0|0,0:0|0:0,0:0:0:0:
176,232,54553,1,0,1:0:0:0:
176,232,54767,6,0,L|176:304,2,70,2|0|0,0:0|1:0|0:0,0:0:0:0:
88,128,55624,1,0,0:0:0:0:
88,128,55838,2,0,L|88:40,1,70,2|0,0:0|0:0,0:0:0:0:
224,20,56481,1,0,0:0:0:0:
224,20,56695,2,0,L|224:176,1,140,0|2,1:0|3:0,3:3:0:0:
340,236,57553,1,2,3:0:0:0:
460,168,57981,2,0,L|459:79,1,70,0|0,1:0|0:0,0:0:0:0:
424,64,58410,5,0,1:0:0:0:
304,120,58838,2,0,L|215:119,1,70,0|0,1:0|0:0,0:0:0:0:
194,149,59267,1,2,3:0:0:0:
68,92,59695,2,0,L|68:256,1,140,2|0,0:0|1:0,0:0:0:0:
48,280,60338,1,0,0:0:0:0:
48,280,60553,2,0,L|188:280,1,140,2|2,0:0|0:0,0:0:0:0:
244,160,61410,2,0,L|244:84,1,70,0|0,1:0|0:0,0:0:0:0:
232,44,61838,5,0,1:0:0:0:
376,56,62267,2,0,L|376:140,1,70,0|0,1:0|0:0,0:0:0:0:
388,172,62695,1,2,3:0:0:0:
276,248,63124,1,0,1:0:0:0:
400,336,63553,1,2,3:0:0:0:
264,376,63981,2,0,L|120:376,2,140,0|2|0,1:0|0:0|1:0,0:0:0:0:
304,344,65053,1,2,0:0:0:0:
304,344,65267,6,0,L|304:200,1,140,0|0,1:0|1:0,0:0:0:0:
400,108,66124,1,0,1:0:0:0:
280,44,66553,2,0,L|208:44,1,70,0|0,1:0|0:0,0:0:0:0:
168,24,66981,2,0,L|168:184,2,140,2|0|2,3:0|1:0|0:0,0:0:0:0:
40,80,68267,1,0,1:0:0:0:
88,212,68695,6,0,L|88:360,1,140,0|2,1:0|3:0,2:2:0:0:
128,376,69338,1,0,2:0:0:0:
128,376,69553,2,0,L|268:376,1,140,0|2,1:0|3:0,0:0:0:0:
380,292,70410,1,4,0:0:0:0:
268,220,70838,2,0,L|268:80,1,140,2|0,3:0|1:0,0:0:0:0:
392,24,71695,2,0,L|476:24,1,70,0|0,1:0|1:0,0:0:0:0:
504,48,72124,5,2,0:0:0:0:
256,192,72231,12,2,74481,0:0:0:0:
