osu file format v14

[General]
AudioFilename: audio.mp3
AudioLeadIn: 0
PreviewTime: 37623
Countdown: 0
SampleSet: Soft
StackLeniency: 0.5
Mode: 0
LetterboxInBreaks: 0
WidescreenStoryboard: 0

[Editor]
Bookmarks: 3445,17052
DistanceSpacing: 1.2
BeatDivisor: 4
GridSize: 4
TimelineZoom: 1

[Metadata]
Title:I will -Short-
TitleUnicode:I will -Short-
Artist:Gojou Kai feat. anporin
ArtistUnicode:五条下位 feat. あんぽりん
Creator:Yuii-
Version:Insane
Source:
Tags:SYNC.ART'S Secret Seven defiance osuskrub quanhitter39 comiket 70 c70 東方Project Touhou Project
BeatmapID:1741639
BeatmapSetID:831353

[Difficulty]
HPDrainRate:6
CircleSize:5
OverallDifficulty:8
ApproachRate:8.5
SliderMultiplier:1.4
SliderTickRate:1

[Events]
//Background and Video events
0,0,"a.png",0,0
//Break Periods
//Storyboard Layer 0 (Background)
//Storyboard Layer 1 (Fail)
//Storyboard Layer 2 (Pass)
//Storyboard Layer 3 (Foreground)
//Storyboard Layer 4 (Overlay)
//Storyboard Sound Samples

[TimingPoints]
3553,428.571428571429,4,2,0,80,1,0
4087,-100,4,2,0,60,0,0
15445,-111.111111111111,4,2,0,60,0,0
16303,-133.333333333333,4,2,0,60,0,0
17053,-100,4,2,0,5,0,0
17267,-100,4,2,0,60,0,0
28481,-100,4,3,0,65,0,0
29195,-100,4,3,0,70,0,0
29624,-100,4,3,0,75,0,0
30481,-100,4,2,0,60,0,0
41160,-100,4,3,0,70,0,0
43731,-100,4,2,0,62,0,0
44160,-100,4,2,0,80,0,0
72053,-100,4,2,0,100,0,0
72194,-100,4,2,0,20,0,0

[Colours]
Combo1 : 255,173,51
Combo2 : 251,68,68
Combo3 : 223,112,0
Combo4 : 210,210,210

[HitObjects]
91,120,3553,5,2,0:0:0:0:
91,120,4195,1,0,0:0:0:0:
163,63,4624,1,0,0:0:0:0:
203,146,5053,1,2,0:0:0:0:
398,49,5267,5,0,1:0:0:0:
398,49,5910,1,2,0:0:0:0:
316,91,6338,1,0,0:0:0:0:
442,182,6553,1,0,1:0:0:0:
488,106,6767,1,2,0:0:0:0:
512,248,6981,5,2,0:0:0:0:
512,248,8053,1,0,1:0:0:0:
448,312,8267,1,0,0:0:0:0:
370,267,8481,1,2,0:0:0:0:
362,259,8588,1,2,0:0:0:0:
354,251,8695,5,0,1:0:0:0:
354,251,9338,1,0,0:0:0:0:
329,332,9553,1,0,1:0:0:0:
250,301,9767,1,2,0:0:0:0:
238,309,9874,1,0,1:0:0:0:
226,317,9981,1,0,1:0:0:0:
272,217,10195,1,2,0:0:0:0:
251,204,10302,1,0,0:0:0:0:
233,188,10410,6,0,P|201:160|150:140,1,70,0|0,1:0|0:0,0:0:0:0:
139,171,10731,1,0,0:0:0:0:
139,171,10838,2,0,P|91:187|47:183,1,70,2|0,3:0|0:0,0:0:0:0:
35,169,11160,1,0,0:0:0:0:
35,169,11267,2,0,P|4:207|3:258,1,70,2|0,3:0|0:0,0:0:0:0:
110,273,11695,2,0,P|126:321|122:365,1,70,0|0,1:0|0:0,0:0:0:0:
108,384,12017,1,0,0:0:0:0:
108,384,12124,6,0,P|157:368|200:372,1,70,2|0,0:0|0:0,0:0:0:0:
274,303,12553,2,0,L|284:234,1,70,2|0,3:0|0:0,0:0:0:0:
282,215,12874,1,2,0:0:0:0:
278,195,12981,1,0,1:0:0:0:
199,111,13195,2,0,L|215:31,1,70,2|0,0:0|0:0,0:0:0:0:
120,172,13624,1,2,0:0:0:0:
109,186,13731,1,0,1:0:0:0:
98,200,13838,5,0,1:0:0:0:
155,303,14053,2,0,L|224:296,1,70,2|0,0:0|0:0,0:0:0:0:
243,303,14374,1,0,0:0:0:0:
259,311,14481,1,0,0:0:0:0:
386,350,14695,5,0,1:0:0:0:
375,323,14802,1,0,1:0:0:0:
379,294,14909,1,0,1:0:0:0:
393,268,15016,1,0,1:0:0:0:
404,258,15124,5,2,3:0:0:0:
410,253,15231,1,2,3:0:0:0:
417,249,15338,1,2,3:0:0:0:
423,245,15445,1,2,3:0:0:0:
428,240,15553,6,2,P|440:176|432:108,1,125.999996154785,2|2,1:0|1:0,1:0:0:0:
313,21,16410,2,2,P|217:37|113:9,1,183.750007009506,2|2,1:0|1:0,1:0:0:0:
124,12,17267,6,0,P|137:34|136:81,1,70,0|0,1:0|0:0,0:0:0:0:
105,158,17695,1,0,2:0:0:0:
220,111,17910,2,0,P|255:106|312:111,1,70,0|0,2:0|3:0,2:0:0:0:
357,172,18338,1,0,2:0:0:0:
393,87,18553,1,0,2:0:0:0:
461,195,18767,6,0,P|488:216|512:241,1,70,0|0,2:0|3:0,2:0:0:0:
402,287,19195,2,0,P|374:307|350:332,1,70,0|0,2:0|2:0,2:0:0:0:
443,384,19624,1,0,2:0:0:0:
443,384,20481,1,0,1:0:0:0:
349,332,20695,6,0,P|317:324|261:332,1,70,0|0,2:0|2:0,2:0:0:0:
206,382,21124,1,2,2:0:0:0:
145,311,21338,2,0,P|150:276|146:241,1,70,0|0,2:0|3:0,2:0:0:0:
93,163,21767,1,0,2:0:0:0:
27,226,21981,1,0,2:0:0:0:
33,83,22195,6,0,P|83:31|159:21,1,140,2|0,0:0|0:0,0:0:0:0:
222,74,22838,1,2,0:0:0:0:
294,20,23053,1,0,0:0:0:0:
380,154,23481,1,0,1:0:0:0:
302,87,23695,2,0,P|291:46|301:-1,1,70,0|0,1:0|0:0,0:0:0:0:
231,172,24124,6,0,P|269:231|263:324,1,140,0|0,1:0|3:0,0:0:0:0:
107,206,24981,2,0,P|69:147|75:54,1,140,2|0,3:0|0:0,0:0:0:0:
144,16,25624,6,0,P|173:0|219:2,1,70,0|0,0:0|3:0,0:0:0:0:
287,62,26053,2,0,P|316:78|362:76,1,70
434,21,26481,2,0,P|458:76|423:159,1,140
454,252,27124,1,0,0:0:0:0:
347,188,27338,1,0,1:0:0:0:
376,307,27553,6,0,P|386:346|376:403,1,70,0|0,1:0|0:0,0:0:0:0:
287,353,27981,2,0,P|219:338|148:360,1,140,2|0,0:0|0:0,0:0:0:0:
132,378,28517,1,0,0:0:0:0:
132,378,28624,2,0,P|140:349|132:306,1,70,2|0,0:0|0:0,0:0:0:0:
125,296,28945,1,0,0:0:0:0:
114,282,29053,1,2,0:0:0:0:
34,203,29267,5,2,0:0:0:0:
54,183,29374,1,0,0:0:0:0:
74,163,29481,1,0,0:0:0:0:
185,230,29695,1,2,0:0:0:0:
213,262,29802,1,0,0:0:0:0:
253,278,29909,1,0,0:0:0:0:
297,274,30016,1,0,0:0:0:0:
333,254,30124,2,0,L|417:252,1,70,2|0,0:0|0:0,0:0:0:0:
468,187,30553,1,2,0:0:0:0:
420,335,30767,1,0,0:0:0:0:
253,278,30981,6,0,P|225:270|169:270,1,70,4|0,0:0|0:0,0:0:0:0:
126,339,31410,1,0,3:0:0:0:
59,275,31624,2,0,P|43:211|59:123,1,140
108,63,32267,1,0,0:0:0:0:
178,123,32481,6,0,P|241:112|309:72,1,140
364,1,33124,1,0,1:0:0:0:
465,125,33553,2,0,P|432:145|417:185,1,70,2|0,0:0|0:0,0:0:0:0:
474,265,33981,1,0,0:0:0:0:
323,215,34195,1,0,1:0:0:0:
411,356,34410,6,0,P|377:337|316:340,1,70,0|0,1:0|0:0,0:0:0:0:
272,384,34838,1,2,0:0:0:0:
259,295,35053,2,0,P|280:267|308:247,2,70,0|0|0,0:0|3:0|0:0,0:0:0:0:
272,384,35695,1,0,0:0:0:0:
175,357,35910,6,0,P|144:332|108:321,1,70,0|0,0:0|3:0,0:0:0:0:
391,384,36553,1,0,1:0:0:0:
512,231,36981,1,0,3:0:0:0:
434,154,37195,2,0,P|433:120|444:87,1,70,2|0,0:0|0:0,0:0:0:0:
512,0,37624,1,0,0:0:0:0:
375,18,37838,6,0,P|341:17|308:28,2,70,0|0|0,1:0|0:0|3:0,0:0:0:0:
444,86,38481,2,0,P|450:120|445:154,1,70
359,257,38910,2,0,P|358:295|366:327,1,70
253,194,39338,6,0,P|246:110|195:39,1,140
192,264,39981,1,0,1:0:0:0:
334,149,40195,2,0,P|434:133|469:231,1,210,0|2,0:0|0:0,0:0:0:0:
365,325,41053,1,0,0:0:0:0:
248,304,41267,6,0,P|212:296|168:304,1,70,2|0,0:0|0:0,0:0:0:0:
147,324,41588,5,0,0:0:0:0:
147,324,41695,2,0,P|111:332|67:324,1,70,2|0,0:0|0:0,0:0:0:0:
43,316,42017,5,0,0:0:0:0:
43,316,42124,2,0,P|35:352|43:396,1,70,2|0,0:0|0:0,0:0:0:0:
101,231,42553,1,2,0:0:0:0:
104,196,42660,1,0,0:0:0:0:
96,162,42767,1,0,0:0:0:0:
78,132,42874,1,0,0:0:0:0:
51,110,42981,5,2,2:0:0:0:
51,110,43838,1,2,0:0:0:0:
59,94,43945,1,2,0:0:0:0:
67,78,44053,1,2,0:0:0:0:
245,15,44267,2,0,P|280:22|331:59,1,70,0|0,1:0|0:0,0:0:0:0:
327,71,44588,1,0,0:0:0:0:
327,71,44695,6,0,P|319:103|327:151,1,70,0|0,1:0|0:0,0:0:0:0:
156,172,45124,2,0,P|128:220|136:272,1,105,0|0,1:0|0:0,0:0:0:0:
164,280,45553,2,0,P|172:316|164:360,1,70,2|0,3:0|0:0,0:0:0:0:
268,200,45981,5,2,0:0:0:0:
304,112,46195,1,0,0:0:0:0:
400,100,46410,1,0,1:0:0:0:
476,160,46624,1,0,0:0:0:0:
480,256,46838,1,2,0:0:0:0:
420,332,47053,1,2,0:0:0:0:
428,340,47160,1,2,0:0:0:0:
340,288,47374,1,2,0:0:0:0:
332,296,47481,1,2,0:0:0:0:
161,177,47695,6,0,P|161:212|176:244,1,70,0|0,1:0|0:0,0:0:0:0:
196,264,48017,1,0,0:0:0:0:
196,264,48124,2,0,P|195:298|181:330,1,70,2|0,0:0|0:0,0:0:0:0:
344,56,48553,2,0,P|360:104|352:172,1,105,0|0,1:0|0:0,0:0:0:0:
324,176,48981,2,0,P|324:210|338:242,1,70,2|0,3:0|0:0,0:0:0:0:
212,300,49410,5,2,0:0:0:0:
154,375,49624,1,0,0:0:0:0:
58,362,49839,1,0,1:0:0:0:
0,284,50053,1,0,0:0:0:0:
21,191,50267,1,2,0:0:0:0:
100,232,50481,1,2,0:0:0:0:
108,240,50588,2,0,P|132:184|120:92,1,140,2|0,0:0|0:0,0:0:0:0:
112,88,51124,1,0,1:0:0:0:
340,12,51338,1,0,0:0:0:0:
265,150,51553,6,0,P|266:115|279:83,1,70,0|0,1:0|0:0,0:0:0:0:
368,296,51981,2,0,P|342:319|310:332,1,70,2|0,3:0|0:0,0:0:0:0:
420,164,52410,2,0,P|454:165|486:178,1,70,2|0,3:0|0:0,0:0:0:0:
208,252,52838,5,0,1:0:0:0:
113,264,53052,1,0,0:0:0:0:
56,186,53267,1,2,3:0:0:0:
69,90,53481,1,0,0:0:0:0:
150,39,53695,1,0,1:0:0:0:
172,128,53910,2,0,P|228:136|352:96,1,175
360,80,54553,1,0,1:0:0:0:
436,136,54767,1,0,0:0:0:0:
444,148,54874,1,0,0:0:0:0:
452,160,54981,5,2,0:0:0:0:
388,236,55195,1,0,0:0:0:0:
512,372,55410,1,0,1:0:0:0:
420,336,55624,1,0,0:0:0:0:
408,360,55731,1,0,0:0:0:0:
396,384,55838,1,2,0:0:0:0:
480,288,56053,1,0,0:0:0:0:
240,364,56267,1,0,1:0:0:0:
299,300,56481,1,0,0:0:0:0:
160,208,56695,6,0,P|126:188|102:158,1,70,0|0,1:0|0:0,0:0:0:0:
356,184,57123,2,0,P|364:221|359:259,1,70,2|0,3:0|0:0,0:0:0:0:
256,64,57553,2,0,P|275:31|305:7,1,70,2|0,3:0|3:0,3:0:0:0:
264,190,57981,6,0,P|268:226|260:274,1,70,0|0,1:0|0:0,0:0:0:0:
240,300,58303,1,0,0:0:0:0:
240,300,58410,2,0,P|236:336|244:384,1,70,0|0,1:0|0:0,0:0:0:0:
120,100,58838,2,0,P|100:152|108:220,1,105,0|0,1:0|0:0,0:0:0:0:
128,220,59267,2,0,P|132:256|124:304,1,70,2|0,3:0|0:0,0:0:0:0:
272,140,59695,5,2,0:0:0:0:
321,59,59909,1,0,0:0:0:0:
372,132,60124,1,0,1:0:0:0:
452,84,60338,1,0,0:0:0:0:
512,160,60552,1,2,0:0:0:0:
456,232,60767,1,2,0:0:0:0:
463,242,60874,1,2,0:0:0:0:
364,224,61088,1,2,0:0:0:0:
355,230,61195,1,2,0:0:0:0:
176,344,61410,6,0,P|209:353|244:348,1,70,0|0,1:0|0:0,0:0:0:0:
276,324,61731,1,0,0:0:0:0:
276,324,61838,2,0,P|309:314|344:319,1,70,0|0,1:0|0:0,0:0:0:0:
64,192,62267,2,0,P|96:184|184:204,1,105,0|0,1:0|0:0,0:0:0:0:
184,216,62695,2,0,P|217:225|252:220,1,70,2|0,3:0|0:0,0:0:0:0:
268,34,63124,5,0,1:0:0:0:
196,86,63338,1,0,0:0:0:0:
136,22,63553,1,2,3:0:0:0:
108,106,63767,1,0,0:0:0:0:
20,86,63981,1,0,1:0:0:0:
56,174,64195,1,2,0:0:0:0:
64,182,64303,2,0,P|76:226|64:322,1,140,2|0,0:0|0:0,0:0:0:0:
48,338,64838,1,0,1:0:0:0:
232,376,65053,1,2,0:0:0:0:
224,360,65160,1,2,0:0:0:0:
216,344,65267,6,0,P|208:296|212:232,1,105,0|0,1:0|0:0,0:0:0:0:
236,224,65695,2,0,P|248:176|240:112,1,105,0|0,1:0|0:0,0:0:0:0:
224,96,66124,1,0,1:0:0:0:
352,316,66553,5,0,1:0:0:0:
330,231,66767,1,0,0:0:0:0:
393,170,66981,1,2,3:0:0:0:
477,194,67196,1,0,0:0:0:0:
499,279,67410,1,0,1:0:0:0:
436,340,67624,2,0,P|368:336|276:352,1,140
144,384,68267,1,0,1:0:0:0:
136,369,68374,1,0,0:0:0:0:
130,353,68481,1,0,0:0:0:0:
183,208,68695,6,0,P|203:170|210:124,1,70,0|0,1:0|2:0,2:0:0:0:
136,43,69124,1,2,3:0:0:0:
107,34,69231,1,0,0:0:0:0:
77,27,69338,1,0,2:0:0:0:
13,127,69553,2,0,L|-7:226,1,70,0|0,1:0|0:0,0:0:0:0:
112,320,69981,2,0,L|92:222,1,70,2|0,3:0|0:0,0:0:0:0:
0,51,70410,5,4,0:0:0:0:
175,0,70838,1,2,3:0:0:0:
236,177,71267,1,0,1:0:0:0:
308,80,71588,1,0,0:0:0:0:
316,68,71695,1,0,1:0:0:0:
390,127,71910,1,0,1:0:0:0:
402,107,72017,1,0,1:0:0:0:
415,87,72124,5,0,0:0:0:0:
256,192,72231,12,2,74481,0:0:0:0:
