osu file format v14

[General]
AudioFilename: audio.mp3
AudioLeadIn: 0
PreviewTime: 122787
Countdown: 1
SampleSet: Normal
StackLeniency: 0.7
Mode: 0
LetterboxInBreaks: 0
WidescreenStoryboard: 1

[Editor]
DistanceSpacing: 1
BeatDivisor: 6
GridSize: 32
TimelineZoom: 2.7

[Metadata]
Title:Silvera
TitleUnicode:Silvera
Artist:Gojira
ArtistUnicode:Gojira
Creator:Gothem
Version:The World
Source:
Tags:Gojira Metal Deathstream RSI
BeatmapID:2144799
BeatmapSetID:1025077

[Difficulty]
HPDrainRate:5
CircleSize:3.8
OverallDifficulty:8.6
ApproachRate:9.6
SliderMultiplier:1
SliderTickRate:1

[Events]
//Background and Video events
//Break Periods
//Storyboard Layer 0 (Background)
//Storyboard Layer 1 (Fail)
//Storyboard Layer 2 (Pass)
//Storyboard Layer 3 (Foreground)
//Storyboard Layer 4 (Overlay)
//Storyboard Sound Samples

[TimingPoints]
210,434.782608695652,4,1,1,50,1,0
4558,437.956204379562,4,1,1,50,1,0
5433,434.782608695652,4,1,1,50,1,0
5867,480,4,1,1,50,1,0
6351,422.535211267606,4,1,1,50,1,0
7198,461.538461538462,4,1,1,50,1,0
7660,400,4,1,1,50,1,0
8060,431.654676258993,4,1,1,50,1,0
8923,428.571428571429,4,1,1,50,1,0
9780,428.571428571429,4,1,1,50,1,0
10653,419.58041958042,4,1,1,50,1,0
11492,437.956204379562,4,1,1,50,1,0
12367,461.538461538462,4,1,1,50,1,0
13291,416.666666666667,4,1,1,50,1,0
13708,434.782608695652,4,1,1,50,1,0
14142,458.015267175573,4,1,1,50,1,0
16279,-61.3496932515337,4,1,1,50,0,0
16661,-50,4,1,1,50,0,0
16890,-41.6666666666667,4,1,1,50,0,0
17195,-50,4,1,1,50,0,0
17577,-41.6666666666667,4,1,1,50,0,0
17806,-35.7142857142857,4,1,1,50,0,0
18111,-41.6666666666667,4,1,1,50,0,0
18493,-50,4,1,1,50,0,0
18722,-41.6666666666667,4,1,1,50,0,0
19027,-50,4,1,1,50,0,0
19409,-61.3496932515337,4,1,1,50,0,0
19638,-100,4,1,1,50,0,0
21775,-61.3496932515337,4,1,1,50,0,0
22157,-50,4,1,1,50,0,0
22386,-41.6666666666667,4,1,1,50,0,0
22691,-50,4,1,1,50,0,0
23073,-41.6666666666667,4,1,1,50,0,0
23302,-35.7142857142857,4,1,1,50,0,0
23607,-41.6666666666667,4,1,1,50,0,0
23989,-50,4,1,1,50,0,0
25134,-100,4,1,1,50,0,0
27271,-61.3496932515337,4,1,1,50,0,0
27653,-50,4,1,1,50,0,0
27882,-41.6666666666667,4,1,1,50,0,0
28187,-50,4,1,1,50,0,0
28569,-41.6666666666667,4,1,1,50,0,0
28798,-35.7142857142857,4,1,1,50,0,0
29103,-41.6666666666667,4,1,1,50,0,0
29485,-50,4,1,1,50,0,0
29714,-41.6666666666667,4,1,1,50,0,0
30019,-50,4,1,1,50,0,0
30401,-61.3496932515337,4,1,1,50,0,0
30630,-100,4,1,1,50,0,0
32767,-61.3496932515337,4,1,1,50,0,0
33149,-50,4,1,1,50,0,0
33378,-41.6666666666667,4,1,1,50,0,0
33683,-50,4,1,1,50,0,0
34065,-41.6666666666667,4,1,1,50,0,0
34294,-35.7142857142857,4,1,1,50,0,0
34600,-41.6666666666667,4,1,1,50,0,0
34981,-50,4,1,1,50,0,0
36139,434.482608695652,4,1,1,50,1,0
37007,419.58041958042,4,1,1,50,1,0
37846,442.6,4,1,1,50,1,0
38733,424.882608695652,4,1,1,50,1,0
39574,442.6,4,1,1,50,1,0
40466,434.782608695652,4,1,1,50,1,0
41335,447.600000000001,4,1,1,50,1,0
42230,428.571428571429,4,1,1,50,1,0
43087,434.782608695652,4,1,1,50,1,0
43956,419.58041958042,4,1,1,50,1,0
44798,444.2,4,1,1,50,1,0
45674,434.782608695652,4,1,1,50,1,0
47413,431.790419580421,4,1,1,50,1,0
48282,444.2,4,1,1,50,1,0
49170,434.782608695652,4,1,1,50,1,0
50023,437.882608695653,4,1,1,50,1,0
50023,-333.333333333333,4,1,1,50,0,0
53530,437.956204379562,4,1,1,50,1,0
53530,-333.333333333333,4,1,1,50,0,0
56157,-57.1428571428571,4,1,1,50,0,0
57033,441.1,4,1,1,50,1,0
57033,-333.333333333333,4,1,1,50,0,0
57919,437.082608695653,4,1,1,50,1,0
57991,-333.333333333333,4,1,1,50,0,0
59667,-61.3496932515337,4,1,1,50,0,0
60541,-333.333333333333,4,1,1,50,0,0
61415,-61.3496932515337,4,1,1,50,0,0
64040,458.015267175573,4,1,1,50,1,0
66177,-61.3496932515337,4,1,1,50,0,0
66559,-50,4,1,1,50,0,0
66788,-41.6666666666667,4,1,1,50,0,0
67093,-50,4,1,1,50,0,0
67475,-41.6666666666667,4,1,1,50,0,0
67704,-35.7142857142857,4,1,1,50,0,0
68009,-41.6666666666667,4,1,1,50,0,0
68391,-50,4,1,1,50,0,0
68620,-41.6666666666667,4,1,1,50,0,0
68925,-50,4,1,1,50,0,0
69307,-61.3496932515337,4,1,1,50,0,0
69536,-100,4,1,1,50,0,0
71673,-61.3496932515337,4,1,1,50,0,0
72055,-50,4,1,1,50,0,0
72284,-41.6666666666667,4,1,1,50,0,0
72589,-50,4,1,1,50,0,0
72971,-41.6666666666667,4,1,1,50,0,0
73200,-35.7142857142857,4,1,1,50,0,0
73505,-41.6666666666667,4,1,1,50,0,0
73887,-50,4,1,1,50,0,0
74116,-41.6666666666667,4,1,1,50,0,0
74421,-50,4,1,1,50,0,0
74803,-61.3496932515337,4,1,1,50,0,0
75032,-100,4,1,1,50,0,0
77169,-61.3496932515337,4,1,1,50,0,0
77551,-50,4,1,1,50,0,0
77780,-41.6666666666667,4,1,1,50,0,0
78085,-50,4,1,1,50,0,0
78467,-41.6666666666667,4,1,1,50,0,0
78696,-35.7142857142857,4,1,1,50,0,0
79001,-41.6666666666667,4,1,1,50,0,0
79383,-50,4,1,1,50,0,0
79612,-41.6666666666667,4,1,1,50,0,0
79917,-50,4,1,1,50,0,0
80299,-61.3496932515337,4,1,1,50,0,0
80528,-100,4,1,1,50,0,0
82360,454.545454545455,4,1,1,50,1,0
82663,-61.3496932515337,4,1,1,50,0,0
83041,-50,4,1,1,50,0,0
83269,-41.6666666666667,4,1,1,50,0,0
83647,-50,4,1,1,50,0,0
83950,-41.6666666666667,4,1,1,50,0,0
84178,-35.7142857142857,4,1,1,50,0,0
84556,-41.6666666666667,4,1,1,50,0,0
84860,-50,4,1,1,50,0,0
85087,-41.6666666666667,4,1,1,50,0,0
85466,-50,4,1,1,50,0,0
85769,-61.3496932515337,4,1,1,50,0,0
85996,487.80487804878,4,1,1,50,1,0
85996,-100,4,1,1,50,0,0
86971,465.116279069767,4,1,1,50,1,0
88831,468.75,4,1,1,50,1,0
89709,-61.3496932515337,4,1,1,50,0,0
89768,436.363636363636,4,1,1,50,1,0
96707,442.6,4,1,1,50,1,0
100231,434.782608695652,4,1,1,50,1,0
103713,444.2,4,1,1,50,1,0
107233,434.782608695652,4,1,1,50,1,0
108968,437.956204379562,4,1,1,50,1,0
110719,312.5,4,1,1,50,1,0
111344,306.122448979592,5,1,1,50,1,0
112721,306.122448979592,4,1,1,50,1,0
113486,306.122448979592,4,1,1,50,1,0
114405,441.176470588235,4,1,1,50,1,0
124995,437.956204379562,4,1,1,50,1,0
137257,434.782608695652,4,1,1,50,1,0
138126,428.571428571429,4,1,1,50,1,0
138992,441.176470588235,4,1,1,50,1,0
140756,437.956204379562,4,1,1,50,1,0
145135,400,4,1,1,50,1,0
145535,422.535211267606,4,1,1,50,1,0
145957,454.545454545455,4,1,1,50,1,0
146866,451.127819548872,4,1,1,50,1,0
147768,434.782608695652,4,1,1,50,1,0
152992,222.222222222222,4,1,1,50,1,0
154769,214.285714285714,4,1,1,50,1,0
155626,220.588235294118,4,1,1,50,1,0
156508,222.222222222222,4,1,1,50,1,0
157396,215.827338129496,4,1,1,50,1,0
159985,220.588235294118,4,1,1,50,1,0
160426,225.563909774436,4,1,1,50,1,0
161779,218.978102189781,4,1,1,50,1,0
163530,217.391304347826,4,1,1,50,1,0
165269,218.978102189781,4,1,1,50,1,0
167045,458.015267175573,4,1,1,50,1,0
192689.63052404,436.363636363636,4,1,1,50,1,0
203162,434.782608695652,4,1,1,50,1,0
204031,428.571428571429,4,1,1,50,1,0
206602,600,4,1,1,50,1,0

[HitObjects]
200,109,209,5,0,0:0:0:0:
200,109,427,2,0,B|140:119|140:119|121:139|121:139|57:151,1,150
46,109,1188,1,0,0:0:0:0:
33,72,1296,1,0,0:0:0:0:
22,35,1405,1,0,0:0:0:0:
102,16,1514,5,0,0:0:0:0:
115,55,1623,1,0,0:0:0:0:
127,91,1731,1,0,0:0:0:0:
139,127,1840,1,0,0:0:0:0:
223,90,1949,1,0,0:0:0:0:
223,90,2383,2,0,B|265:98|265:98|275:114|275:114|317:126,1,100
346,140,2927,1,0,0:0:0:0:
387,136,3036,1,0,0:0:0:0:
428,131,3144,1,0,0:0:0:0:
318,218,3253,5,0,0:0:0:0:
361,213,3362,1,0,0:0:0:0:
407,210,3470,1,0,0:0:0:0:
443,231,3579,1,0,0:0:0:0:
435,317,3688,1,0,0:0:0:0:
435,317,3905,2,0,B|406:339|393:374|393:374|344:360|301:373,1,150
271,361,4667,1,0,0:0:0:0:
227,353,4776,1,0,0:0:0:0:
184,338,4886,1,0,0:0:0:0:
153,257,4995,5,0,0:0:0:0:
194,267,5105,1,0,0:0:0:0:
239,276,5214,1,0,0:0:0:0:
283,285,5324,1,0,0:0:0:0:
190,188,5433,2,0,L|306:217,1,100
119,115,6351,1,0,0:0:0:0:
168,80,6456,1,0,0:0:0:0:
219,43,6562,1,0,0:0:0:0:
268,9,6667,1,0,0:0:0:0:
319,58,6773,5,0,0:0:0:0:
334,65,6879,1,0,0:0:0:0:
350,73,6984,1,0,0:0:0:0:
366,83,7090,1,0,0:0:0:0:
439,105,7196,1,0,0:0:0:0:
439,105,7428,2,0,B|386:147|386:147|384:165|384:165|361:186,1,112.5,0|0,0:0|0:0,0:2:0:0:
266,235,8060,1,0,0:0:0:0:
226,237,8167,1,0,0:0:0:0:
186,239,8273,1,0,0:0:0:0:
147,243,8382,1,0,0:0:0:0:
164,158,8491,5,0,0:0:0:0:
129,182,8599,1,0,0:0:0:0:
98,205,8707,1,0,0:0:0:0:
66,234,8815,1,0,0:0:0:0:
101,120,8923,1,0,0:0:0:0:
101,120,9351,2,0,B|127:77|127:77|141:73|141:73|159:36,1,100
198,28,9887,1,0,0:0:0:0:
243,19,9994,1,0,0:0:0:0:
286,10,10101,1,0,0:0:0:0:
363,12,10208,5,0,0:0:0:0:
400,23,10315,1,0,0:0:0:0:
438,35,10422,1,0,0:0:0:0:
472,48,10530,1,0,0:0:0:0:
505,141,10637,1,0,0:0:0:0:
505,141,10862,2,0,B|490:206|490:206|500:231|500:231|484:290,1,150
453,314,11601,1,0,0:0:0:0:
409,309,11710,1,0,0:0:0:0:
377,275,11820,1,0,0:0:0:0:
343,196,11929,5,0,0:0:0:0:
316,161,12039,1,0,0:0:0:0:
272,149,12148,1,0,0:0:0:0:
233,170,12258,1,0,0:0:0:0:
161,205,12367,2,0,B|134:156|134:156|140:137|140:137|128:106,1,100
240,38,13290,1,0,0:0:0:0:
202,80,13398,1,0,0:0:0:0:
147,59,13507,1,0,0:0:0:0:
114,103,13603,1,0,0:0:0:0:
53,93,13707,5,0,0:0:0:0:
37,118,13816,1,0,0:0:0:0:
17,106,13925,1,0,0:0:0:0:
6,132,14034,1,0,0:0:0:0:
0,114,14142,2,0,B|24:176|24:176|42:177|42:177|60:219|60:219|49:233|49:233|66:296,1,200
84,301,15516,1,0,0:0:0:0:
102,307,15974,1,0,0:0:0:0:
202,231,16279,6,0,P|181:212|208:132,1,108.666666583761,0|0,0:0|2:0,0:0:0:0:
213,124,16661,2,0,P|245:99|245:47,1,66.6666666666667,0|0,0:0|2:0,0:0:0:0:
254,52,16890,2,0,P|298:7|342:63,1,119.999996337891,0|0,0:0|2:0,0:0:0:0:
347,50,17195,6,0,P|381:117|439:128,1,133.333333333333,0|0,0:0|2:0,0:0:0:0:
452,124,17577,2,0,P|485:105|470:45,1,79.9999975585938,0|0,0:0|2:0,0:0:0:0:
182,62,17806,2,0,P|89:105|90:176,1,139.999995727539,0|0,0:0|2:0,0:0:0:0:
82,153,18111,6,0,P|108:208|217:203,1,159.999995117188,0|0,0:0|2:0,0:0:0:0:
222,206,18493,2,0,P|269:190|305:208,1,66.6666666666667,0|0,0:0|2:0,0:0:0:0:
307,202,18722,2,0,P|349:232|361:304,1,119.999996337891
358,317,19027,6,0,P|307:367|230:373,1,133.333333333333,0|0,0:0|2:0,0:0:0:0:
229,371,19409,2,0,P|194:350|180:320,1,54.3333332918803,0|0,0:0|2:0,0:0:0:0:
172,322,19638,2,0,P|137:286|82:280,1,100
365,279,20382,5,0,0:0:0:0:
355,301,20439,1,0,0:0:0:0:
358,323,20496,1,0,0:0:0:0:
348,344,20554,1,0,0:0:0:0:
341,360,21012,1,0,0:0:0:0:
334,376,21472,5,0,0:0:0:0:
126,379,21775,2,0,P|73:391|22:375,1,108.666666583761,0|0,0:0|2:0,0:0:0:0:
17,362,22157,2,0,P|-3:310|15:277,1,66.6666666666667,0|0,0:0|2:0,0:0:0:0:
0,290,22386,2,0,P|26:242|113:230,1,119.999996337891,0|0,0:0|2:0,0:0:0:0:
102,224,22691,2,0,P|181:204|210:142,1,133.333333333333,0|0,0:0|2:0,0:0:0:0:
209,146,23073,2,0,P|208:106|175:74,1,79.9999975585938,0|0,0:0|2:0,0:0:0:0:
83,308,23302,2,0,P|47:254|97:185,1,139.999995727539
95,180,23607,2,0,P|131:132|77:47,1,159.999995117188,0|0,0:0|2:0,0:0:0:0:
74,46,23989,2,0,P|37:36|0:48,1,66.6666666666667,0|0,0:0|2:0,0:0:0:0:
6,80,24218,5,0,0:0:0:0:
18,132,24332,1,0,0:0:0:0:
31,184,24447,1,0,0:0:0:0:
45,234,24561,1,0,0:0:0:0:
84,268,24676,5,0,0:0:0:0:
98,276,24790,1,0,0:0:0:0:
113,283,24905,1,0,0:0:0:0:
126,291,25019,1,0,0:0:0:0:
176,288,25134,2,0,B|224:263|224:263|244:266|244:266|279:249,1,100
135,138,25878,5,0,0:0:0:0:
141,122,25935,1,0,0:0:0:0:
162,104,25993,1,0,0:0:0:0:
163,83,26050,1,0,0:0:0:0:
174,76,26508,1,0,0:0:0:0:
179,60,26966,1,0,0:0:0:0:
256,179,27271,5,0,0:0:0:0:
247,50,27653,1,0,0:0:0:0:
263,285,27882,1,0,0:0:0:0:
260,157,28187,5,0,0:0:0:0:
175,255,28569,1,0,0:0:0:0:
330,78,28798,1,0,0:0:0:0:
242,170,29103,5,0,0:0:0:0:
371,161,29485,1,0,0:0:0:0:
137,176,29714,1,0,0:0:0:0:
349,282,30019,5,0,0:0:0:0:
179,59,30401,1,0,0:0:0:0:
260,182,30629,1,0,0:0:0:0:
376,267,31374,1,0,0:0:0:0:
404,271,31432,1,0,0:0:0:0:
421,293,31489,1,0,0:0:0:0:
450,296,31546,1,0,0:0:0:0:
465,300,32004,1,0,0:0:0:0:
481,303,32462,5,0,0:0:0:0:
331,324,32767,1,0,0:0:0:0:
148,331,33149,1,0,0:0:0:0:
9,231,33378,5,0,0:0:0:0:
58,90,33683,1,0,0:0:0:0:
122,281,34065,1,0,0:0:0:0:
225,91,34294,5,0,0:0:0:0:
161,282,34600,1,0,0:0:0:0:
137,93,34981,1,0,0:0:0:0:
201,284,35210,5,0,0:0:0:0:
244,265,35325,1,0,0:0:0:0:
283,244,35439,1,0,0:0:0:0:
322,223,35554,1,0,0:0:0:0:
355,205,35668,1,0,0:0:0:0:
237,116,36137,5,0,0:0:0:0:
237,116,36351,2,0,B|271:78|271:78|293:80|293:80|348:21,1,150
390,39,37111,1,0,0:0:0:0:
431,55,37216,1,0,0:0:0:0:
473,73,37329,1,0,0:0:0:0:
412,126,37426,5,0,0:0:0:0:
418,167,37531,1,0,0:0:0:0:
425,210,37636,1,0,0:0:0:0:
432,256,37741,1,0,0:0:0:0:
505,231,37846,1,0,0:0:0:0:
505,231,38288,2,0,B|473:288|473:288|478:302|478:302|458:335,1,100
425,317,38839,1,0,0:0:0:0:
381,313,38945,1,0,0:0:0:0:
340,309,39051,1,0,0:0:0:0:
285,366,39157,5,0,0:0:0:0:
326,373,39264,1,0,0:0:0:0:
366,378,39370,1,0,0:0:0:0:
409,381,39476,1,0,0:0:0:0:
479,316,39574,1,0,0:0:0:0:
486,295,39795,2,0,B|457:246|457:246|347:237,1,150
329,235,40574,1,0,0:0:0:0:
288,233,40683,1,0,0:0:0:0:
246,231,40792,1,0,0:0:0:0:
266,297,40900,5,0,0:0:0:0:
223,300,41009,1,0,0:0:0:0:
181,304,41118,1,0,0:0:0:0:
136,307,41226,1,0,0:0:0:0:
151,375,41335,2,0,B|99:376|99:376|84:365|84:365|31:366,1,100
28,244,42230,5,0,0:0:0:0:
21,183,42337,1,0,0:0:0:0:
16,127,42444,1,0,0:0:0:0:
8,72,42551,1,0,0:0:0:0:
78,57,42658,5,0,0:0:0:0:
90,49,42765,1,0,0:0:0:0:
105,40,42872,1,0,0:0:0:0:
121,32,42980,1,0,0:0:0:0:
104,123,43087,1,0,0:0:0:0:
104,123,43304,2,0,B|191:73|191:73|190:47|190:47|219:27,1,150
252,40,44060,1,0,0:0:0:0:
297,46,44165,1,0,0:0:0:0:
343,52,44270,1,0,0:0:0:0:
393,4,44375,5,0,0:0:0:0:
411,45,44480,1,0,0:0:0:0:
401,91,44585,1,0,0:0:0:0:
367,118,44690,1,0,0:0:0:0:
343,52,44795,1,0,0:0:0:0:
343,52,45242,2,0,B|403:53|403:53|422:65|422:65|459:65,1,100
434,108,45782,1,0,0:0:0:0:
425,150,45891,1,0,0:0:0:0:
415,195,46000,1,0,0:0:0:0:
465,258,46108,5,0,0:0:0:0:
472,212,46217,1,0,0:0:0:0:
477,170,46326,1,0,0:0:0:0:
484,123,46434,1,0,0:0:0:0:
420,158,46543,1,0,0:0:0:0:
420,158,46760,2,0,B|376:121|376:121|361:127|361:127|307:67,1,150
287,108,47520,1,0,0:0:0:0:
266,145,47628,1,0,0:0:0:0:
243,184,47736,1,0,0:0:0:0:
247,256,47844,5,0,0:0:0:0:
208,240,47952,1,0,0:0:0:0:
166,220,48060,1,0,0:0:0:0:
126,201,48168,1,0,0:0:0:0:
51,210,48282,2,0,B|86:257|86:257|92:276|92:276|109:299,1,100
200,363,49170,1,0,0:0:0:0:
252,338,49278,1,0,0:0:0:0:
272,279,49387,1,0,0:0:0:0:
240,228,49496,1,0,0:0:0:0:
196,287,49604,5,0,0:0:0:0:
177,290,49713,1,0,0:0:0:0:
161,293,49822,1,0,0:0:0:0:
143,297,49930,1,0,0:0:0:0:
126,300,50023,2,0,L|102:305,1,24.9999992370606,0|0,0:2|2:0,0:2:0:0:
207,221,50460,2,0,L|232:217,1,24.9999992370606,0|0,0:0|2:0,0:0:0:0:
73,192,50898,5,0,0:0:0:0:
37,156,51008,1,0,0:0:0:0:
36,106,51117,1,0,0:0:0:0:
69,65,51227,1,0,0:0:0:0:
116,51,51336,2,0,L|144:51,1,24.9999992370606,0|0,0:0|2:0,0:0:0:0:
250,55,51774,5,0,0:0:0:0:
249,104,51884,1,0,0:0:0:0:
216,145,51993,1,0,0:0:0:0:
167,154,52102,1,0,0:0:0:0:
125,137,52212,2,0,L|101:128,1,24.9999992370606,0|0,0:0|2:0,0:0:0:0:
175,62,52650,1,0,0:0:0:0:
219,37,52759,1,0,0:0:0:0:
271,37,52869,1,0,0:0:0:0:
309,71,52978,1,0,0:0:0:0:
359,89,53088,1,0,0:0:0:0:
411,88,53197,1,0,0:0:0:0:
455,67,53307,1,0,0:0:0:0:
486,33,53416,1,0,0:0:0:0:
500,0,53530,6,0,L|475:10,1,24.9999992370606,0|0,0:0|2:0,0:0:0:0:
342,20,53967,2,0,L|350:46,1,24.9999992370606,0|0,0:0|2:0,0:0:0:0:
384,142,54405,5,0,0:0:0:0:
388,189,54515,1,0,0:0:0:0:
414,231,54625,1,0,0:0:0:0:
417,278,54734,1,0,0:0:0:0:
441,321,54843,2,0,L|442:348,1,24.9999992370606,0|0,0:0|2:0,0:0:0:0:
336,289,55281,5,0,0:0:0:0:
289,293,55391,1,0,0:0:0:0:
247,319,55501,1,0,0:0:0:0:
200,322,55610,1,0,0:0:0:0:
157,346,55719,2,0,L|130:347,1,24.9999992370606,0|0,0:0|2:0,0:0:0:0:
59,254,56157,5,0,0:0:0:0:
66,202,56267,1,0,0:0:0:0:
99,161,56376,1,0,0:0:0:0:
150,152,56486,1,0,0:0:0:0:
196,175,56595,1,0,0:0:0:0:
225,218,56705,1,0,0:0:0:0:
264,250,56814,1,0,0:0:0:0:
317,250,56924,1,0,0:0:0:0:
364,233,57033,2,0,L|376:211,1,24.9999992370606,0|0,0:0|2:0,0:0:0:0:
489,113,57474,2,0,L|477:135,1,24.9999992370606,0|0,0:0|2:0,0:0:0:0:
429,235,57919,5,0,0:0:0:0:
421,283,58028,1,0,0:0:0:0:
432,332,58137,1,0,0:0:0:0:
467,365,58246,1,0,0:0:0:0:
511,383,58356,2,0,L|539:387,1,24.9999992370606,0|0,0:0|2:0,0:0:0:0:
425,372,58793,5,0,0:0:0:0:
381,345,58902,1,0,0:0:0:0:
329,338,59011,1,0,0:0:0:0:
282,351,59120,1,0,0:0:0:0:
235,372,59230,2,0,L|213:384,1,24.9999992370606,0|0,0:0|2:0,0:0:0:0:
171,304,59667,5,0,0:0:0:0:
149,255,59776,1,0,0:0:0:0:
102,230,59885,1,0,0:0:0:0:
49,240,59995,1,0,0:0:0:0:
14,280,60104,1,0,0:0:0:0:
12,334,60213,1,0,0:0:0:0:
53,365,60322,1,0,0:0:0:0:
88,331,60432,1,0,0:0:0:0:
85,283,60541,2,0,L|81:256,1,24.9999992370606,0|0,0:0|2:0,0:0:0:0:
152,151,60978,2,0,L|156:178,1,24.9999992370606,0|0,0:0|2:0,0:0:0:0:
243,248,61415,5,0,0:0:0:0:
270,294,61524,1,0,0:0:0:0:
315,324,61634,1,0,0:0:0:0:
368,333,61743,1,0,0:0:0:0:
420,318,61852,1,0,0:0:0:0:
460,282,61962,1,0,0:0:0:0:
482,233,62071,1,0,0:0:0:0:
480,179,62180,1,0,0:0:0:0:
469,130,62289,5,0,0:0:0:0:
421,144,62399,1,0,0:0:0:0:
370,144,62508,1,0,0:0:0:0:
317,132,62617,1,0,0:0:0:0:
270,110,62726,1,0,0:0:0:0:
231,81,62836,1,0,0:0:0:0:
193,53,62945,1,0,0:0:0:0:
157,27,63054,1,0,0:0:0:0:
115,0,63163,5,0,0:0:0:0:
104,43,63273,1,0,0:0:0:0:
93,84,63382,1,0,0:0:0:0:
102,137,63491,1,0,0:0:0:0:
137,178,63601,1,0,0:0:0:0:
187,196,63710,1,0,0:0:0:0:
240,186,63819,1,0,0:0:0:0:
291,188,63928,1,0,0:0:0:0:
334,205,64040,6,0,B|379:238|379:238|378:260|378:260|419:293|419:293|449:290|449:290|489:322,1,200
492,323,65414,1,0,0:0:0:0:
504,334,65872,1,0,0:0:0:0:
368,313,66177,6,0,P|379:258|347:205,1,108.666666583761,0|0,0:0|2:0,0:0:0:0:
339,198,66559,2,0,P|291:182|251:193,1,66.6666666666667,0|0,0:0|2:0,0:0:0:0:
257,196,66788,2,0,P|216:213|158:157,1,119.999996337891,0|0,0:0|2:0,0:0:0:0:
155,150,67093,6,0,P|124:99|53:101,1,133.333333333333,0|0,0:0|2:0,0:0:0:0:
40,108,67475,2,0,P|19:153|35:205,1,79.9999975585938,0|0,0:0|2:0,0:0:0:0:
261,194,67704,2,0,P|257:105|220:69,1,139.999995727539,0|0,0:0|2:0,0:0:0:0:
205,66,68009,6,0,P|152:62|102:103,1,119.999996337891,0|0,0:0|2:0,0:0:0:0:
93,114,68391,2,0,P|86:148|104:198,1,66.6666666666667,0|0,0:0|2:0,0:0:0:0:
100,194,68620,2,0,P|148:237|222:232,1,119.999996337891,0|0,0:0|2:0,0:0:0:0:
224,229,68925,6,0,B|277:169|356:195,1,133.333333333333,0|0,0:0|2:0,0:0:0:0:
360,196,69307,2,0,P|405:207|434:204,1,54.3333332918803,0|0,0:0|2:0,0:0:0:0:
431,205,69536,2,0,P|476:176|470:126,1,100,0|0,0:0|2:0,0:0:0:0:
139,125,70280,1,0,0:0:0:0:
170,98,70337,1,0,0:0:0:0:
217,88,70394,1,0,0:0:0:0:
248,59,70452,1,0,0:0:0:0:
257,51,70910,1,0,0:0:0:0:
268,45,71368,1,0,0:0:0:0:
260,75,75776,1,0,0:0:0:0:
291,48,75833,1,0,0:0:0:0:
338,38,75890,1,0,0:0:0:0:
369,9,75948,1,0,0:0:0:0:
370,305,76406,1,0,0:0:0:0:
260,183,76864,1,0,0:0:0:0:
355,109,77169,6,0,P|399:140|399:209,1,108.666666583761,0|0,0:0|2:0,0:0:0:0:
403,210,77551,2,0,P|363:246|321:246,1,66.6666666666667,0|0,0:0|2:0,0:0:0:0:
335,249,77780,2,0,P|277:251|215:304,1,119.999996337891,0|0,0:0|2:0,0:0:0:0:
212,303,78085,6,0,P|158:324|105:267,1,133.333333333333,0|0,0:0|2:0,0:0:0:0:
102,262,78467,2,0,P|111:216|162:193,1,79.9999975585938,0|0,0:0|2:0,0:0:0:0:
347,328,78696,2,0,P|388:256|340:198,1,139.999995727539,0|0,0:0|2:0,0:0:0:0:
347,194,79001,6,0,P|275:200|244:293,1,159.999995117188,0|0,0:0|2:0,0:0:0:0:
239,290,79383,2,0,P|239:322|216:353,1,66.6666666666667,0|0,0:0|2:0,0:0:0:0:
207,359,79612,2,0,P|155:356|128:276,1,119.999996337891,0|0,0:0|2:0,0:0:0:0:
121,283,79917,6,0,P|119:211|63:142,1,133.333333333333,0|0,0:0|2:0,0:0:0:0:
81,150,80299,2,0,P|63:100|71:76,1,54.3333332918803,0|0,0:0|2:0,0:0:0:0:
61,86,80528,2,0,P|78:56|141:42,1,100,0|0,0:0|2:0,0:0:0:0:
237,222,81272,1,0,0:0:0:0:
281,220,81330,1,0,0:0:0:0:
312,217,81387,1,0,0:0:0:0:
332,216,81444,1,0,0:0:0:0:
385,192,81902,1,0,0:0:0:0:
405,170,82360,1,0,0:0:0:0:
422,258,82663,1,0,0:0:0:0:
260,311,83041,1,0,0:0:0:0:
134,272,83269,1,0,0:0:0:0:
90,132,83647,1,0,0:0:0:0:
156,107,83950,1,0,0:0:0:0:
233,89,84178,1,0,0:0:0:0:
336,87,84556,1,0,0:0:0:0:
405,97,84860,1,0,0:0:0:0:
455,170,85087,1,0,0:0:0:0:
431,240,85466,1,0,0:0:0:0:
358,305,85769,1,0,0:0:0:0:
256,192,85996,12,0,89739,2:0:0:0:
