osu file format v14

[General]
AudioFilename: audio.mp3
AudioLeadIn: 0
PreviewTime: 27579
Countdown: 0
SampleSet: Soft
StackLeniency: 0.7
Mode: 0
LetterboxInBreaks: 0
WidescreenStoryboard: 0

[Editor]
Bookmarks: 1008,28436,55865,69579,83294,111151,138151,165579,193008,206722,220436,248722,275294
DistanceSpacing: 1.2
BeatDivisor: 6
GridSize: 4
TimelineZoom: 1.4

[Metadata]
Title:Forward
TitleUnicode:Forward
Artist:Gohma
ArtistUnicode:Gohma
Creator:Evgerable
Version:Lite Breakout
Source:
Tags:edm dance energetic freebie 1k low cs jumps sqeez23
BeatmapID:1554693
BeatmapSetID:731899

[Difficulty]
HPDrainRate:4.6
CircleSize:3.6
OverallDifficulty:8.3
ApproachRate:9.3
SliderMultiplier:1.7
SliderTickRate:1

[Events]
//Background and Video events
0,0,"BG.jpg",0,0
//Break Periods
2,56065,60922
2,62922,66065
2,138351,150065
2,193208,198065
2,200065,203208
//Storyboard Layer 0 (Background)
//Storyboard Layer 1 (Fail)
//Storyboard Layer 2 (Pass)
//Storyboard Layer 3 (Foreground)
//Storyboard Sound Samples

[TimingPoints]
-706,428.571428571429,4,2,1,100,1,0
1008,-133.333333333333,4,2,1,50,0,0
14722,-117.647058823529,4,2,1,60,0,0
26722,-105.263157894737,4,2,1,70,0,0
27579,-95.2380952380952,4,2,1,70,0,0
28008,-95.2380952380952,4,2,1,75,0,0
28151,-95.2380952380952,4,2,1,80,0,0
28294,-95.2380952380952,4,2,1,85,0,0
28436,-83.3333333333333,4,2,1,90,0,1
35008,-90.9090909090909,4,2,1,85,0,1
35294,-83.3333333333333,4,2,1,90,0,1
41294,-83.3333333333333,4,2,1,95,0,1
41579,-83.3333333333333,4,2,1,94,0,1
41865,-83.3333333333333,4,2,1,93,0,1
42151,-83.3333333333333,4,2,1,90,0,1
48722,-90.9090909090909,4,2,1,85,0,1
49008,-83.3333333333333,4,2,1,90,0,1
55008,-83.3333333333333,4,2,1,95,0,1
55294,-83.3333333333333,4,2,1,94,0,1
55579,-83.3333333333333,4,2,1,93,0,1
55865,-83.3333333333333,4,2,1,90,0,0
68294,-83.3333333333333,4,2,1,85,0,0
68436,-83.3333333333333,4,2,1,80,0,0
68579,-83.3333333333333,4,2,1,75,0,0
68722,-83.3333333333333,4,2,1,70,0,0
68865,-83.3333333333333,4,2,1,65,0,0
69008,-83.3333333333333,4,2,1,60,0,0
69151,-83.3333333333333,4,2,1,55,0,0
69294,-83.3333333333333,4,2,1,50,0,0
69436,-83.3333333333333,4,2,1,40,0,0
69579,-80,4,2,1,95,0,1
76151,-86.9565217391304,4,2,1,90,0,1
76436,-76.9230769230769,4,2,1,100,0,1
81579,-80,4,2,1,95,0,1
83294,-83.3333333333333,4,2,1,90,0,0
83722,-58.8235294117647,4,2,1,95,0,0
84151,-83.3333333333333,4,2,1,90,0,0
86722,-66.6666666666667,4,2,1,90,0,0
87151,-83.3333333333333,4,2,1,90,0,0
89294,-90.9090909090909,4,2,1,80,0,0
90151,-83.3333333333333,4,2,1,90,0,0
90579,-58.8235294117647,4,2,1,95,0,0
91008,-83.3333333333333,4,2,1,90,0,0
93579,-66.6666666666667,4,2,1,90,0,0
94579,-100,4,2,1,70,0,0
95294,-83.3333333333333,4,2,1,90,0,0
97436,-58.8235294117647,4,2,1,95,0,0
97865,-83.3333333333333,4,2,1,90,0,0
100436,-66.6666666666667,4,2,1,90,0,0
100865,-83.3333333333333,4,2,1,90,0,0
103008,-90.9090909090909,4,2,1,80,0,0
103865,-83.3333333333333,4,2,1,90,0,0
104294,-58.8235294117647,4,2,1,95,0,0
104722,-83.3333333333333,4,2,1,90,0,0
111151,-58.8235294117647,4,2,1,95,0,0
111579,-58.8235294117647,4,2,1,5,0,0
112508,-142.857142857143,4,2,1,10,0,0
112865,-125,4,2,1,40,0,0
113365,-111.111111111111,4,2,1,50,0,0
113722,-100,4,2,1,80,0,0
114151,-83.3333333333333,4,2,1,90,0,0
116722,-100,4,2,1,80,0,0
117579,-83.3333333333333,4,2,1,90,0,0
118008,-58.8235294117647,4,2,1,95,0,0
118436,-83.3333333333333,4,2,1,90,0,0
121865,-83.3333333333333,4,2,1,100,0,0
122722,-100,4,2,1,80,0,0
124436,-83.3333333333333,4,2,1,90,0,0
124865,-58.8235294117647,4,2,1,95,0,0
125294,-83.3333333333333,4,2,1,90,0,0
130722,-83.3333333333333,4,2,1,50,0,0
130865,-100,4,2,1,60,0,0
131008,-100,4,2,1,70,0,0
131151,-100,4,2,1,80,0,0
131294,-83.3333333333333,4,2,1,90,0,0
131722,-58.8235294117647,4,2,1,95,0,0
132151,-83.3333333333333,4,2,1,90,0,0
134722,-100,4,2,1,60,0,0
136436,-83.3333333333333,4,2,1,90,0,0
137722,-83.3333333333333,4,2,1,95,0,0
138151,-83.3333333333333,4,2,1,100,0,0
151865,-200,4,2,1,20,0,0
163865,-200,4,2,1,50,0,0
164294,-200,4,2,1,55,0,0
164436,-200,4,2,1,60,0,0
164579,-200,4,2,1,65,0,0
164722,-200,4,2,1,70,0,0
164865,-200,4,2,1,75,0,0
165008,-200,4,2,1,80,0,0
165151,-200,4,2,1,85,0,0
165294,-200,4,2,1,70,0,0
165579,-83.3333333333333,4,2,1,90,0,1
172151,-90.9090909090909,4,2,1,85,0,1
172437,-83.3333333333333,4,2,1,90,0,1
178436,-83.3333333333333,4,2,1,93,0,1
178722,-83.3333333333333,4,2,1,95,0,1
179008,-83.3333333333333,4,2,1,97,0,1
179294,-83.3333333333333,4,2,1,90,0,1
185865,-90.9090909090909,4,2,1,85,0,1
186151,-83.3333333333333,4,2,1,90,0,1
192151,-83.3333333333333,4,2,1,93,0,1
192436,-83.3333333333333,4,2,1,95,0,1
192722,-83.3333333333333,4,2,1,97,0,1
193008,-83.3333333333333,4,2,1,90,0,0
205436,-83.3333333333333,4,2,1,85,0,0
205579,-83.3333333333333,4,2,1,80,0,0
205722,-83.3333333333333,4,2,1,75,0,0
205865,-83.3333333333333,4,2,1,70,0,0
206008,-83.3333333333333,4,2,1,65,0,0
206151,-83.3333333333333,4,2,1,60,0,0
206294,-83.3333333333333,4,2,1,55,0,0
206436,-83.3333333333333,4,2,1,50,0,0
206579,-83.3333333333333,4,2,1,40,0,0
206722,-80,4,2,1,95,0,1
213294,-86.9565217391304,4,2,1,90,0,1
213579,-76.9230769230769,4,2,1,100,0,1
218722,-80,4,2,1,95,0,1
220436,-83.3333333333333,4,2,1,90,0,0
220865,-58.8235294117647,4,2,1,95,0,0
221294,-83.3333333333333,4,2,1,90,0,0
223865,-66.6666666666667,4,2,1,90,0,0
224294,-83.3333333333333,4,2,1,90,0,0
226436,-90.9090909090909,4,2,1,80,0,0
227294,-83.3333333333333,4,2,1,90,0,0
227722,-58.8235294117647,4,2,1,95,0,0
228151,-83.3333333333333,4,2,1,90,0,0
230722,-66.6666666666667,4,2,1,90,0,0
231722,-100,4,2,1,70,0,0
232436,-83.3333333333333,4,2,1,90,0,0
234579,-58.8235294117647,4,2,1,95,0,0
235008,-83.3333333333333,4,2,1,90,0,0
237579,-66.6666666666667,4,2,1,90,0,0
238008,-83.3333333333333,4,2,1,90,0,0
240151,-90.9090909090909,4,2,1,80,0,0
241008,-83.3333333333333,4,2,1,90,0,0
241436,-58.8235294117647,4,2,1,95,0,0
241865,-83.3333333333333,4,2,1,90,0,0
248294,-58.8235294117647,4,2,1,95,0,0
248722,-58.8235294117647,4,2,1,5,0,0
249651,-142.857142857143,4,2,1,10,0,0
250008,-125,4,2,1,40,0,0
250508,-111.111111111111,4,2,1,50,0,0
250865,-100,4,2,1,80,0,0
251294,-83.3333333333333,4,2,1,90,0,0
253865,-100,4,2,1,80,0,0
254722,-83.3333333333333,4,2,1,90,0,0
255151,-58.8235294117647,4,2,1,95,0,0
255579,-83.3333333333333,4,2,1,90,0,0
259008,-83.3333333333333,4,2,1,100,0,0
259865,-100,4,2,1,80,0,0
261579,-83.3333333333333,4,2,1,90,0,0
262008,-58.8235294117647,4,2,1,95,0,0
262436,-83.3333333333333,4,2,1,90,0,0
267865,-83.3333333333333,4,2,1,50,0,0
268008,-100,4,2,1,60,0,0
268151,-100,4,2,1,70,0,0
268294,-100,4,2,1,80,0,0
268436,-83.3333333333333,4,2,1,90,0,0
268865,-58.8235294117647,4,2,1,95,0,0
269294,-83.3333333333333,4,2,1,90,0,0
271865,-100,4,2,1,60,0,0
273579,-83.3333333333333,4,2,1,90,0,0
274436,-83.3333333333333,4,2,1,95,0,0
274865,-83.3333333333333,4,2,1,100,0,0
275294,-83.3333333333333,4,2,1,5,0,0
275436,-83.3333333333333,4,2,1,20,0,0

[Colours]
Combo1 : 255,255,255
Combo2 : 0,0,205
Combo3 : 117,234,0
Combo4 : 255,47,47
Combo5 : 128,255,255

[HitObjects]
304,132,1008,6,2,P|316:175|312:244,1,85.0000032424928
256,276,1579,2,0,P|252:320|256:372,2,85.0000032424928
143,230,2579,5,0,0:0:0:0:
111,202,2722,2,2,P|103:158|111:98,1,85.0000032424928
167,58,3294,1,0,0:0:0:0:
219,126,3579,2,0,P|275:134|331:126,1,85.0000032424928
404,56,4293,5,0,0:0:0:0:
428,92,4436,2,2,P|436:136|436:188,1,85.0000032424928
360,212,5008,1,0,0:0:0:0:
460,256,5294,1,0,0:0:0:0:
340,224,5579,1,0,0:0:0:0:
240,304,6008,5,0,0:0:0:0:
208,332,6151,2,2,P|160:340|120:332,1,85.0000032424928
76,264,6722,1,0,0:0:0:0:
12,320,7008,2,2,L|8:356,1,21.2500008106232
100,256,7294,1,0,0:0:0:0:
48,184,7579,1,0,0:0:0:0:
108,124,7865,6,2,P|156:116|200:128,1,85.0000032424928
268,156,8436,1,0,0:0:0:0:
272,240,8722,1,0,0:0:0:0:
336,104,9008,1,0,0:0:0:0:
452,160,9436,5,0,0:0:0:0:
432,196,9579,2,2,P|424:244|428:288,1,85.0000032424928
352,196,10151,1,0,0:0:0:0:
452,160,10436,2,0,P|460:112|456:68,1,85.0000032424928
352,4,11151,5,0,0:0:0:0:
320,32,11294,2,2,P|268:40|220:32,1,85.0000032424928
152,68,11865,1,0,0:0:0:0:
84,8,12151,1,0,0:0:0:0:
12,96,12436,1,0,0:0:0:0:
100,188,12865,5,0,0:0:0:0:
136,212,13008,2,2,P|188:220|232:216,1,85.0000032424928
296,180,13579,1,0,0:0:0:0:
384,256,13865,2,2,L|388:296,1,21.2500008106232
304,164,14151,1,0,0:0:0:0:
432,92,14436,1,0,0:0:0:0:
296,144,14722,6,2,L|196:144,1,96.3333351707459
140,84,15151,1,0,0:0:0:0:
80,140,15294,2,0,P|72:176|72:204,1,48.1666675853729
120,256,15579,2,0,P|128:288|128:316,2,48.1666675853729
48,292,16008,1,0,0:0:0:0:
204,336,16151,2,0,P|212:368|212:392,1,48.1666675853729
280,304,16436,6,2,P|284:264|280:228,1,72.2500013780594
268,192,16722,2,0,P|260:164|260:128,1,48.1666675853729
304,76,17008,2,0,P|344:72|364:76,1,48.1666675853729
404,136,17294,5,0,0:0:0:0:
460,56,17436,1,0,0:0:0:0:
404,160,17579,2,0,P|400:184|400:212,1,48.1666675853729
452,272,17865,2,0,P|488:280|512:276,1,48.1666675853729
400,340,18151,6,2,P|368:344|348:340,1,48.1666675853729
280,304,18436,1,0,0:0:0:0:
240,376,18579,1,0,0:0:0:0:
200,256,18722,2,0,P|196:216|200:188,1,48.1666675853729
258,145,19008,5,0,0:0:0:0:
120,172,19151,1,0,0:0:0:0:
240,132,19294,2,0,L|292:128,1,48.1666675853729
108,192,19579,2,0,L|48:188,1,48.1666675853729
4,104,19865,6,2,P|0:80|4:48,1,48.1666675853729
76,20,20151,1,0,0:0:0:0:
108,96,20294,1,0,0:0:0:0:
176,16,20436,2,0,P|212:12|244:16,1,48.1666675853729
352,76,20722,6,0,L|448:80,1,96.3333351707459
316,148,21151,1,0,0:0:0:0:
240,132,21294,2,0,P|236:104|240:76,1,48.1666675853729
396,168,21579,6,2,L|400:280,1,96.3333351707459
480,240,22008,1,0,0:0:0:0:
352,332,22151,2,0,P|324:336|300:332,1,48.1666675853729
432,340,22436,2,0,P|448:368|452:384,1,48.1666675853729
316,252,22722,1,0,0:0:0:0:
240,284,22865,2,0,P|208:288|184:280,1,48.1666675853729
112,268,23151,5,0,0:0:0:0:
32,288,23294,2,2,P|20:320|16:384,1,96.3333351707459
112,268,23722,1,0,0:0:0:0:
68,196,23865,2,0,P|64:168|68:140,1,48.1666675853729
124,88,24151,2,0,P|128:60|124:28,1,48.1666675853729
48,60,24436,1,0,0:0:0:0:
192,132,24579,2,0,P|200:160|200:184,1,48.1666675853729
144,240,24865,1,0,0:0:0:0:
276,120,25008,6,2,L|276:16,1,96.3333351707459
356,136,25436,1,0,0:0:0:0:
424,64,25579,2,0,P|428:40|428:12,1,48.1666675853729
364,160,25865,2,0,P|396:168|416:168,1,48.1666675853729
300,240,26151,6,0,L|252:244,1,48.1666675853729
120,168,26436,2,0,L|72:164,1,48.1666675853729
220,68,26722,6,0,P|256:64|292:72,1,53.8333318958283
124,88,27008,1,0,0:0:0:0:
242,191,27151,2,0,P|250:223|251:255,1,53.8333318958283
364,160,27436,5,0,0:0:0:0:
168,232,27579,2,2,P|132:236|88:228,2,59.4999981842042
200,308,28008,1,0,0:0:0:0:
136,152,28151,1,0,0:0:0:0:
188,332,28294,1,0,0:0:0:0:
230,187,28436,6,2,B|238:135|234:87|234:87|226:131,1,135.99999584961
316,200,28865,1,0,0:0:0:0:
424,80,29008,1,0,0:0:0:0:
304,48,29151,1,0,0:0:0:0:
390,162,29294,2,0,P|434:166|466:162,1,67.9999979248048
316,72,29579,1,0,0:0:0:0:
230,187,29722,2,0,P|222:227|226:267,1,67.9999979248048
304,280,30008,1,0,0:0:0:0:
156,320,30151,6,2,L|80:324,1,67.9999979248048
240,336,30436,1,0,0:0:0:0:
64,192,30579,1,0,0:0:0:0:
88,323,30722,1,0,0:0:0:0:
152,128,30865,1,0,0:0:0:0:
234,268,31008,6,0,P|241:311|237:347,1,67.9999979248048
168,212,31294,1,0,0:0:0:0:
322,163,31436,2,0,P|366:159|414:167,1,67.9999979248048
420,240,31722,1,0,0:0:0:0:
504,96,31865,6,2,L|508:4,1,67.9999979248048
412,32,32151,1,0,0:0:0:0:
472,176,32294,1,0,0:0:0:0:
296,72,32436,1,0,0:0:0:0:
424,16,32579,1,0,0:0:0:0:
323,164,32722,2,0,P|315:208|315:244,1,67.9999979248048
234,268,33008,6,0,L|150:272,1,67.9999979248048
404,171,33294,2,0,L|500:177,1,67.9999979248048
220,40,33579,6,2,P|216:80|224:124,1,67.9999979248048
323,164,33865,1,0,0:0:0:0:
392,252,34008,2,0,P|400:292|400:332,1,67.9999979248048
312,340,34294,1,0,0:0:0:0:
404,171,34436,2,0,P|448:167|484:171,1,67.9999979248048
268,268,34722,1,0,0:0:0:0:
368,100,34865,1,0,0:0:0:0:
260,288,35008,2,0,P|216:292|160:288,1,93.5000028533936
100,232,35294,6,2,B|100:176|100:176|104:124|104:124|100:76,1,135.99999584961
192,184,35722,1,0,0:0:0:0:
168,48,35865,1,0,0:0:0:0:
180,204,36008,1,0,0:0:0:0:
296,72,36151,2,0,P|300:32|296:-4,1,67.9999979248048
323,164,36436,1,0,0:0:0:0:
432,68,36579,2,0,P|436:16|428:-16,1,67.9999979248048
340,144,36865,1,0,0:0:0:0:
392,252,37008,6,2,L|396:340,1,67.9999979248048
323,164,37294,1,0,0:0:0:0:
456,188,37436,1,0,0:0:0:0:
268,268,37579,1,0,0:0:0:0:
368,132,37722,1,0,0:0:0:0:
260,288,37865,6,0,P|256:320|260:364,1,67.9999979248048
166,289,38151,1,0,0:0:0:0:
255,167,38294,2,0,P|293:161|335:167,1,67.9999979248048
258,355,38579,1,0,0:0:0:0:
100,232,38722,2,2,L|96:144,1,67.9999979248048
188,248,39008,5,0,0:0:0:0:
188,56,39151,1,0,0:0:0:0:
208,228,39294,1,0,0:0:0:0:
164,32,39436,1,0,0:0:0:0:
272,144,39579,6,0,P|308:148|352:140,1,67.9999979248048
432,68,39865,6,0,L|436:-4,1,67.9999979248048
380,224,40151,2,0,L|384:316,1,67.9999979248048
340,56,40436,6,2,P|296:52|264:56,1,67.9999979248048
192,80,40722,1,0,0:0:0:0:
96,164,40865,2,0,P|56:168|24:164,1,67.9999979248048
132,276,41151,1,0,0:0:0:0:
268,122,41294,6,2,L|272:46,1,67.9999979248048
204,240,41579,2,2,L|204:160,1,67.9999979248048
136,344,41865,2,2,L|132:268,1,67.9999979248048
96,164,42151,6,0,B|104:116|96:64|96:64|108:104,1,135.99999584961
204,176,42579,1,0,0:0:0:0:
268,122,42722,1,0,0:0:0:0:
256,304,42865,1,0,0:0:0:0:
352,140,43008,2,2,P|356:100|352:68,2,67.9999979248048
271,54,43436,1,0,0:0:0:0:
432,68,43579,1,0,0:0:0:0:
251,38,43722,1,0,0:0:0:0:
448,188,43865,6,2,L|452:276,1,67.9999979248048
360,224,44151,1,0,0:0:0:0:
432,68,44294,2,0,P|472:64|500:68,2,67.9999979248048
271,121,44722,2,0,P|267:77|271:49,1,67.9999979248048
360,224,45008,1,0,0:0:0:0:
204,176,45151,1,0,0:0:0:0:
432,168,45294,1,0,0:0:0:0:
300,288,45436,1,0,0:0:0:0:
184,152,45579,6,2,P|180:116|184:80,1,67.9999979248048
208,4,45865,1,0,0:0:0:0:
96,120,46008,2,0,P|56:124|20:116,2,67.9999979248048
270,188,46436,2,0,P|274:152|270:116,1,67.9999979248048
112,264,46722,2,0,P|108:312|112:344,1,67.9999979248048
304,124,47008,2,0,P|308:88|304:52,1,67.9999979248048
99,52,47294,6,2,L|95:128,1,67.9999979248048
184,196,47579,1,0,0:0:0:0:
224,272,47722,2,0,L|228:352,1,67.9999979248048
300,240,48008,1,0,0:0:0:0:
336,320,48151,2,0,P|380:324|424:316,1,67.9999979248048
196,172,48436,1,0,0:0:0:0:
227,339,48579,1,0,0:0:0:0:
316,224,48722,2,0,P|364:216|416:224,1,93.5000028533936
496,272,49008,6,2,B|504:372|504:372|488:312,1,135.99999584961
408,221,49436,1,0,0:0:0:0:
464,44,49579,1,0,0:0:0:0:
480,168,49722,1,0,0:0:0:0:
372,59,49865,2,0,P|329:54|297:58,1,67.9999979248048
228,136,50151,1,0,0:0:0:0:
144,68,50294,2,0,L|140:-8,1,67.9999979248048
228,24,50579,1,0,0:0:0:0:
140,168,50722,6,2,L|136:248,1,67.9999979248048
232,280,51008,1,0,0:0:0:0:
64,140,51151,2,0,P|16:136|-8:140,2,67.9999979248048
308,240,51579,2,0,P|316:284|312:320,1,67.9999979248048
232,280,51865,5,0,0:0:0:0:
72,120,52008,2,0,P|36:116|-4:120,1,67.9999979248048
96,312,52294,1,0,0:0:0:0:
225,203,52436,2,2,P|229:175|225:119,1,67.9999979248048
216,300,52722,5,0,0:0:0:0:
328,80,52865,1,0,0:0:0:0:
314,307,53008,1,0,0:0:0:0:
304,56,53151,1,0,0:0:0:0:
412,167,53294,6,0,P|456:171|484:167,1,67.9999979248048
225,203,53579,6,0,L|221:127,1,67.9999979248048
408,332,53865,2,0,L|412:256,1,67.9999979248048
234,355,54151,6,2,P|190:359|146:351,1,67.9999979248048
150,255,54436,1,0,0:0:0:0:
314,307,54579,2,0,P|322:335|322:379,1,67.9999979248048
142,279,54865,1,0,0:0:0:0:
69,186,55008,6,2,P|65:146|73:114,1,67.9999979248048
188,92,55294,6,2,P|197:53|216:25,1,67.9999979248048
320,52,55579,6,2,P|342:18|369:-1,1,67.9999979248048
225,203,55865,5,0,0:0:0:0:
256,192,62722,5,0,0:0:0:0:
256,192,67865,12,0,69436,0:0:0:0:
416,105,69579,6,0,L|420:256,1,141.666666666667
324,288,70008,1,2,0:0:0:0:
328,148,70151,1,2,0:0:0:0:
400,332,70294,1,2,0:0:0:0:
244,192,70436,6,0,P|200:188|148:200,2,70.8333333333333
324,288,70865,5,2,0:0:0:0:
308,128,71008,1,2,0:0:0:0:
204,276,71151,1,2,0:0:0:0:
416,105,71294,2,0,L|508:104,1,70.8333333333333
312,268,71579,5,0,0:0:0:0:
232,108,71722,2,0,L|228:28,2,70.8333333333333
332,252,72151,2,0,L|330:352,2,70.8333333333333
328,148,72579,1,2,0:0:0:0:
173,191,72722,1,2,0:0:0:0:
352,164,72865,1,2,0:0:0:0:
148,108,73008,2,0,L|59:106,1,70.8333333333333
204,276,73294,5,2,0:0:0:0:
308,128,73436,1,2,0:0:0:0:
228,37,73579,1,2,0:0:0:0:
264,208,73722,1,0,0:0:0:0:
416,105,73865,2,0,P|464:101|496:105,1,70.8333333333333
173,191,74151,2,0,L|84:184,1,70.8333333333333
332,252,74436,2,0,L|424:248,1,70.8333333333333
184,216,74722,6,2,P|172:260|172:316,1,70.8333333333333
296,328,75008,1,0,0:0:0:0:
217,113,75151,2,0,P|165:105|130:112,1,70.8333333333333,2|0,0:0|0:0,0:0:0:0:
272,308,75436,1,0,0:0:0:0:
396,152,75579,2,2,P|400:104|388:60,1,70.8333333333333
324,32,75865,1,0,0:0:0:0:
476,24,76008,1,0,0:0:0:0:
314,116,76151,2,0,L|228:112,1,65.1666679096222
184,216,76436,5,2,0:0:0:0:
224,32,76579,1,0,0:0:0:0:
200,244,76722,1,0,0:0:0:0:
395,81,76865,5,2,0:0:0:0:
296,328,77008,1,0,0:0:0:0:
381,59,77151,1,0,0:0:0:0:
184,216,77294,6,0,L|104:212,2,73.6666632944744
395,81,77722,6,2,L|479:85,1,73.6666632944744
248,112,78008,1,0,0:0:0:0:
273,313,78151,5,2,0:0:0:0:
316,40,78294,1,0,0:0:0:0:
296,328,78436,1,0,0:0:0:0:
168,128,78579,5,2,0:0:0:0:
402,248,78722,1,0,0:0:0:0:
156,106,78865,1,0,0:0:0:0:
316,40,79008,6,0,L|400:36,2,73.6666632944744
476,208,79436,6,2,P|480:256|476:304,1,73.6666632944744
248,112,79722,1,0,0:0:0:0:
340,60,79865,2,2,L|416:64,1,73.6666632944744
413,63,80079,1,0,0:0:0:0:
413,63,80151,1,0,0:0:0:0:
232,92,80294,5,2,0:0:0:0:
365,248,80436,2,0,L|415:248,2,36.8333316472372
248,288,80722,5,2,0:0:0:0:
156,106,80865,2,0,L|156:50,2,36.8333316472372
264,264,81151,5,2,0:0:0:0:
340,96,81294,2,0,L|340:42,2,36.8333316472372
476,208,81579,6,0,P|480:256|476:288,1,70.8333333333333
324,324,81865,1,0,0:0:0:0:
424,132,82008,2,0,P|428:96|424:60,1,70.8333333333333
224,204,82294,1,0,0:0:0:0:
407,278,82436,2,0,P|447:282|491:274,2,70.8333333333333
320,188,82865,5,2,0:0:0:0:
312,344,83008,1,2,0:0:0:0:
232,92,83151,1,2,0:0:0:0:
340,211,83294,6,0,L|484:207,1,135.99999584961
312,344,83722,2,0,B|256:328|200:344|200:344|196:336|196:336|88:340,1,192.666670341492
192,184,84151,1,2,0:0:0:0:
272,252,84294,1,0,0:0:0:0:
176,168,84436,2,0,P|171:131|179:79,1,67.9999979248048
136,300,84722,5,0,0:0:0:0:
76,116,84865,1,0,0:0:0:0:
28,240,85008,2,0,P|24:284|28:316,1,67.9999979248048
88,92,85294,2,0,P|84:48|88:16,1,67.9999979248048
176,168,85579,1,0,0:0:0:0:
16,216,85722,1,0,0:0:0:0:
232,92,85865,6,0,L|307:89,2,67.9999979248048
408,32,86294,2,0,L|484:36,2,67.9999979248048
475,207,86722,6,0,B|484:248|484:248|472:280|472:280|480:324|480:324|472:376|472:376|456:292,1,255.000009727478
352,288,87294,1,0,0:0:0:0:
324,176,87436,1,0,0:0:0:0:
376,304,87579,2,0,P|380:352|376:384,1,67.9999979248048
432,128,87865,2,0,P|436:88|428:52,1,67.9999979248048
272,244,88151,5,0,0:0:0:0:
224,104,88294,1,0,0:0:0:0:
248,264,88436,2,0,P|244:312|248:356,2,67.9999979248048
228,240,89008,5,0,0:0:0:0:
224,104,89151,1,0,0:0:0:0:
356,228,89294,2,0,L|504:232,1,124.666670471192
369,328,89722,2,0,L|225:332,1,124.666670471192
428,195,90151,6,0,P|436:131|428:47,1,135.99999584961
340,148,90579,2,0,P|278:202|180:140,1,192.666670341492
324,284,91008,1,0,0:0:0:0:
260,120,91151,1,2,0:0:0:0:
412,232,91294,2,0,P|464:228|504:236,1,67.9999979248048
356,100,91579,5,0,0:0:0:0:
272,40,91722,1,0,0:0:0:0:
428,40,91865,2,0,P|480:36|524:44,1,67.9999979248048
192,76,92151,2,0,P|144:72|112:76,1,67.9999979248048
24,192,92436,1,0,0:0:0:0:
44,40,92579,1,0,0:0:0:0:
119,155,92722,6,0,L|206:160,2,67.9999979248048
275,107,93151,2,0,L|271:31,2,67.9999979248048
324,284,93579,6,0,B|364:284|364:284|380:280|380:280|412:280|412:280|428:284|428:284|500:284,1,170.000006484986
340,160,94008,2,0,B|324:204|324:204|324:284|324:284|336:232,1,170.000006484986
464,124,94436,1,2,0:0:0:0:
275,107,94579,5,0,0:0:0:0:
428,40,94722,1,0,0:0:0:0:
256,128,94865,2,0,L|184:120,1,56.6666666666667
328,24,95151,1,0,0:0:0:0:
340,160,95294,6,2,P|348:208|348:260,1,67.9999979248048
288,296,95579,1,0,0:0:0:0:
432,208,95722,2,0,P|476:204|508:208,1,67.9999979248048
280,324,96008,1,0,0:0:0:0:
199,189,96151,6,0,P|195:149|203:109,2,67.9999979248048
280,324,96579,1,0,0:0:0:0:
112,160,96722,1,0,0:0:0:0:
160,300,96865,1,0,0:0:0:0:
275,107,97008,6,0,L|419:111,1,135.99999584961
199,189,97436,2,0,B|135:197|75:189|75:189|119:189|163:181,1,192.666670341492
280,192,97865,1,2,0:0:0:0:
200,72,98008,1,0,0:0:0:0:
356,148,98151,2,0,P|368:200|364:228,1,67.9999979248048
440,264,98436,5,0,0:0:0:0:
280,192,98579,1,0,0:0:0:0:
440,148,98722,2,0,P|488:144|516:148,1,67.9999979248048
304,340,99008,2,0,P|308:300|300:260,1,67.9999979248048
280,192,99294,1,0,0:0:0:0:
396,72,99436,1,0,0:0:0:0:
199,189,99579,6,0,L|131:185,2,67.9999979248048
416,52,100008,2,0,L|500:56,2,67.9999979248048
435,192,100436,6,0,B|387:200|345:191|345:191|349:199|349:199|305:187|269:203,1,170.000006484986
480,260,100865,1,0,0:0:0:0:
312,280,101008,1,0,0:0:0:0:
371,112,101151,1,0,0:0:0:0:
224,272,101294,2,0,P|184:276|136:268,1,67.9999979248048
368,336,101580,2,0,P|412:340|456:328,1,67.9999979248048
279,199,101865,5,0,0:0:0:0:
260,348,102008,1,0,0:0:0:0:
188,188,102151,2,0,P|184:148|192:104,2,67.9999979248048
168,208,102722,5,0,0:0:0:0:
88,72,102865,1,0,0:0:0:0:
216,116,103008,2,0,L|372:112,1,155.833338088989
436,64,103436,2,0,P|468:100|428:68,1,155.833338088989
396,192,103865,6,0,L|400:352,1,135.99999584961
279,199,104294,2,0,B|275:143|283:103|283:103|279:-9,1,192.666670341492
396,192,104722,1,2,0:0:0:0:
240,96,104865,1,0,0:0:0:0:
436,64,105008,2,0,P|452:28|456:-12,1,67.9999979248048
480,152,105294,6,0,P|488:192|484:232,1,67.9999979248048
364,112,105579,1,2,0:0:0:0:
336,260,105722,1,0,0:0:0:0:
240,96,105865,2,0,P|236:48|244:8,1,67.9999979248048
160,180,106151,1,0,0:0:0:0:
352,136,106294,1,0,0:0:0:0:
144,208,106436,6,0,L|65:202,2,67.9999979248048
80,60,106865,2,0,L|0:68,2,67.9999979248048
200,269,107294,6,0,L|364:257,1,135.99999584961
112,288,107722,2,0,P|104:328|104:364,1,67.9999979248048
216,176,108008,1,0,0:0:0:0:
412,292,108151,2,0,P|420:332|420:368,1,67.9999979248048
304,168,108436,1,0,0:0:0:0:
336,336,108579,1,0,0:0:0:0:
192,160,108722,1,0,0:0:0:0:
448,196,108865,1,0,0:0:0:0:
332,56,109008,6,2,P|280:52|244:56,1,67.9999979248048
192,160,109294,1,0,0:0:0:0:
48,76,109436,2,0,P|44:28|48:0,1,67.9999979248048
128,40,109722,1,0,0:0:0:0:
48,232,109865,6,0,L|-24:228,2,67.9999979248048
288,140,110294,1,0,0:0:0:0:
136,60,110436,1,0,0:0:0:0:
200,269,110579,1,0,0:0:0:0:
304,120,110722,6,0,L|300:-16,1,135.99999584961
388,120,111151,2,0,P|476:116|376:48,1,289.000005512238
356,188,112508,6,0,L|356:256,1,59.4999981842042
312,116,112865,2,0,P|344:104|368:104,1,45.3333333333333
276,296,113365,6,0,L|188:300,1,76.4999976654053
140,360,113722,2,0,P|120:332|116:288,1,56.6666666666667
277,156,114151,6,0,P|197:164|113:140,1,135.99999584961
305,76,114579,2,0,P|349:112|353:192,1,135.99999584961
224,40,115008,6,0,L|84:32,1,135.99999584961
305,76,115436,2,0,P|385:72|465:80,1,135.99999584961
347,322,115865,6,0,L|355:170,1,135.99999584961
440,76,116294,2,0,P|452:132|444:236,1,135.99999584961
347,322,116722,6,0,P|387:326|419:322,2,56.6666666666667
206,243,117151,2,0,P|200:270|198:298,2,56.6666666666667
48,132,117579,6,0,P|52:64|44:-8,1,135.99999584961
136,24,118008,2,0,B|140:108|132:144|132:144|144:128|148:72,1,192.666670341492
252,44,118436,6,0,L|388:44,1,135.99999584961
268,148,118865,2,0,P|180:140|108:148,1,135.99999584961
352,264,119294,6,0,B|348:216|348:216|352:184|352:184|344:96,1,135.99999584961
436,268,119722,2,0,P|420:312|336:344,1,135.99999584961
160,300,120151,6,0,B|128:284|128:284|128:292|128:292|8:296,1,135.99999584961
240,304,120579,1,0,0:0:0:0:
184,208,120722,1,2,0:0:0:0:
196,376,120865,1,2,0:0:0:0:
313,126,121008,6,0,L|384:132,2,67.9999979248048
132,143,121436,1,0,0:0:0:0:
316,56,121579,1,2,0:0:0:0:
132,168,121722,1,2,0:0:0:0:
400,48,121865,5,0,0:0:0:0:
344,208,122722,6,0,B|292:216|228:204|228:204|164:232|164:232|124:204|40:216,1,311.666666666667
44,132,123579,2,0,B|96:124|160:136|160:136|224:108|224:108|264:136|348:124,1,311.666666666667
420,172,124436,6,0,L|424:312,1,135.99999584961
475,57,124865,2,0,P|459:117|339:117,1,192.666670341492
500,192,125294,6,0,L|504:272,2,67.9999979248048
396,64,125722,1,0,0:0:0:0:
224,108,125865,2,0,P|172:104|136:108,1,67.9999979248048
200,268,126151,6,2,P|196:320|200:352,2,67.9999979248048
72,136,126579,1,0,0:0:0:0:
244,189,126722,2,0,L|336:185,1,67.9999979248048
96,248,127008,6,0,L|16:240,2,67.9999979248048
224,108,127436,1,0,0:0:0:0:
108,272,127579,2,0,P|98:320|98:348,1,67.9999979248048
288,304,127865,5,2,0:0:0:0:
224,108,128008,1,0,0:0:0:0:
200,268,128151,1,0,0:0:0:0:
248,92,128294,1,0,0:0:0:0:
72,136,128436,2,0,P|32:140|-4:136,1,67.9999979248048
244,189,128722,6,0,L|320:184,2,67.9999979248048
248,92,129151,1,0,0:0:0:0:
420,172,129294,2,0,P|428:220|428:240,1,67.9999979248048
408,60,129579,5,2,0:0:0:0:
244,189,129722,1,0,0:0:0:0:
320,40,129865,1,0,0:0:0:0:
428,239,130008,1,0,0:0:0:0:
228,76,130151,2,0,P|180:72|140:76,1,67.9999979248048
280,216,130436,6,0,L|356:216,1,67.9999979248048
184,192,130722,1,0,0:0:0:0:
236,308,130865,6,0,L|236:368,2,56.6666666666667
348,216,131294,6,0,L|356:79,1,135.99999584961
428,239,131722,2,0,P|352:299|266:215,1,192.666670341492
156,105,132151,6,0,P|68:97|8:105,1,135.99999584961
152,16,132579,2,0,L|312:8,1,135.99999584961
384,152,133008,6,0,P|392:92|392:16,1,135.99999584961
280,234,133436,2,0,P|336:242|424:238,1,135.99999584961
291,97,133865,6,0,L|146:105,1,135.99999584961
116,172,134294,1,0,0:0:0:0:
144,248,134436,1,0,0:0:0:0:
116,324,134579,1,0,0:0:0:0:
200,312,134722,6,0,P|252:308|308:320,1,85
316,300,135008,2,0,P|312:340|316:372,1,56.6666666666667
415,239,135294,2,0,P|419:199|415:167,1,56.6666666666667
347,98,135579,2,0,P|312:95|280:99,2,56.6666666666667
432,52,136008,1,0,0:0:0:0:
282,177,136151,2,0,P|278:217|282:249,1,56.6666666666667
448,28,136436,6,0,L|360:24,1,67.9999979248048
248,24,136722,1,0,0:0:0:0:
349,185,136865,2,0,L|445:181,1,67.9999979248048
324,104,137151,1,0,0:0:0:0:
203,244,137294,6,0,L|199:312,2,67.9999979248048
313,356,137722,1,2,0:0:0:0:
208,124,137865,1,2,0:0:0:0:
416,182,138008,1,2,0:0:0:0:
124,180,138151,5,0,0:0:0:0:
290,96,151865,6,0,L|348:100,1,56.6666666666667
290,96,153008,6,0,L|348:100,1,56.6666666666667
416,56,153579,2,0,L|472:52,1,56.6666666666667
279,233,155294,6,0,L|275:297,1,56.6666666666667
158,160,156436,6,0,L|154:100,1,56.6666666666667
92,44,157008,2,0,L|36:40,2,56.6666666666667
154,103,157865,2,0,L|158:159,1,56.6666666666667
116,232,158436,1,0,0:0:0:0:
192,332,158722,1,0,0:0:0:0:
348,184,159865,6,0,L|408:184,1,56.6666666666667
346,99,160436,2,0,L|406:99,1,56.6666666666667
244,56,162151,6,0,L|240:112,1,56.6666666666667
244,56,163294,6,0,L|240:112,1,56.6666666666667
256,192,163865,12,0,165294,0:0:0:0:
188,264,165579,6,2,L|192:348,1,67.9999979248048
239,112,165865,2,0,L|319:116,1,67.9999979248048
116,232,166151,2,0,L|24:228,1,67.9999979248048
239,112,166436,6,0,P|247:148|247:184,1,67.9999979248048
154,103,166722,1,0,0:0:0:0:
280,32,166865,2,0,P|316:28|348:32,1,67.9999979248048
348,184,167151,1,0,0:0:0:0:
476,48,167294,6,2,P|484:84|484:120,1,67.9999979248048
356,212,167579,2,0,L|268:216,1,67.9999979248048
432,312,167865,2,0,L|508:316,1,67.9999979248048
268,196,168151,2,0,P|264:148|268:116,1,67.9999979248048
348,300,168436,1,0,0:0:0:0:
184,216,168579,2,0,P|144:212|108:216,1,67.9999979248048
84,288,168865,1,0,0:0:0:0:
28,136,169008,6,2,L|28:60,1,67.9999979248048
198,127,169294,2,0,P|238:131|286:123,1,67.9999979248048
414,32,169579,2,0,P|374:28|326:36,1,67.9999979248048
187,148,169865,6,2,L|183:228,1,67.9999979248048
108,48,170151,2,0,L|112:124,1,67.9999979248048
269,60,170436,2,0,L|265:136,1,67.9999979248048
151,295,170722,6,2,P|95:287|67:291,1,67.9999979248048
268,212,171008,2,0,P|324:204|352:208,1,67.9999979248048
118,182,171294,2,0,P|110:126|114:97,1,67.9999979248048
312,296,171579,6,2,L|304:380,1,67.9999979248048
416,184,171865,2,0,L|408:116,1,67.9999979248048
396,344,172151,2,0,L|472:336,1,62.3333352355958
270,149,172436,6,2,P|266:189|270:229,1,62.3333352355958
408,116,172722,2,0,L|480:120,1,67.9999979248048
220,80,173008,2,0,P|216:40|220:0,1,67.9999979248048
118,182,173294,6,2,L|42:178,1,67.9999979248048
184,232,173579,1,0,0:0:0:0:
128,96,173722,2,0,L|124:12,1,67.9999979248048
208,216,174008,1,0,0:0:0:0:
80,304,174151,6,2,L|0:308,1,67.9999979248048
184,232,174436,2,0,P|196:276|196:316,1,67.9999979248048
254,144,174722,2,0,P|266:188|266:228,1,67.9999979248048
50,110,175008,6,2,L|50:186,1,67.9999979248048
208,72,175294,1,0,0:0:0:0:
332,120,175436,2,0,P|372:124|404:120,1,67.9999979248048
267,210,175722,1,0,0:0:0:0:
364,40,175865,2,2,P|368:-4|364:-32,1,67.9999979248048
432,216,176151,6,0,L|512:216,1,67.9999979248048
265,298,176436,2,0,L|193:298,1,67.9999979248048
367,107,176722,6,2,L|363:31,1,67.9999979248048
267,210,177008,2,0,L|271:130,1,67.9999979248048
364,328,177294,2,0,L|360:248,1,67.9999979248048
208,72,177579,6,2,P|156:68|124:72,1,67.9999979248048
432,216,177865,2,0,P|440:172|440:144,1,67.9999979248048
205,230,178151,2,0,P|197:274|197:302,1,67.9999979248048
367,107,178436,5,2,0:0:0:0:
284,360,178722,5,0,0:0:0:0:
208,72,179008,5,0,0:0:0:0:
444,300,179294,6,0,L|448:396,1,67.9999979248048
272,230,179579,2,0,P|236:226|200:230,1,67.9999979248048
364,328,179865,1,2,0:0:0:0:
367,107,180008,1,2,0:0:0:0:
444,200,180151,2,0,P|492:204|532:196,2,67.9999979248048
272,230,180579,1,0,0:0:0:0:
367,107,180722,1,0,0:0:0:0:
364,328,180865,1,0,0:0:0:0:
280,148,181008,6,0,P|276:92|280:68,2,67.9999979248048
444,200,181436,1,0,0:0:0:0:
264,56,181579,2,0,P|224:52|192:56,1,67.9999979248048
204,229,181865,2,0,L|112:225,2,67.9999979248048
367,107,182294,2,0,L|360:32,2,67.9999979248048
355,260,182722,6,0,P|363:304|363:332,1,67.9999979248048
436,156,183008,1,2,0:0:0:0:
276,304,183151,2,0,P|232:308|200:304,1,67.9999979248048
452,176,183436,1,0,0:0:0:0:
277,80,183579,6,0,L|193:76,1,67.9999979248048
160,156,183865,1,2,0:0:0:0:
367,107,184008,1,2,0:0:0:0:
124,76,184151,1,2,0:0:0:0:
240,220,184294,1,2,0:0:0:0:
392,84,184436,6,0,L|396:12,2,67.9999979248048
264,280,184865,1,0,0:0:0:0:
209,76,185008,1,0,0:0:0:0:
280,296,185151,1,0,0:0:0:0:
160,156,185294,6,0,L|76:152,1,67.9999979248048
355,260,185579,2,0,L|435:256,1,67.9999979248048
144,352,185865,2,0,L|60:348,1,62.3333352355958
352,164,186151,6,2,P|356:116|352:92,1,67.9999979248048
422,256,186436,2,0,P|434:209|434:185,1,67.9999979248048
480,352,186722,2,0,P|500:308|504:284,1,67.9999979248048
268,208,187008,6,2,L|264:276,1,67.9999979248048
352,164,187294,1,0,0:0:0:0:
160,156,187436,1,0,0:0:0:0:
296,56,187579,2,0,P|340:52|384:60,1,67.9999979248048
136,144,187865,6,2,L|132:64,1,67.9999979248048
351,231,188151,2,0,P|355:187|351:163,1,67.9999979248048
112,240,188436,2,0,P|156:244|179:239,1,67.9999979248048
296,56,188722,2,2,P|262:51|228:55,1,67.9999979248048
434,189,189008,2,4,L|518:193,1,67.9999979248048
270,275,189294,2,0,P|266:235|270:195,1,67.9999979248048
452,32,189579,6,2,L|448:112,1,67.9999979248048
351,163,189865,2,0,L|355:235,1,67.9999979248048
452,296,190151,2,0,L|448:368,1,67.9999979248048
300,88,190436,2,2,P|340:76|376:76,1,67.9999979248048
270,275,190722,2,0,L|194:271,1,67.9999979248048
60,176,191008,2,0,L|-8:180,1,67.9999979248048
228,54,191294,6,0,P|232:98|228:130,2,67.9999979248048
144,88,191722,1,0,0:0:0:0:
351,163,191865,2,0,P|395:167|431:159,1,67.9999979248048
202,271,192151,5,2,0:0:0:0:
292,4,192436,5,0,0:0:0:0:
354,230,192722,5,0,0:0:0:0:
448,96,193008,5,0,0:0:0:0:
205,111,199865,5,0,0:0:0:0:
256,192,205008,12,0,206579,0:0:0:0:
288,104,206722,6,0,P|364:100|436:104,1,141.666666666667
156,176,207151,1,2,0:0:0:0:
208,80,207294,1,2,0:0:0:0:
224,248,207436,1,2,0:0:0:0:
76,48,207579,2,0,L|72:136,2,70.8333333333333
240,268,208008,2,0,L|236:344,2,70.8333333333333
136,268,208436,5,2,0:0:0:0:
208,80,208579,1,0,0:0:0:0:
208,80,208651,1,0,0:0:0:0:
208,80,208722,1,0,0:0:0:0:
296,196,208865,2,0,P|336:200|376:192,1,70.8333333333333
429,103,209151,1,2,0:0:0:0:
208,184,209294,6,0,P|152:180|120:184,2,70.8333333333333
296,196,209722,1,0,0:0:0:0:
412,84,209865,1,0,0:0:0:0:
332,292,210008,1,0,0:0:0:0:
288,104,210151,6,0,L|284:24,1,70.8333333333333
364,224,210436,1,2,0:0:0:0:
137,181,210579,1,2,0:0:0:0:
412,84,210722,1,2,0:0:0:0:
121,161,210865,1,2,0:0:0:0:
384,248,211008,6,0,P|388:288|388:324,2,70.8333333333333
192,88,211436,2,0,P|188:48|188:12,2,70.8333333333333
244,260,211865,1,0,0:0:0:0:
288,104,212008,1,0,0:0:0:0:
300,336,212151,1,0,0:0:0:0:
412,84,212294,2,0,P|416:40|412:4,2,70.8333333333333
244,260,212722,6,0,L|160:256,1,70.8333333333333
472,152,213008,2,0,L|468:228,1,70.8333333333333
288,104,213294,2,0,L|284:28,1,65.1666679096222
376,298,213579,5,2,0:0:0:0:
412,84,213722,1,0,0:0:0:0:
388,318,213865,1,0,0:0:0:0:
204,80,214008,5,2,0:0:0:0:
236,352,214151,1,0,0:0:0:0:
196,108,214294,1,0,0:0:0:0:
320,208,214436,5,2,0:0:0:0:
24,148,214579,1,0,0:0:0:0:
344,188,214722,1,0,0:0:0:0:
96,76,214865,6,2,P|92:28|96:-4,2,73.6666632944744
184,336,215294,5,2,0:0:0:0:
360,160,215436,1,0,0:0:0:0:
156,328,215579,1,0,0:0:0:0:
360,60,215722,5,2,0:0:0:0:
308,344,215865,1,0,0:0:0:0:
336,44,216008,1,0,0:0:0:0:
460,214,216151,6,2,L|464:310,2,73.6666632944744
288,104,216579,2,0,L|292:24,2,73.6666632944744
440,108,217008,5,2,0:0:0:0:
256,236,217151,2,0,L|256:276,2,36.8333316472372
288,104,217436,5,2,0:0:0:0:
376,280,217579,2,0,L|376:320,2,36.8333316472372
384,176,217865,5,2,0:0:0:0:
204,80,218008,2,0,L|164:80,2,36.8333316472372
336,44,218294,5,2,0:0:0:0:
144,180,218436,2,0,L|144:228,2,36.8333316472372
384,176,218722,6,0,P|428:172|464:176,1,70.8333333333333
256,268,219008,1,0,0:0:0:0:
404,140,219151,2,0,P|448:136|484:140,1,70.8333333333333
160,72,219436,5,0,0:0:0:0:
384,176,219579,1,0,0:0:0:0:
172,160,219722,1,0,0:0:0:0:
420,52,219865,1,0,0:0:0:0:
256,268,220008,6,0,P|252:316|256:348,2,70.8333333333333
68,148,220436,6,0,L|64:8,1,135.99999584961
172,160,220865,2,0,B|156:224|156:224|164:280|164:280|152:324|160:360,1,192.666670341492
72,232,221294,1,2,0:0:0:0:
240,248,221436,1,0,0:0:0:0:
52,312,221579,2,0,P|8:316|-28:308,1,67.9999979248048
256,268,221865,6,0,P|264:316|260:348,1,67.9999979248048
156,224,222151,1,2,0:0:0:0:
272,172,222294,1,0,0:0:0:0:
88,124,222436,2,0,P|36:120|4:124,1,67.9999979248048
252,156,222722,1,0,0:0:0:0:
224,32,222865,1,0,0:0:0:0:
344,256,223008,6,2,L|340:336,2,67.9999979248048
155,127,223436,2,2,L|79:123,2,67.9999979248048
174,252,223865,6,0,B|224:272|272:248|272:248|304:276|304:276|344:252|344:252|384:264|424:248,1,255.000009727478
484,224,224436,1,0,0:0:0:0:
328,160,224579,1,0,0:0:0:0:
408,24,224722,2,0,P|452:20|480:24,1,67.9999979248048
342,187,225008,2,0,P|346:227|342:259,1,67.9999979248048
248,176,225294,5,0,0:0:0:0:
416,124,225436,1,0,0:0:0:0:
484,224,225579,2,0,P|488:268|488:296,2,67.9999979248048
440,108,226008,1,0,0:0:0:0:
343,255,226151,5,0,0:0:0:0:
344,76,226294,1,0,0:0:0:0:
174,252,226436,2,0,L|24:252,1,124.666670471192
228,336,226865,2,0,L|80:340,1,124.666670471192
343,255,227294,6,0,P|411:263|495:251,1,135.99999584961
252,212,227722,2,0,P|176:252|88:180,1,192.666670341492
343,255,228151,1,2,0:0:0:0:
176,160,228294,1,0,0:0:0:0:
344,76,228436,2,0,P|352:116|348:152,1,67.9999979248048
252,212,228722,5,0,0:0:0:0:
456,120,228865,1,0,0:0:0:0:
343,255,229008,2,0,P|336:296|336:328,1,67.9999979248048
176,160,229294,2,0,P|132:164|84:156,1,67.9999979248048
252,212,229579,1,0,0:0:0:0:
140,72,229722,1,0,0:0:0:0:
344,76,229865,6,0,L|340:164,2,67.9999979248048
172,248,230294,2,0,L|96:244,2,67.9999979248048
344,76,230722,6,0,B|388:72|388:72|416:88|416:88|468:72|540:88,1,170.000006484986
300,152,231151,2,0,P|260:104|320:-8,1,170.000006484986
380,164,231579,1,2,0:0:0:0:
160,84,231722,5,0,0:0:0:0:
252,212,231865,1,0,0:0:0:0:
72,88,232008,2,0,P|68:52|72:16,1,56.6666666666667
36,200,232294,1,0,0:0:0:0:
220,136,232436,6,0,P|264:132|312:140,1,67.9999979248048
343,255,232722,1,0,0:0:0:0:
464,148,232865,2,0,P|468:104|464:64,1,67.9999979248048
348,280,233151,1,0,0:0:0:0:
340,32,233294,1,2,0:0:0:0:
452,248,233436,1,0,0:0:0:0:
356,52,233579,1,0,0:0:0:0:
252,212,233722,6,0,L|172:208,2,67.9999979248048
452,248,234151,6,0,P|460:304|456:384,1,135.99999584961
344,312,234579,2,0,B|304:296|264:312|264:312|244:296|244:296|196:312|156:300,1,192.666670341492
304,384,235008,1,2,0:0:0:0:
392,188,235151,1,0,0:0:0:0:
432,272,235294,2,0,P|440:316|440:344,1,67.9999979248048
240,172,235579,5,0,0:0:0:0:
376,212,235722,1,2,0:0:0:0:
160,208,235865,2,0,P|156:172|160:132,1,67.9999979248048
400,152,236151,2,0,P|404:116|400:68,1,67.9999979248048
476,36,236436,1,0,0:0:0:0:
308,88,236579,1,0,0:0:0:0:
472,200,236722,6,0,L|544:200,2,67.9999979248048
328,68,237151,2,0,L|328:0,2,67.9999979248048
168,184,237579,6,0,B|220:180|220:180|232:196|232:196|272:176|272:176|360:184,1,170.000006484986
96,228,238008,1,0,0:0:0:0:
176,96,238151,1,0,0:0:0:0:
184,304,238294,1,0,0:0:0:0:
88,144,238436,2,0,P|89:110|96:76,1,67.9999979248048
212,304,238722,2,0,P|220:352|220:384,1,67.9999979248048
300,292,239008,5,0,0:0:0:0:
324,180,239151,1,0,0:0:0:0:
243,97,239294,2,0,P|199:93|151:101,2,67.9999979248048
328,68,239722,1,0,0:0:0:0:
168,184,239865,5,0,0:0:0:0:
144,72,240008,1,0,0:0:0:0:
248,252,240151,2,0,L|242:96,1,155.833338088989
328,68,240579,2,0,P|376:88|328:76,1,155.833338088989
424,160,241008,6,0,P|460:104|456:32,1,135.99999584961
336,124,241436,2,0,B|324:168|340:212|340:212|332:264|332:264|344:340,1,192.666670341492
244,168,241865,1,2,0:0:0:0:
424,160,242008,1,0,0:0:0:0:
248,252,242151,2,0,P|240:300|244:328,1,67.9999979248048
339,313,242436,5,0,0:0:0:0:
432,132,242579,1,0,0:0:0:0:
424,264,242722,1,2,0:0:0:0:
328,68,242865,1,0,0:0:0:0:
244,168,243008,2,0,P|240:208|244:244,1,67.9999979248048
328,208,243294,1,0,0:0:0:0:
242,318,243436,1,0,0:0:0:0:
147,139,243579,6,0,L|143:63,2,67.9999979248048
260,336,244008,2,0,L|264:252,2,67.9999979248048
160,252,244436,6,0,L|16:248,1,135.99999584961
244,176,244865,2,0,P|248:132|244:100,1,67.9999979248048
147,139,245151,1,0,0:0:0:0:
328,68,245294,2,0,P|376:64|404:68,2,67.9999979248048
152,116,245722,1,0,0:0:0:0:
328,208,245865,1,0,0:0:0:0:
256,28,246008,1,0,0:0:0:0:
448,136,246151,6,0,P|452:188|444:232,1,67.9999979248048
388,264,246436,1,0,0:0:0:0:
245,108,246579,2,0,P|241:68|245:36,1,67.9999979248048
263,268,246865,1,0,0:0:0:0:
372,140,247008,5,2,0:0:0:0:
168,176,247151,1,0,0:0:0:0:
450,203,247294,1,0,0:0:0:0:
245,108,247436,2,0,P|241:68|245:36,2,67.9999979248048
92,320,247865,6,0,L|88:184,1,135.99999584961
204,96,248294,2,0,P|284:128|176:144,1,289.000005512238
383,261,249651,6,0,L|384:200,1,59.4999981842042
440,144,250008,2,0,P|444:112|440:80,1,45.3333333333333
304,296,250508,6,0,L|228:292,1,76.4999976654053
344,372,250865,2,0,P|316:380|284:380,1,56.6666666666667
88,184,251294,6,0,L|92:48,1,135.99999584961
172,84,251722,2,0,P|228:92|312:84,1,135.99999584961
440,144,252151,6,0,B|440:188|440:188|444:228|444:228|444:300,1,135.99999584961
337,290,252579,2,0,P|361:258|447:288,1,135.99999584961
308,192,253008,6,0,P|268:188|172:192,1,135.99999584961
306,85,253436,2,0,P|246:73|170:73,1,135.99999584961
120,264,253865,6,0,P|84:268|56:264,2,56.6666666666667
256,276,254294,2,0,P|241:309|224:331,2,56.6666666666667
443,279,254722,6,0,P|447:211|443:135,1,135.99999584961
360,76,255151,2,0,P|352:136|280:76,1,192.666670341492
171,72,255579,6,0,B|115:68|115:68|31:68,1,135.99999584961
52,152,256008,2,0,B|72:164|72:164|128:152|192:164,1,135.99999584961
280,218,256436,6,0,P|272:162|280:58,1,135.99999584961
352,136,256865,2,0,B|352:172|368:228|368:228|368:204|368:168,1,135.99999584961
432,48,257294,6,0,P|464:44|536:136,1,135.99999584961
348,40,257722,1,0,0:0:0:0:
456,124,257865,1,2,0:0:0:0:
275,82,258008,1,2,0:0:0:0:
368,228,258151,6,0,L|440:224,2,67.9999979248048
280,218,258579,1,0,0:0:0:0:
360,328,258722,1,2,0:0:0:0:
275,82,258865,1,2,0:0:0:0:
192,252,259008,5,0,0:0:0:0:
144,312,259865,6,0,B|148:236|148:236|136:152|136:152|152:80|140:0,1,311.666666666667
228,4,260722,2,0,B|239:81|223:153|223:153|235:237|235:237|231:313,1,311.666666666667
316,212,261579,6,0,B|308:152|308:152|316:108|312:56,1,135.99999584961
400,160,262008,2,0,P|464:176|440:88,1,192.666670341492
316,296,262436,6,0,P|312:336|316:368,2,67.9999979248048
400,160,262865,1,0,0:0:0:0:
228,200,263008,2,0,P|184:196|136:204,1,67.9999979248048
232,284,263294,5,2,0:0:0:0:
268,104,263437,1,0,0:0:0:0:
206,295,263579,1,0,0:0:0:0:
316,212,263722,1,0,0:0:0:0:
148,112,263865,2,0,P|144:56|152:20,1,67.9999979248048
336,228,264151,6,0,P|340:184|336:152,2,67.9999979248048
232,284,264579,1,0,0:0:0:0:
356,136,264722,2,0,P|404:132|440:136,1,67.9999979248048
228,200,265008,5,2,0:0:0:0:
420,220,265151,1,0,0:0:0:0:
208,184,265294,1,0,0:0:0:0:
288,80,265436,1,0,0:0:0:0:
436,240,265579,2,0,P|440:288|440:312,1,67.9999979248048
208,251,265865,6,0,P|204:207|208:179,1,67.9999979248048
337,160,266151,1,0,0:0:0:0:
312,308,266294,1,0,0:0:0:0:
172,204,266436,2,0,P|168:160|172:124,1,67.9999979248048
196,56,266722,5,2,0:0:0:0:
128,276,266865,1,0,0:0:0:0:
220,40,267008,1,0,0:0:0:0:
320,184,267151,1,0,0:0:0:0:
424,56,267294,2,0,P|472:52|504:56,1,67.9999979248048
263,58,267579,6,0,L|171:54,1,67.9999979248048
116,84,267865,1,0,0:0:0:0:
340,92,268008,6,0,P|344:52|340:24,2,56.6666666666667
392,192,268436,6,0,L|528:196,1,135.99999584961
454,336,268865,2,0,P|392:303|422:167,1,192.666670341492
223,290,269294,6,0,P|147:282|75:290,1,135.99999584961
256,193,269722,2,0,P|332:185|404:193,1,135.99999584961
200,53,270151,6,0,B|268:49|268:49|368:49,1,135.99999584961
156,132,270579,2,0,P|120:92|128:0,1,135.99999584961
68,176,271008,6,0,B|68:240|68:240|72:236|72:236|68:308,1,135.99999584961
124,360,271436,1,0,0:0:0:0:
196,324,271579,1,0,0:0:0:0:
272,352,271722,1,0,0:0:0:0:
375,306,271865,6,0,L|379:218,1,85
391,190,272151,2,0,P|427:182|459:182,1,56.6666666666667
316,120,272436,2,0,L|256:124,1,56.6666666666667
156,132,272722,2,0,P|152:172|156:212,2,56.6666666666667
200,52,273151,1,0,0:0:0:0:
264,212,273294,2,0,L|260:272,1,56.6666666666667
400,96,273579,6,0,P|448:92|492:96,1,67.9999979248048
446,181,273865,1,0,0:0:0:0:
316,120,274008,2,0,P|312:84|316:52,1,67.9999979248048
264,212,274294,1,0,0:0:0:0:
200,52,274436,6,0,L|124:56,2,67.9999979248048
152,188,274865,1,2,0:0:0:0:
315,52,275008,1,2,0:0:0:0:
260,268,275151,1,2,0:0:0:0:
446,181,275294,6,0,L|492:184,2,33.9999989624024
