osu file format v14

[General]
AudioFilename: audio.mp3
AudioLeadIn: 0
PreviewTime: 27579
Countdown: 0
SampleSet: Soft
StackLeniency: 0.7
Mode: 0
LetterboxInBreaks: 0
WidescreenStoryboard: 0

[Editor]
Bookmarks: 1008,28436,55865,69579,83294,111151,138151,165579,193008,206722,220436,248722,275294
DistanceSpacing: 1.5
BeatDivisor: 6
GridSize: 4
TimelineZoom: 1.4

[Metadata]
Title:Forward
TitleUnicode:Forward
Artist:Gohma
ArtistUnicode:Gohma
Creator:Evgerable
Version:Advanced Breakout
Source:
Tags:edm dance energetic freebie 1k low cs jumps sqeez23
BeatmapID:1544408
BeatmapSetID:731899

[Difficulty]
HPDrainRate:4.2
CircleSize:3.6
OverallDifficulty:8.6
ApproachRate:9.5
SliderMultiplier:1.7
SliderTickRate:1

[Events]
//Background and Video events
0,0,"BG.jpg",0,0
//Break Periods
2,56065,60922
2,62922,66065
2,138351,150065
2,193208,198065
2,200065,203208
//Storyboard Layer 0 (Background)
//Storyboard Layer 1 (Fail)
//Storyboard Layer 2 (Pass)
//Storyboard Layer 3 (Foreground)
//Storyboard Sound Samples

[TimingPoints]
-706,428.571428571429,4,2,1,100,1,0
1008,-133.333333333333,4,2,1,50,0,0
14722,-117.647058823529,4,2,1,60,0,0
26722,-105.263157894737,4,2,1,70,0,0
27579,-95.2380952380952,4,2,1,70,0,0
28008,-95.2380952380952,4,2,1,75,0,0
28151,-95.2380952380952,4,2,1,80,0,0
28294,-95.2380952380952,4,2,1,85,0,0
28436,-83.3333333333333,4,2,1,90,0,1
35008,-90.9090909090909,4,2,1,85,0,1
35294,-83.3333333333333,4,2,1,90,0,1
41294,-83.3333333333333,4,2,1,95,0,1
41579,-83.3333333333333,4,2,1,94,0,1
41865,-83.3333333333333,4,2,1,93,0,1
42151,-83.3333333333333,4,2,1,90,0,1
48722,-90.9090909090909,4,2,1,85,0,1
49008,-83.3333333333333,4,2,1,90,0,1
55008,-83.3333333333333,4,2,1,95,0,1
55294,-83.3333333333333,4,2,1,94,0,1
55579,-83.3333333333333,4,2,1,93,0,1
55865,-83.3333333333333,4,2,1,90,0,0
68294,-83.3333333333333,4,2,1,85,0,0
68436,-83.3333333333333,4,2,1,80,0,0
68579,-83.3333333333333,4,2,1,75,0,0
68722,-83.3333333333333,4,2,1,70,0,0
68865,-83.3333333333333,4,2,1,65,0,0
69008,-83.3333333333333,4,2,1,60,0,0
69151,-83.3333333333333,4,2,1,55,0,0
69294,-83.3333333333333,4,2,1,50,0,0
69436,-83.3333333333333,4,2,1,40,0,0
69579,-80,4,2,1,95,0,1
76151,-86.9565217391304,4,2,1,90,0,1
76436,-76.9230769230769,4,2,1,100,0,1
81579,-80,4,2,1,95,0,1
83294,-83.3333333333333,4,2,1,90,0,0
83722,-58.8235294117647,4,2,1,95,0,0
84151,-83.3333333333333,4,2,1,90,0,0
86722,-66.6666666666667,4,2,1,90,0,0
87151,-83.3333333333333,4,2,1,90,0,0
89294,-90.9090909090909,4,2,1,80,0,0
90151,-83.3333333333333,4,2,1,90,0,0
90579,-58.8235294117647,4,2,1,95,0,0
91008,-83.3333333333333,4,2,1,90,0,0
93579,-66.6666666666667,4,2,1,90,0,0
94579,-100,4,2,1,70,0,0
95294,-83.3333333333333,4,2,1,90,0,0
97436,-58.8235294117647,4,2,1,95,0,0
97865,-83.3333333333333,4,2,1,90,0,0
100436,-66.6666666666667,4,2,1,90,0,0
100865,-83.3333333333333,4,2,1,90,0,0
103008,-90.9090909090909,4,2,1,80,0,0
103865,-83.3333333333333,4,2,1,90,0,0
104294,-58.8235294117647,4,2,1,95,0,0
104722,-83.3333333333333,4,2,1,90,0,0
111151,-58.8235294117647,4,2,1,95,0,0
111579,-58.8235294117647,4,2,1,5,0,0
112508,-142.857142857143,4,2,1,10,0,0
112865,-125,4,2,1,40,0,0
113365,-111.111111111111,4,2,1,50,0,0
113722,-100,4,2,1,80,0,0
114151,-83.3333333333333,4,2,1,90,0,0
116722,-100,4,2,1,80,0,0
117579,-83.3333333333333,4,2,1,90,0,0
118008,-58.8235294117647,4,2,1,95,0,0
118436,-83.3333333333333,4,2,1,90,0,0
121865,-83.3333333333333,4,2,1,100,0,0
122722,-100,4,2,1,80,0,0
124436,-83.3333333333333,4,2,1,90,0,0
124865,-58.8235294117647,4,2,1,95,0,0
125294,-83.3333333333333,4,2,1,90,0,0
130722,-83.3333333333333,4,2,1,50,0,0
130865,-83.3333333333333,4,2,1,60,0,0
131008,-83.3333333333333,4,2,1,70,0,0
131151,-83.3333333333333,4,2,1,80,0,0
131294,-83.3333333333333,4,2,1,90,0,0
131722,-58.8235294117647,4,2,1,95,0,0
132151,-83.3333333333333,4,2,1,90,0,0
134722,-100,4,2,1,60,0,0
136436,-83.3333333333333,4,2,1,90,0,0
137722,-83.3333333333333,4,2,1,95,0,0
138151,-83.3333333333333,4,2,1,100,0,0
151865,-200,4,2,1,20,0,0
163865,-200,4,2,1,50,0,0
164294,-200,4,2,1,55,0,0
164436,-200,4,2,1,60,0,0
164579,-200,4,2,1,65,0,0
164722,-200,4,2,1,70,0,0
164865,-200,4,2,1,75,0,0
165008,-200,4,2,1,80,0,0
165151,-200,4,2,1,85,0,0
165294,-200,4,2,1,70,0,0
165579,-83.3333333333333,4,2,1,90,0,1
172151,-90.9090909090909,4,2,1,85,0,1
172437,-83.3333333333333,4,2,1,90,0,1
178436,-83.3333333333333,4,2,1,93,0,1
178722,-83.3333333333333,4,2,1,95,0,1
179008,-83.3333333333333,4,2,1,97,0,1
179294,-83.3333333333333,4,2,1,90,0,1
185865,-90.9090909090909,4,2,1,85,0,1
186151,-83.3333333333333,4,2,1,90,0,1
192151,-83.3333333333333,4,2,1,93,0,1
192436,-83.3333333333333,4,2,1,95,0,1
192722,-83.3333333333333,4,2,1,97,0,1
193008,-83.3333333333333,4,2,1,90,0,0
205436,-83.3333333333333,4,2,1,85,0,0
205579,-83.3333333333333,4,2,1,80,0,0
205722,-83.3333333333333,4,2,1,75,0,0
205865,-83.3333333333333,4,2,1,70,0,0
206008,-83.3333333333333,4,2,1,65,0,0
206151,-83.3333333333333,4,2,1,60,0,0
206294,-83.3333333333333,4,2,1,55,0,0
206436,-83.3333333333333,4,2,1,50,0,0
206579,-83.3333333333333,4,2,1,40,0,0
206722,-80,4,2,1,95,0,1
213294,-86.9565217391304,4,2,1,90,0,1
213579,-76.9230769230769,4,2,1,100,0,1
218722,-80,4,2,1,95,0,1
220436,-83.3333333333333,4,2,1,90,0,0
220865,-58.8235294117647,4,2,1,95,0,0
221294,-83.3333333333333,4,2,1,90,0,0
223865,-66.6666666666667,4,2,1,90,0,0
224294,-83.3333333333333,4,2,1,90,0,0
226436,-90.9090909090909,4,2,1,80,0,0
227294,-83.3333333333333,4,2,1,90,0,0
227722,-58.8235294117647,4,2,1,95,0,0
228151,-83.3333333333333,4,2,1,90,0,0
230722,-66.6666666666667,4,2,1,90,0,0
231722,-100,4,2,1,70,0,0
232436,-83.3333333333333,4,2,1,90,0,0
234579,-58.8235294117647,4,2,1,95,0,0
235008,-83.3333333333333,4,2,1,90,0,0
237579,-66.6666666666667,4,2,1,90,0,0
238008,-83.3333333333333,4,2,1,90,0,0
240151,-90.9090909090909,4,2,1,80,0,0
241008,-83.3333333333333,4,2,1,90,0,0
241436,-58.8235294117647,4,2,1,95,0,0
241865,-83.3333333333333,4,2,1,90,0,0
248294,-58.8235294117647,4,2,1,95,0,0
248722,-58.8235294117647,4,2,1,5,0,0
249651,-142.857142857143,4,2,1,10,0,0
250008,-125,4,2,1,40,0,0
250508,-111.111111111111,4,2,1,50,0,0
250865,-100,4,2,1,80,0,0
251294,-83.3333333333333,4,2,1,90,0,0
253865,-100,4,2,1,80,0,0
254722,-83.3333333333333,4,2,1,90,0,0
255151,-58.8235294117647,4,2,1,95,0,0
255579,-83.3333333333333,4,2,1,90,0,0
259008,-83.3333333333333,4,2,1,100,0,0
259865,-100,4,2,1,80,0,0
261579,-83.3333333333333,4,2,1,90,0,0
262008,-58.8235294117647,4,2,1,95,0,0
262436,-83.3333333333333,4,2,1,90,0,0
267865,-83.3333333333333,4,2,1,50,0,0
268008,-83.3333333333333,4,2,1,60,0,0
268151,-83.3333333333333,4,2,1,70,0,0
268294,-83.3333333333333,4,2,1,80,0,0
268436,-83.3333333333333,4,2,1,90,0,0
268865,-58.8235294117647,4,2,1,95,0,0
269294,-83.3333333333333,4,2,1,90,0,0
271865,-100,4,2,1,60,0,0
273579,-83.3333333333333,4,2,1,90,0,0
274436,-83.3333333333333,4,2,1,95,0,0
274865,-83.3333333333333,4,2,1,100,0,0
275294,-83.3333333333333,4,2,1,5,0,0
275436,-83.3333333333333,4,2,1,20,0,0

[Colours]
Combo1 : 255,255,255
Combo2 : 0,0,205
Combo3 : 117,234,0
Combo4 : 255,47,47
Combo5 : 128,255,255

[HitObjects]
304,132,1008,6,2,P|316:175|312:244,1,85.0000032424928
256,276,1579,2,0,P|252:320|256:372,2,85.0000032424928
143,230,2579,5,0,0:0:0:0:
111,202,2722,2,2,P|103:158|111:98,1,85.0000032424928
167,58,3294,1,0,0:0:0:0:
219,126,3579,2,0,P|275:134|331:126,1,85.0000032424928
404,56,4293,5,0,0:0:0:0:
428,92,4436,2,2,P|436:136|436:188,1,85.0000032424928
360,212,5008,1,0,0:0:0:0:
460,256,5294,1,0,0:0:0:0:
340,224,5579,1,0,0:0:0:0:
240,304,6008,5,0,0:0:0:0:
208,332,6151,2,2,P|160:340|120:332,1,85.0000032424928
76,264,6722,1,0,0:0:0:0:
12,320,7008,2,2,L|8:356,1,21.2500008106232
100,256,7294,1,0,0:0:0:0:
48,184,7579,1,0,0:0:0:0:
108,124,7865,6,2,P|156:116|200:128,1,85.0000032424928
268,156,8436,1,0,0:0:0:0:
272,240,8722,1,0,0:0:0:0:
336,104,9008,1,0,0:0:0:0:
452,160,9436,5,0,0:0:0:0:
432,196,9579,2,2,P|424:244|428:288,1,85.0000032424928
352,196,10151,1,0,0:0:0:0:
452,160,10436,2,0,P|460:112|456:68,1,85.0000032424928
352,4,11151,5,0,0:0:0:0:
320,32,11294,2,2,P|268:40|220:32,1,85.0000032424928
152,68,11865,1,0,0:0:0:0:
84,8,12151,1,0,0:0:0:0:
12,96,12436,1,0,0:0:0:0:
100,188,12865,5,0,0:0:0:0:
136,212,13008,2,2,P|188:220|232:216,1,85.0000032424928
296,180,13579,1,0,0:0:0:0:
384,256,13865,2,2,L|388:296,1,21.2500008106232
304,164,14151,1,0,0:0:0:0:
432,92,14436,1,0,0:0:0:0:
296,144,14722,6,2,L|196:144,1,96.3333351707459
140,84,15151,1,0,0:0:0:0:
80,140,15294,2,0,P|72:176|72:204,1,48.1666675853729
120,256,15579,2,0,P|128:288|128:316,2,48.1666675853729
48,292,16008,1,0,0:0:0:0:
204,336,16151,2,0,P|212:368|212:392,1,48.1666675853729
280,304,16436,6,2,P|284:264|280:228,1,72.2500013780594
268,192,16722,2,0,P|260:164|260:128,1,48.1666675853729
304,76,17008,2,0,P|344:72|364:76,1,48.1666675853729
404,136,17294,5,0,0:0:0:0:
460,56,17436,1,0,0:0:0:0:
404,160,17579,2,0,P|400:184|400:212,1,48.1666675853729
452,272,17865,2,0,P|488:280|512:276,1,48.1666675853729
400,340,18151,6,2,P|368:344|348:340,1,48.1666675853729
280,304,18436,1,0,0:0:0:0:
240,376,18579,1,0,0:0:0:0:
200,256,18722,2,0,P|196:216|200:188,1,48.1666675853729
258,145,19008,5,0,0:0:0:0:
120,172,19151,1,0,0:0:0:0:
240,132,19294,2,0,L|292:128,1,48.1666675853729
108,192,19579,2,0,L|48:188,1,48.1666675853729
4,104,19865,6,2,P|0:80|4:48,1,48.1666675853729
76,20,20151,1,0,0:0:0:0:
108,96,20294,1,0,0:0:0:0:
176,16,20436,2,0,P|212:12|244:16,1,48.1666675853729
352,76,20722,6,0,L|448:80,1,96.3333351707459
316,148,21151,1,0,0:0:0:0:
240,132,21294,2,0,P|236:104|240:76,1,48.1666675853729
396,168,21579,6,2,L|400:280,1,96.3333351707459
480,240,22008,1,0,0:0:0:0:
352,332,22151,2,0,P|324:336|300:332,1,48.1666675853729
432,340,22436,2,0,P|448:368|452:384,1,48.1666675853729
316,252,22722,1,0,0:0:0:0:
240,284,22865,2,0,P|208:288|184:280,1,48.1666675853729
112,268,23151,5,0,0:0:0:0:
32,288,23294,2,2,P|20:320|16:384,1,96.3333351707459
112,268,23722,1,0,0:0:0:0:
68,196,23865,2,0,P|64:168|68:140,1,48.1666675853729
124,88,24151,2,0,P|128:60|124:28,1,48.1666675853729
48,60,24436,1,0,0:0:0:0:
192,132,24579,2,0,P|200:160|200:184,1,48.1666675853729
144,240,24865,1,0,0:0:0:0:
276,120,25008,6,2,L|276:16,1,96.3333351707459
356,136,25436,1,0,0:0:0:0:
424,64,25579,2,0,P|428:40|428:12,1,48.1666675853729
364,160,25865,2,0,P|396:168|416:168,1,48.1666675853729
300,240,26151,6,0,L|252:244,1,48.1666675853729
120,168,26436,2,0,L|72:164,1,48.1666675853729
220,68,26722,6,0,P|256:64|292:72,1,53.8333318958283
124,88,27008,1,0,0:0:0:0:
242,191,27151,2,0,P|250:223|251:255,1,53.8333318958283
364,160,27436,6,2,L|400:164,1,26.9166659479141
168,232,27579,2,2,P|132:236|88:228,2,59.4999981842042
272,312,28008,1,0,0:0:0:0:
136,152,28151,1,0,0:0:0:0:
100,344,28294,1,0,0:0:0:0:
230,187,28436,6,2,B|238:135|234:87|234:87|226:131,1,135.99999584961
332,236,28865,1,0,0:0:0:0:
424,64,29008,1,0,0:0:0:0:
232,88,29151,1,0,0:0:0:0:
390,162,29294,2,0,P|434:166|466:162,1,67.9999979248048
344,88,29579,1,0,0:0:0:0:
230,187,29722,2,0,P|222:227|226:267,1,67.9999979248048
332,236,30008,1,0,0:0:0:0:
156,320,30151,6,2,L|80:324,1,67.9999979248048
240,336,30436,1,0,0:0:0:0:
44,144,30579,1,0,0:0:0:0:
88,323,30722,1,0,0:0:0:0:
156,72,30865,1,0,0:0:0:0:
266,244,31008,6,0,P|273:287|269:323,1,67.9999979248048
144,204,31294,1,0,0:0:0:0:
323,164,31436,2,0,P|367:160|415:168,1,67.9999979248048
408,248,31722,1,0,0:0:0:0:
504,96,31865,6,2,L|508:4,1,67.9999979248048
412,32,32151,1,0,0:0:0:0:
492,220,32294,1,0,0:0:0:0:
252,72,32436,1,0,0:0:0:0:
424,16,32579,1,0,0:0:0:0:
323,164,32722,2,0,P|315:208|315:244,1,67.9999979248048
188,280,33008,6,0,L|104:284,1,67.9999979248048
404,171,33294,2,0,L|500:177,1,67.9999979248048
220,40,33579,6,2,P|216:80|224:124,1,67.9999979248048
323,164,33865,1,0,0:0:0:0:
392,252,34008,2,0,P|400:292|400:332,1,67.9999979248048
312,340,34294,1,0,0:0:0:0:
404,171,34436,2,0,P|448:167|484:171,1,67.9999979248048
268,268,34722,1,0,0:0:0:0:
368,100,34865,1,0,0:0:0:0:
260,288,35008,2,0,P|216:292|160:288,1,93.5000028533936
100,232,35294,6,2,B|100:176|100:176|104:124|104:124|100:76,1,135.99999584961
192,184,35722,1,0,0:0:0:0:
140,24,35865,1,0,0:0:0:0:
180,204,36008,1,0,0:0:0:0:
296,72,36151,2,0,P|300:32|296:-4,1,67.9999979248048
323,164,36436,1,0,0:0:0:0:
432,68,36579,2,0,P|436:16|428:-16,1,67.9999979248048
340,144,36865,1,0,0:0:0:0:
392,252,37008,6,2,L|396:340,1,67.9999979248048
323,164,37294,1,0,0:0:0:0:
508,180,37436,1,0,0:0:0:0:
268,268,37579,1,0,0:0:0:0:
368,132,37722,1,0,0:0:0:0:
260,288,37865,6,0,P|256:320|260:364,1,67.9999979248048
166,289,38151,1,0,0:0:0:0:
255,167,38294,2,0,P|293:161|335:167,1,67.9999979248048
258,355,38579,1,0,0:0:0:0:
100,232,38722,2,2,L|96:144,1,67.9999979248048
152,312,39008,5,0,0:0:0:0:
192,80,39151,1,0,0:0:0:0:
208,228,39294,5,0,0:0:0:0:
128,4,39436,1,0,0:0:0:0:
272,144,39579,6,0,P|308:148|352:140,1,67.9999979248048
432,68,39865,6,0,L|436:-4,1,67.9999979248048
392,252,40151,2,0,L|396:344,1,67.9999979248048
340,56,40436,6,2,P|296:52|264:56,1,67.9999979248048
192,80,40722,1,0,0:0:0:0:
96,164,40865,2,0,P|56:168|24:164,1,67.9999979248048
132,276,41151,1,0,0:0:0:0:
268,122,41294,6,2,L|272:46,1,67.9999979248048
204,240,41579,2,2,L|204:160,1,67.9999979248048
136,344,41865,2,2,L|132:268,1,67.9999979248048
96,164,42151,6,0,B|104:116|96:64|96:64|108:104,1,135.99999584961
204,176,42579,1,0,0:0:0:0:
268,122,42722,1,0,0:0:0:0:
256,304,42865,1,0,0:0:0:0:
352,140,43008,2,2,P|356:100|352:68,1,67.9999979248048
432,168,43294,1,0,0:0:0:0:
276,40,43436,1,0,0:0:0:0:
432,68,43579,1,0,0:0:0:0:
256,24,43722,1,0,0:0:0:0:
448,188,43865,6,2,L|452:276,1,67.9999979248048
360,224,44151,1,0,0:0:0:0:
432,68,44294,2,0,P|472:64|500:68,1,67.9999979248048
348,240,44579,1,0,0:0:0:0:
268,122,44722,2,0,P|264:78|268:50,1,67.9999979248048
360,224,45008,1,0,0:0:0:0:
204,176,45151,1,0,0:0:0:0:
464,152,45294,1,0,0:0:0:0:
336,320,45436,1,0,0:0:0:0:
184,152,45579,6,2,P|180:116|184:80,1,67.9999979248048
228,16,45865,1,0,0:0:0:0:
64,112,46008,1,0,0:0:0:0:
216,0,46151,1,0,0:0:0:0:
128,240,46294,1,0,0:0:0:0:
267,189,46436,2,0,P|271:153|267:117,1,67.9999979248048
112,264,46722,2,0,P|108:312|112:344,1,67.9999979248048
304,124,47008,2,0,P|308:88|304:52,1,67.9999979248048
67,44,47294,6,2,L|63:120,1,67.9999979248048
192,204,47579,1,0,0:0:0:0:
232,280,47722,2,0,L|236:360,1,67.9999979248048
184,180,48008,1,0,0:0:0:0:
336,320,48151,2,0,P|380:324|424:316,1,67.9999979248048
184,152,48436,1,0,0:0:0:0:
235,347,48579,1,0,0:0:0:0:
328,244,48722,2,0,P|376:236|428:244,1,93.5000028533936
496,272,49008,6,2,B|504:372|504:372|488:312,1,135.99999584961
420,241,49436,1,0,0:0:0:0:
464,44,49579,1,0,0:0:0:0:
488,184,49722,1,0,0:0:0:0:
372,59,49865,2,0,P|329:54|297:58,1,67.9999979248048
228,136,50151,1,0,0:0:0:0:
144,68,50294,2,0,L|140:-8,1,67.9999979248048
228,24,50579,1,0,0:0:0:0:
131,172,50722,6,2,L|127:252,1,67.9999979248048
232,280,51008,1,0,0:0:0:0:
48,204,51151,1,0,0:0:0:0:
228,136,51294,1,0,0:0:0:0:
16,312,51436,1,0,0:0:0:0:
308,240,51579,2,0,P|316:284|312:320,1,67.9999979248048
232,280,51865,5,0,0:0:0:0:
84,132,52008,2,0,P|48:128|8:132,1,67.9999979248048
96,316,52294,1,0,0:0:0:0:
225,203,52436,2,2,P|229:175|225:119,1,67.9999979248048
220,304,52722,5,0,0:0:0:0:
328,80,52865,1,0,0:0:0:0:
328,332,53008,5,0,0:0:0:0:
304,56,53151,1,0,0:0:0:0:
420,183,53294,6,0,P|464:187|492:183,1,67.9999979248048
225,203,53579,6,0,L|221:127,1,67.9999979248048
408,332,53865,2,0,L|412:256,1,67.9999979248048
234,355,54151,6,2,P|190:359|146:351,1,67.9999979248048
150,255,54436,1,0,0:0:0:0:
314,307,54579,2,0,P|322:335|322:379,1,67.9999979248048
142,279,54865,1,0,0:0:0:0:
81,198,55008,6,2,P|77:158|85:126,1,67.9999979248048
188,92,55294,6,2,P|197:53|216:25,1,67.9999979248048
320,52,55579,6,2,P|342:18|369:-1,1,67.9999979248048
225,203,55865,5,0,0:0:0:0:
256,192,62722,5,0,0:0:0:0:
256,192,67865,12,0,69436,0:0:0:0:
416,105,69579,6,0,L|420:256,1,141.666666666667
320,328,70008,1,2,0:0:0:0:
312,64,70151,1,2,0:0:0:0:
419,246,70294,1,2,0:0:0:0:
216,124,70436,6,0,P|172:120|120:132,2,70.8333333333333
319,327,70865,5,2,0:0:0:0:
312,64,71008,1,2,0:0:0:0:
224,260,71151,1,2,0:0:0:0:
416,105,71294,2,0,L|508:104,1,70.8333333333333
308,244,71579,5,0,0:0:0:0:
216,124,71722,2,0,L|212:44,2,70.8333333333333
321,257,72151,2,0,L|319:357,2,70.8333333333333
340,144,72579,1,2,0:0:0:0:
160,196,72722,1,2,0:0:0:0:
419,246,72865,1,2,0:0:0:0:
136,120,73008,2,0,L|47:118,1,70.8333333333333
224,260,73294,5,2,0:0:0:0:
372,64,73436,1,2,0:0:0:0:
172,32,73579,1,2,0:0:0:0:
319,327,73722,1,0,0:0:0:0:
292,48,73865,1,0,0:0:0:0:
419,240,74008,1,0,0:0:0:0:
136,120,74151,2,0,L|47:118,1,70.8333333333333
364,264,74436,2,0,L|456:260,1,70.8333333333333
152,208,74722,6,2,P|140:252|140:308,1,70.8333333333333
319,327,75008,1,0,0:0:0:0:
205,125,75151,2,0,P|153:117|118:124,1,70.8333333333333,2|0,0:0|0:0,0:0:0:0:
296,312,75436,1,0,0:0:0:0:
384,164,75579,2,2,P|388:116|376:72,1,70.8333333333333
292,48,75865,1,0,0:0:0:0:
476,24,76008,1,0,0:0:0:0:
302,128,76151,2,0,L|198:124,1,97.7500018644333
152,208,76436,5,2,0:0:0:0:
232,44,76579,1,0,0:0:0:0:
192,340,76722,1,0,0:0:0:0:
383,93,76865,5,2,0:0:0:0:
356,332,77008,1,0,0:0:0:0:
369,71,77151,1,0,0:0:0:0:
120,132,77294,5,2,0:0:0:0:
419,240,77436,1,0,0:0:0:0:
96,148,77579,1,0,0:0:0:0:
340,60,77722,6,2,L|424:64,1,73.6666632944744
210,128,78008,1,0,0:0:0:0:
296,312,78151,5,2,0:0:0:0:
316,40,78294,1,0,0:0:0:0:
319,327,78436,1,0,0:0:0:0:
144,122,78579,5,2,0:0:0:0:
464,184,78722,1,0,0:0:0:0:
132,100,78865,1,0,0:0:0:0:
316,40,79008,5,2,0:0:0:0:
216,324,79151,1,0,0:0:0:0:
320,64,79294,1,0,0:0:0:0:
476,208,79436,6,2,P|480:256|476:304,1,73.6666632944744
210,128,79722,1,0,0:0:0:0:
340,60,79865,2,2,L|416:64,1,73.6666632944744
413,63,80079,1,0,0:0:0:0:
413,63,80151,1,0,0:0:0:0:
200,104,80294,5,2,0:0:0:0:
439,208,80436,2,0,L|489:208,2,36.8333316472372
240,284,80722,5,2,0:0:0:0:
176,88,80865,1,0,0:0:0:0:
176,88,80936,1,0,0:0:0:0:
176,88,81008,1,0,0:0:0:0:
252,304,81151,5,2,0:0:0:0:
340,96,81294,2,0,L|340:42,2,36.8333316472372
476,208,81579,6,0,P|480:256|476:288,1,70.8333333333333
319,327,81865,1,0,0:0:0:0:
424,132,82008,2,0,P|428:96|424:60,1,70.8333333333333
224,204,82294,1,0,0:0:0:0:
477,278,82436,1,0,0:0:0:0:
340,96,82579,1,0,0:0:0:0:
319,327,82722,1,0,0:0:0:0:
328,120,82865,5,2,0:0:0:0:
240,348,83008,1,2,0:0:0:0:
188,48,83151,1,2,0:0:0:0:
340,211,83294,6,0,L|484:207,1,135.99999584961
252,304,83722,2,0,B|196:288|140:304|140:304|136:296|136:296|28:300,1,192.666670341492
224,204,84151,1,2,0:0:0:0:
360,320,84294,1,0,0:0:0:0:
192,184,84436,2,0,P|187:147|195:95,1,67.9999979248048
136,300,84722,5,0,0:0:0:0:
100,120,84865,1,0,0:0:0:0:
40,316,85008,1,2,0:0:0:0:
276,148,85151,1,0,0:0:0:0:
84,96,85294,2,0,P|76:56|80:24,1,67.9999979248048
292,132,85579,1,0,0:0:0:0:
36,216,85722,1,0,0:0:0:0:
213,87,85865,6,0,L|165:87,1,33.9999989624024
356,232,86008,2,0,L|408:232,1,33.9999989624024
189,116,86151,2,0,L|153:120,1,33.9999989624024
340,96,86294,6,0,L|340:56,1,33.9999989624024
252,270,86436,2,0,L|252:314,1,33.9999989624024
360,72,86579,2,0,L|356:20,1,33.9999989624024
472,204,86722,6,0,B|472:252|472:252|468:232|468:232|492:288|468:356,1,170.000006484986
432,128,87151,2,0,P|464:120|484:116,1,33.9999989624024
352,288,87294,1,0,0:0:0:0:
216,196,87436,1,0,0:0:0:0:
340,96,87579,1,2,0:0:0:0:
155,119,87722,1,0,0:0:0:0:
432,128,87865,2,0,P|436:88|428:52,1,67.9999979248048
216,196,88151,5,0,0:0:0:0:
156,8,88294,1,0,0:0:0:0:
192,216,88436,2,0,P|188:264|192:308,2,67.9999979248048
216,196,89008,5,0,0:0:0:0:
155,119,89151,1,0,0:0:0:0:
352,288,89294,2,0,L|508:292,1,155.833338088989
296,352,89722,2,0,L|136:356,1,155.833338088989
428,195,90151,6,0,P|436:131|428:47,1,135.99999584961
328,176,90579,2,0,P|266:230|168:168,1,192.666670341492
248,148,91008,1,2,0:0:0:0:
300,320,91151,1,0,0:0:0:0:
428,195,91294,2,0,P|480:191|520:199,1,67.9999979248048
356,100,91579,5,0,0:0:0:0:
272,40,91722,1,0,0:0:0:0:
175,187,91865,1,2,0:0:0:0:
428,195,92008,1,0,0:0:0:0:
192,76,92151,2,0,P|144:72|112:76,1,67.9999979248048
32,256,92436,1,0,0:0:0:0:
44,40,92579,1,0,0:0:0:0:
141,187,92722,6,0,L|193:187,1,33.9999989624024
248,148,92865,2,0,L|288:144,1,33.9999989624024
356,100,93008,2,0,L|396:92,1,33.9999989624024
312,224,93151,6,0,L|308:272,1,33.9999989624024
280,60,93294,2,0,L|276:12,1,33.9999989624024
175,187,93436,2,0,L|171:231,1,33.9999989624024
336,344,93579,6,0,B|376:344|376:344|392:340|392:340|424:340|424:340|440:344|440:344|512:344,1,170.000006484986
356,100,94008,2,0,B|348:144|348:144|348:224|348:224|360:172,1,170.000006484986
452,60,94436,1,2,0:0:0:0:
280,60,94579,6,0,L|248:60,1,28.3333333333333
452,180,94722,2,0,L|492:180,1,28.3333333333333
436,36,94865,2,0,L|396:32,1,28.3333333333333
232,144,95008,2,0,L|236:176,1,28.3333333333333
168,64,95151,2,0,L|168:24,1,28.3333333333333
312,224,95294,6,2,P|320:272|320:324,1,67.9999979248048
240,340,95579,1,0,0:0:0:0:
412,232,95722,2,0,P|456:228|488:232,1,67.9999979248048
244,320,96008,1,0,0:0:0:0:
141,187,96151,5,2,0:0:0:0:
112,312,96294,1,2,0:0:0:0:
56,116,96436,1,2,0:0:0:0:
312,224,96579,1,0,0:0:0:0:
32,256,96722,1,0,0:0:0:0:
168,64,96865,1,0,0:0:0:0:
280,60,97008,6,0,L|424:64,1,135.99999584961
196,191,97436,2,0,B|132:199|72:191|72:191|116:191|160:183,1,192.666670341492
280,200,97865,1,2,0:0:0:0:
168,64,98008,1,0,0:0:0:0:
356,156,98151,2,0,P|368:208|364:236,1,67.9999979248048
479,230,98436,5,0,0:0:0:0:
280,200,98579,1,0,0:0:0:0:
438,139,98722,1,2,0:0:0:0:
344,308,98865,1,0,0:0:0:0:
452,112,99008,2,0,P|456:72|448:32,1,67.9999979248048
366,222,99294,1,0,0:0:0:0:
280,60,99436,1,0,0:0:0:0:
172,192,99579,6,0,L|136:192,1,33.9999989624024
280,200,99722,2,0,L|332:204,1,33.9999989624024
104,112,99865,2,0,L|52:112,1,33.9999989624024
220,292,100008,6,0,L|224:244,1,33.9999989624024
192,60,100151,2,0,L|188:104,1,33.9999989624024
368,76,100294,2,0,L|364:36,1,33.9999989624024
435,192,100436,6,0,B|387:200|345:191|345:191|349:199|349:199|305:187|269:203,1,170.000006484986
480,260,100865,2,0,P|502:238|510:218,1,33.9999989624024
312,280,101008,1,0,0:0:0:0:
371,112,101151,1,0,0:0:0:0:
304,304,101294,1,2,0:0:0:0:
216,116,101437,1,0,0:0:0:0:
320,332,101580,2,0,P|364:336|408:324,1,67.9999979248048
279,199,101865,5,0,0:0:0:0:
224,328,102008,1,0,0:0:0:0:
80,192,102151,2,0,P|76:152|84:108,2,67.9999979248048
104,212,102722,5,0,0:0:0:0:
4,92,102865,1,0,0:0:0:0:
216,116,103008,2,0,L|372:112,1,155.833338088989
436,64,103436,2,0,P|468:100|428:68,1,155.833338088989
396,192,103865,6,0,L|400:352,1,135.99999584961
279,199,104294,2,0,B|275:143|283:103|283:103|279:-9,1,192.666670341492
396,192,104722,1,2,0:0:0:0:
240,96,104865,1,0,0:0:0:0:
436,64,105008,2,0,P|452:28|456:-12,1,67.9999979248048
476,144,105294,5,0,0:0:0:0:
279,199,105436,1,0,0:0:0:0:
360,48,105579,1,2,0:0:0:0:
316,304,105722,1,0,0:0:0:0:
160,132,105865,2,0,P|156:84|164:44,1,67.9999979248048
240,96,106151,1,0,0:0:0:0:
64,28,106294,1,0,0:0:0:0:
136,212,106436,6,0,L|140:272,1,33.9999989624024
4,126,106579,2,0,L|4:86,1,33.9999989624024
64,288,106722,2,0,L|28:288,1,33.9999989624024
160,132,106865,6,0,L|208:132,1,33.9999989624024
264,72,107008,2,0,L|304:68,1,33.9999989624024
52,204,107151,2,0,L|0:204,1,33.9999989624024
180,276,107294,6,0,L|344:276,1,135.99999584961
100,296,107722,2,0,L|96:332,1,33.9999989624024
197,165,107865,2,0,L|193:121,1,33.9999989624024
316,276,108008,6,0,L|376:280,1,33.9999989624024
328,156,108151,2,0,L|364:172,1,33.9999989624024
416,72,108294,2,0,L|444:104,1,33.9999989624024
236,244,108436,6,0,L|192:248,1,33.9999989624024
424,228,108579,2,0,L|472:232,1,33.9999989624024
193,131,108722,2,0,L|189:83,1,33.9999989624024
349,278,108865,2,0,L|345:318,1,33.9999989624024
332,56,109008,6,2,P|280:52|244:56,1,67.9999979248048
197,165,109294,1,0,0:0:0:0:
48,76,109436,2,0,P|44:28|48:0,1,67.9999979248048
128,40,109722,1,0,0:0:0:0:
64,236,109865,5,2,0:0:0:0:
16,168,110008,1,2,0:0:0:0:
202,247,110151,1,2,0:0:0:0:
288,140,110294,1,0,0:0:0:0:
48,76,110436,1,0,0:0:0:0:
96,329,110579,1,0,0:0:0:0:
304,120,110722,6,0,L|300:-16,1,135.99999584961
388,120,111151,2,0,P|476:116|376:48,1,289.000005512238
356,188,112508,6,0,L|356:256,1,59.4999981842042
308,116,112865,2,0,P|344:104|372:104,1,45.3333333333333
276,296,113365,6,0,L|188:300,1,76.4999976654053
140,360,113722,2,0,P|120:328|116:304,1,56.6666666666667
277,156,114151,6,0,P|197:164|113:140,1,135.99999584961
305,76,114579,2,0,P|349:112|353:192,1,135.99999584961
224,40,115008,6,0,L|84:32,1,135.99999584961
305,76,115436,2,0,P|385:72|465:80,1,135.99999584961
347,322,115865,6,0,L|355:170,1,135.99999584961
440,76,116294,2,0,P|452:132|444:236,1,135.99999584961
347,322,116722,6,0,L|347:366,1,28.3333333333333
271,221,116865,2,0,L|235:205,1,28.3333333333333
423,221,117008,2,0,L|459:205,1,28.3333333333333
256,312,117151,6,0,L|224:344,1,28.3333333333333
160,300,117294,2,0,L|120:300,1,28.3333333333333
88,232,117436,2,0,L|56:200,1,28.3333333333333
48,132,117579,6,0,P|52:64|44:-8,1,135.99999584961
136,24,118008,2,0,B|140:108|132:144|132:144|144:128|148:72,1,192.666670341492
252,44,118436,6,0,L|388:44,1,135.99999584961
268,148,118865,2,0,P|180:140|108:148,1,135.99999584961
352,264,119294,6,0,B|348:216|348:216|352:184|352:184|344:96,1,135.99999584961
436,268,119722,2,0,P|420:312|336:344,1,135.99999584961
160,300,120151,6,0,B|128:284|128:284|128:292|128:292|8:296,1,135.99999584961
240,304,120579,2,0,L|292:304,1,33.9999989624024
184,208,120722,1,2,0:0:0:0:
196,376,120865,1,2,0:0:0:0:
313,126,121008,6,0,L|365:130,1,33.9999989624024
168,56,121151,2,0,L|120:52,1,33.9999989624024
348,208,121294,2,0,L|396:204,1,33.9999989624024
112,140,121436,2,0,L|76:140,1,33.9999989624024
316,56,121579,1,2,0:0:0:0:
184,208,121722,1,2,0:0:0:0:
408,56,121865,5,0,0:0:0:0:
344,208,122722,6,0,B|292:216|228:204|228:204|164:232|164:232|124:204|40:216,1,311.666666666667
44,132,123579,2,0,B|96:124|160:136|160:136|224:108|224:108|264:136|348:124,1,311.666666666667
420,172,124436,6,0,L|424:312,1,135.99999584961
475,57,124865,2,0,P|459:117|339:117,1,192.666670341492
500,192,125294,6,2,L|504:248,1,33.9999989624024
396,64,125436,1,0,0:0:0:0:
308,256,125579,1,0,0:0:0:0:
512,172,125722,1,0,0:0:0:0:
224,108,125865,2,0,P|172:104|136:108,1,67.9999979248048
224,296,126151,6,2,P|220:348|224:380,2,67.9999979248048
96,164,126579,1,0,0:0:0:0:
268,217,126722,2,0,L|368:221,1,67.9999979248048
144,276,127008,6,2,L|96:276,1,33.9999989624024
348,328,127151,1,0,0:0:0:0:
184,188,127294,1,0,0:0:0:0:
344,123,127436,1,0,0:0:0:0:
110,276,127579,2,0,P|100:324|100:352,1,67.9999979248048
336,304,127865,6,2,L|380:304,1,33.9999989624024
168,48,128008,1,0,0:0:0:0:
224,296,128151,1,0,0:0:0:0:
296,56,128294,1,0,0:0:0:0:
96,164,128436,2,0,P|56:168|20:164,1,67.9999979248048
268,217,128722,6,2,L|316:217,1,33.9999989624024
168,48,128865,1,0,0:0:0:0:
224,296,129008,1,0,0:0:0:0:
296,56,129151,1,0,0:0:0:0:
440,192,129294,2,0,P|448:240|448:260,1,67.9999979248048
408,60,129579,6,2,L|448:52,1,33.9999989624024
228,244,129722,1,0,0:0:0:0:
296,56,129865,1,0,0:0:0:0:
440,192,130008,1,0,0:0:0:0:
224,108,130151,2,0,P|176:104|136:108,1,67.9999979248048
268,217,130436,6,0,L|344:217,1,67.9999979248048
184,192,130722,1,0,0:0:0:0:
156,280,130865,5,0,0:0:0:0:
213,333,131008,1,0,0:0:0:0:
290,313,131151,1,0,0:0:0:0:
336,217,131294,6,0,L|344:80,1,135.99999584961
416,240,131722,2,0,P|340:300|254:216,1,192.666670341492
156,105,132151,6,0,P|68:97|8:105,1,135.99999584961
152,16,132579,2,0,L|312:8,1,135.99999584961
384,156,133008,6,0,P|392:80|384:12,1,135.99999584961
280,234,133436,2,0,P|336:242|424:238,1,135.99999584961
291,97,133865,6,0,L|146:105,1,135.99999584961
116,172,134294,1,0,0:0:0:0:
144,248,134436,1,0,0:0:0:0:
116,324,134579,1,0,0:0:0:0:
200,312,134722,6,0,P|252:308|308:320,1,85
316,300,135008,2,0,P|312:340|316:372,1,56.6666666666667
415,239,135294,2,0,P|419:199|415:167,1,56.6666666666667
347,98,135579,2,0,P|312:95|280:99,2,56.6666666666667
432,52,136008,1,0,0:0:0:0:
282,177,136151,2,0,P|278:217|282:249,1,56.6666666666667
448,28,136436,6,0,L|360:24,1,67.9999979248048
248,24,136722,1,0,0:0:0:0:
432,156,136865,2,0,L|528:152,1,67.9999979248048
282,177,137151,1,0,0:0:0:0:
155,104,137294,5,2,0:0:0:0:
248,308,137436,1,2,0:0:0:0:
312,44,137579,1,2,0:0:0:0:
228,328,137722,1,2,0:0:0:0:
136,84,137865,1,2,0:0:0:0:
448,180,138008,1,2,0:0:0:0:
56,208,138151,5,0,0:0:0:0:
290,96,151865,6,0,L|348:100,1,56.6666666666667
290,96,153008,6,0,L|348:100,1,56.6666666666667
416,56,153579,2,0,L|472:52,1,56.6666666666667
279,233,155294,6,0,L|275:297,1,56.6666666666667
158,160,156436,6,0,L|154:100,1,56.6666666666667
92,44,157008,2,0,L|36:40,2,56.6666666666667
154,103,157865,2,0,L|158:159,1,56.6666666666667
116,232,158436,1,0,0:0:0:0:
192,332,158722,1,0,0:0:0:0:
348,184,159865,6,0,L|408:184,1,56.6666666666667
346,99,160436,2,0,L|406:99,1,56.6666666666667
244,56,162151,6,0,L|240:112,1,56.6666666666667
244,56,163294,6,0,L|240:112,1,56.6666666666667
256,192,163865,12,0,165294,0:0:0:0:
188,264,165579,6,2,L|192:348,1,67.9999979248048
239,112,165865,2,0,L|319:116,1,67.9999979248048
116,232,166151,2,0,L|24:228,1,67.9999979248048
239,112,166436,6,0,P|247:148|247:184,1,67.9999979248048
120,104,166722,1,0,0:0:0:0:
280,32,166865,2,0,P|316:28|348:32,1,67.9999979248048
348,184,167151,1,0,0:0:0:0:
476,48,167294,6,2,P|484:84|484:120,1,67.9999979248048
356,212,167579,2,0,L|268:216,1,67.9999979248048
432,312,167865,2,0,L|508:316,1,67.9999979248048
268,196,168151,2,0,P|264:148|268:116,1,67.9999979248048
348,300,168436,1,0,0:0:0:0:
184,216,168579,2,0,P|144:212|108:216,1,67.9999979248048
76,308,168865,1,0,0:0:0:0:
28,136,169008,6,2,L|28:60,1,67.9999979248048
198,127,169294,2,0,P|238:131|286:123,1,67.9999979248048
414,32,169579,2,0,P|374:28|326:36,1,67.9999979248048
187,148,169865,6,2,L|183:228,1,67.9999979248048
108,48,170151,2,0,L|112:124,1,67.9999979248048
269,60,170436,2,0,L|265:136,1,67.9999979248048
151,295,170722,6,2,P|95:287|67:291,1,67.9999979248048
268,212,171008,2,0,P|324:204|352:208,1,67.9999979248048
118,182,171294,2,0,P|110:126|114:97,1,67.9999979248048
312,296,171579,6,2,L|304:380,1,67.9999979248048
416,184,171865,2,0,L|408:116,1,67.9999979248048
396,344,172151,2,0,L|472:336,1,62.3333352355958
270,149,172436,6,2,P|266:189|270:229,1,62.3333352355958
408,116,172722,2,0,L|480:120,1,67.9999979248048
220,80,173008,2,0,P|216:40|220:0,1,67.9999979248048
118,182,173294,6,2,L|42:178,1,67.9999979248048
184,232,173579,1,0,0:0:0:0:
128,96,173722,2,0,L|124:12,1,67.9999979248048
208,216,174008,1,0,0:0:0:0:
80,304,174151,6,2,L|0:308,1,67.9999979248048
184,232,174436,2,0,P|196:276|196:316,1,67.9999979248048
254,144,174722,2,0,P|266:188|266:228,1,67.9999979248048
50,110,175008,6,2,L|50:186,1,67.9999979248048
208,72,175294,1,0,0:0:0:0:
332,120,175436,2,0,P|372:124|404:120,1,67.9999979248048
267,210,175722,1,0,0:0:0:0:
364,40,175865,2,2,P|368:-4|364:-32,1,67.9999979248048
432,216,176151,6,0,L|512:216,1,67.9999979248048
265,298,176436,2,0,L|193:298,1,67.9999979248048
367,107,176722,6,2,L|363:31,1,67.9999979248048
267,210,177008,2,0,L|271:130,1,67.9999979248048
364,328,177294,2,0,L|360:248,1,67.9999979248048
208,72,177579,6,2,P|156:68|124:72,1,67.9999979248048
432,216,177865,2,0,P|440:172|440:144,1,67.9999979248048
205,230,178151,2,0,P|197:274|197:302,1,67.9999979248048
367,107,178436,5,2,0:0:0:0:
284,360,178722,5,0,0:0:0:0:
208,72,179008,5,0,0:0:0:0:
444,300,179294,6,0,L|448:396,1,67.9999979248048
267,210,179579,1,2,0:0:0:0:
452,56,179722,1,2,0:0:0:0:
364,328,179865,1,2,0:0:0:0:
348,92,180008,1,2,0:0:0:0:
444,200,180151,2,0,P|492:204|532:196,2,67.9999979248048
267,210,180579,1,0,0:0:0:0:
316,84,180722,1,0,0:0:0:0:
364,328,180865,1,0,0:0:0:0:
136,140,181008,5,2,0:0:0:0:
282,84,181151,2,2,L|326:84,1,33.9999989624024
208,32,181294,1,2,0:0:0:0:
267,210,181436,1,2,0:0:0:0:
404,120,181579,2,0,P|408:76|404:48,1,67.9999979248048
176,216,181865,2,0,L|84:212,2,67.9999979248048
267,210,182294,1,0,0:0:0:0:
168,336,182436,1,0,0:0:0:0:
208,112,182579,1,0,0:0:0:0:
380,248,182722,6,0,P|388:292|388:320,1,67.9999979248048
404,120,183008,1,2,0:0:0:0:
304,344,183151,1,2,0:0:0:0:
336,164,183294,1,2,0:0:0:0:
464,236,183436,1,2,0:0:0:0:
275,35,183579,6,0,L|191:31,1,67.9999979248048
136,140,183865,1,2,0:0:0:0:
332,88,184008,1,2,0:0:0:0:
88,68,184151,1,2,0:0:0:0:
224,280,184294,1,2,0:0:0:0:
404,120,184436,6,0,L|408:48,2,67.9999979248048
288,328,184865,1,0,0:0:0:0:
256,116,185008,1,0,0:0:0:0:
304,344,185151,1,0,0:0:0:0:
136,140,185294,6,0,L|52:136,1,67.9999979248048
340,260,185579,2,0,L|420:256,1,67.9999979248048
148,352,185865,2,0,L|64:348,1,62.3333352355958
332,152,186151,6,0,P|336:104|332:80,1,67.9999979248048
407,256,186436,2,0,P|419:209|419:185,1,67.9999979248048
484,344,186722,2,0,P|504:300|508:276,1,67.9999979248048
268,208,187008,6,2,L|264:276,1,67.9999979248048
332,152,187294,1,0,0:0:0:0:
136,140,187436,1,0,0:0:0:0:
296,56,187579,2,0,P|340:52|384:60,1,67.9999979248048
116,152,187865,6,2,L|112:72,1,67.9999979248048
331,219,188151,2,0,P|335:175|331:151,1,67.9999979248048
112,240,188436,2,0,P|156:244|179:239,1,67.9999979248048
296,56,188722,2,2,P|262:51|228:55,1,67.9999979248048
419,189,189008,2,4,L|503:193,1,67.9999979248048
256,256,189294,2,0,P|252:216|256:176,1,67.9999979248048
452,32,189579,6,2,L|448:112,1,67.9999979248048
336,176,189865,2,0,L|340:248,1,67.9999979248048
452,296,190151,2,0,L|448:368,1,67.9999979248048
288,104,190436,2,2,P|328:92|364:92,1,67.9999979248048
256,256,190722,2,0,L|180:252,1,67.9999979248048
52,192,191008,2,0,L|-16:196,1,67.9999979248048
204,44,191294,6,0,P|208:88|204:120,2,67.9999979248048
124,80,191722,1,0,0:0:0:0:
336,176,191865,2,0,P|380:180|416:172,1,67.9999979248048
188,252,192151,5,2,0:0:0:0:
280,20,192436,5,0,0:0:0:0:
304,320,192722,5,0,0:0:0:0:
448,99,193008,5,0,0:0:0:0:
205,111,199865,5,0,0:0:0:0:
256,192,205008,12,0,206579,0:0:0:0:
288,104,206722,6,0,P|364:100|436:104,1,141.666666666667
156,176,207151,1,2,0:0:0:0:
240,36,207294,1,2,0:0:0:0:
228,260,207436,1,2,0:0:0:0:
76,48,207579,2,0,L|72:136,2,70.8333333333333
228,260,208008,1,0,0:0:0:0:
76,200,208151,1,0,0:0:0:0:
288,104,208294,1,0,0:0:0:0:
68,300,208436,5,2,0:0:0:0:
248,240,208579,2,2,L|308:244,1,35.4166666666667
88,164,208722,1,2,0:0:0:0:
200,320,208865,1,2,0:0:0:0:
212,112,209008,1,2,0:0:0:0:
364,224,209151,1,2,0:0:0:0:
192,88,209294,2,0,P|136:84|104:88,2,70.8333333333333
283,242,209722,1,0,0:0:0:0:
376,104,209865,1,0,0:0:0:0:
316,352,210008,1,0,0:0:0:0:
320,32,210151,5,2,0:0:0:0:
396,312,210294,1,0,0:0:0:0:
192,88,210436,1,0,0:0:0:0:
448,240,210579,1,2,0:0:0:0:
76,200,210722,1,0,0:0:0:0:
376,104,210865,1,0,0:0:0:0:
68,300,211008,5,2,0:0:0:0:
364,128,211151,1,2,0:0:0:0:
64,328,211294,1,2,0:0:0:0:
377,241,211436,2,0,P|425:237|457:241,1,70.8333333333333
280,148,211722,1,0,0:0:0:0:
144,256,211865,5,2,0:0:0:0:
320,32,212008,1,0,0:0:0:0:
212,348,212151,1,0,0:0:0:0:
404,132,212294,1,2,0:0:0:0:
121,85,212436,1,0,0:0:0:0:
232,372,212579,1,0,0:0:0:0:
420,116,212722,6,0,P|424:68|420:36,1,70.8333333333333
213,277,213008,2,0,P|209:325|213:357,1,70.8333333333333
468,92,213294,2,0,P|472:44|468:16,1,65.1666679096222
300,332,213579,5,2,0:0:0:0:
288,104,213722,1,0,0:0:0:0:
316,352,213865,1,0,0:0:0:0:
160,80,214008,5,2,0:0:0:0:
396,312,214151,1,0,0:0:0:0:
160,56,214294,1,0,0:0:0:0:
432,220,214436,5,2,0:0:0:0:
44,100,214579,1,0,0:0:0:0:
448,240,214722,1,0,0:0:0:0:
68,300,214865,6,2,L|-8:296,1,73.6666632944744
328,232,215151,1,0,0:0:0:0:
236,40,215294,5,2,0:0:0:0:
211,347,215437,1,0,0:0:0:0:
256,64,215580,1,0,0:0:0:0:
300,332,215722,5,2,0:0:0:0:
160,56,215865,1,0,0:0:0:0:
316,352,216008,1,0,0:0:0:0:
448,112,216151,5,2,0:0:0:0:
136,256,216294,1,0,0:0:0:0:
468,92,216436,1,0,0:0:0:0:
96,152,216579,6,2,L|16:148,1,73.6666632944744
160,56,216865,1,0,0:0:0:0:
396,312,217008,5,2,0:0:0:0:
256,64,217151,2,0,L|252:16,2,36.8333316472372
224,328,217436,5,2,0:0:0:0:
364,80,217579,2,0,L|368:32,2,36.8333316472372
136,216,217865,5,2,0:0:0:0:
456,164,218008,1,0,0:0:0:0:
456,164,218079,1,0,0:0:0:0:
456,164,218151,1,0,0:0:0:0:
72,144,218294,5,2,0:0:0:0:
392,228,218437,1,0,0:0:0:0:
392,228,218508,1,0,0:0:0:0:
392,228,218580,1,0,0:0:0:0:
161,126,218722,6,0,P|157:82|161:46,1,70.8333333333333
264,256,219008,1,0,0:0:0:0:
365,113,219151,2,0,P|369:69|365:33,1,70.8333333333333
136,216,219436,1,0,0:0:0:0:
384,224,219579,1,0,0:0:0:0:
276,72,219722,1,0,0:0:0:0:
226,357,219865,1,0,0:0:0:0:
240,168,220008,5,2,0:0:0:0:
396,244,220151,1,2,0:0:0:0:
120,232,220294,1,2,0:0:0:0:
365,113,220436,6,0,L|505:117,1,135.99999584961
240,168,220865,2,0,B|224:232|224:232|232:288|232:288|220:332|228:368,1,192.666670341492
312,224,221294,1,2,0:0:0:0:
276,72,221436,1,0,0:0:0:0:
120,232,221579,2,0,P|76:236|40:228,1,67.9999979248048
304,248,221865,5,0,0:0:0:0:
160,160,222008,1,0,0:0:0:0:
140,316,222151,1,2,0:0:0:0:
365,113,222294,1,0,0:0:0:0:
68,148,222436,2,0,P|16:144|-16:148,1,67.9999979248048
240,168,222722,1,0,0:0:0:0:
220,12,222865,1,0,0:0:0:0:
304,248,223008,6,2,L|300:304,1,33.9999989624024
464,112,223151,2,0,L|512:116,1,33.9999989624024
328,80,223294,2,0,L|280:84,1,33.9999989624024
172,160,223436,6,2,L|120:156,1,33.9999989624024
360,156,223579,2,0,L|416:160,1,33.9999989624024
76,92,223722,2,0,L|72:48,1,33.9999989624024
174,252,223865,6,0,B|278:266|350:254,1,170.000006484986
464,84,224294,2,2,L|460:132,1,33.9999989624024
480,232,224436,1,0,0:0:0:0:
240,168,224579,1,0,0:0:0:0:
416,32,224722,1,2,0:0:0:0:
294,82,224865,1,0,0:0:0:0:
343,255,225008,2,0,P|347:295|343:327,1,67.9999979248048
174,252,225294,5,0,0:0:0:0:
360,156,225436,1,0,0:0:0:0:
480,232,225579,2,0,P|484:276|484:304,2,67.9999979248048
461,117,226008,1,0,0:0:0:0:
343,255,226151,5,0,0:0:0:0:
294,82,226294,1,0,0:0:0:0:
174,252,226436,2,0,L|-2:248,1,155.833338088989
228,336,226865,2,0,L|72:340,1,155.833338088989
343,255,227294,6,0,P|411:263|495:251,1,135.99999584961
256,212,227722,2,0,P|180:252|92:180,1,192.666670341492
343,255,228151,1,2,0:0:0:0:
180,160,228294,1,0,0:0:0:0:
477,255,228436,2,0,P|485:295|481:331,1,67.9999979248048
290,152,228722,5,0,0:0:0:0:
461,117,228865,1,0,0:0:0:0:
343,255,229008,1,2,0:0:0:0:
384,60,229151,1,0,0:0:0:0:
180,160,229294,2,0,P|136:164|88:156,1,67.9999979248048
256,212,229579,1,0,0:0:0:0:
140,72,229722,1,0,0:0:0:0:
304,40,229865,6,2,L|308:84,1,33.9999989624024
56,48,230008,2,0,L|60:-12,1,33.9999989624024
290,152,230151,2,0,L|286:192,1,33.9999989624024
72,339,230294,6,2,L|20:335,1,33.9999989624024
232,292,230436,2,0,L|284:296,1,33.9999989624024
115,195,230579,2,0,L|111:155,1,33.9999989624024
322,109,230722,6,0,B|366:105|366:105|394:121|394:121|446:105|518:121,1,170.000006484986
286,185,231151,2,0,P|246:137|306:25,1,170.000006484986
356,24,231579,1,2,0:0:0:0:
96,64,231722,6,0,L|96:32,1,28.3333333333333
286,185,231865,2,0,L|286:221,1,28.3333333333333
168,252,232008,1,2,0:0:0:0:
273,41,232151,2,0,L|277:9,1,28.3333333333333
112,196,232294,2,0,L|76:200,1,28.3333333333333
324,108,232436,6,0,P|368:104|416:112,1,67.9999979248048
356,276,232722,1,0,0:0:0:0:
472,96,232865,2,0,P|476:52|472:12,1,67.9999979248048
376,260,233151,1,0,0:0:0:0:
236,116,233294,5,2,0:0:0:0:
468,180,233436,1,0,0:0:0:0:
212,140,233579,1,0,0:0:0:0:
396,24,233722,5,2,0:0:0:0:
324,292,233865,1,0,0:0:0:0:
324,108,234008,1,0,0:0:0:0:
460,264,234151,6,0,P|468:320|464:400,1,135.99999584961
324,292,234579,2,0,B|284:276|244:292|244:292|224:276|224:276|176:292|136:280,1,192.666670341492
284,368,235008,5,2,0:0:0:0:
387,170,235151,1,0,0:0:0:0:
460,264,235294,2,0,P|468:308|468:336,1,67.9999979248048
300,348,235579,5,0,0:0:0:0:
236,176,235722,1,0,0:0:0:0:
384,248,235865,1,2,0:0:0:0:
112,196,236008,1,0,0:0:0:0:
400,144,236151,2,0,P|404:108|400:60,1,67.9999979248048
476,36,236436,1,0,0:0:0:0:
300,100,236579,1,0,0:0:0:0:
456,208,236722,6,0,L|504:212,1,33.9999989624024
236,176,236865,2,0,L|176:172,1,33.9999989624024
384,248,237008,2,0,L|388:288,1,33.9999989624024
400,144,237151,6,0,L|404:100,1,33.9999989624024
312,20,237294,2,0,L|272:16,1,33.9999989624024
160,56,237436,2,0,L|120:52,1,33.9999989624024
112,196,237579,6,0,B|164:192|164:192|176:208|176:208|216:188|216:188|304:196,1,170.000006484986
40,236,238008,2,0,P|32:212|28:176,1,33.9999989624024
120,112,238151,1,0,0:0:0:0:
84,316,238294,1,0,0:0:0:0:
304,268,238436,1,2,0:0:0:0:
112,196,238579,1,0,0:0:0:0:
220,316,238722,2,0,P|228:364|228:396,1,67.9999979248048
296,292,239008,5,0,0:0:0:0:
324,180,239151,1,0,0:0:0:0:
253,93,239294,2,0,P|209:89|161:97,2,67.9999979248048
332,24,239722,1,0,0:0:0:0:
168,184,239865,5,0,0:0:0:0:
104,24,240008,1,0,0:0:0:0:
249,248,240151,2,0,L|253:88,1,155.833338088989
332,24,240579,2,0,P|380:44|332:32,1,155.833338088989
428,112,241008,6,0,P|464:56|460:-16,1,135.99999584961
340,144,241436,2,0,B|328:188|344:232|344:232|336:284|336:284|348:360,1,192.666670341492
250,177,241865,1,2,0:0:0:0:
428,112,242008,1,0,0:0:0:0:
256,260,242151,2,0,P|248:308|252:336,1,67.9999979248048
343,333,242436,5,0,0:0:0:0:
428,112,242579,1,0,0:0:0:0:
464,296,242722,1,2,0:0:0:0:
356,60,242865,1,0,0:0:0:0:
250,177,243008,2,0,P|242:225|246:253,1,67.9999979248048
343,333,243294,1,0,0:0:0:0:
156,284,243436,1,0,0:0:0:0:
86,195,243579,6,0,L|76:144,1,33.9999989624024
250,177,243722,2,0,L|266:141,1,33.9999989624024
356,304,243865,2,0,L|400:292,1,33.9999989624024
264,296,244008,6,0,L|235:273,1,33.9999989624024
343,212,244151,2,0,L|332:180,1,33.9999989624024
457,233,244294,2,0,L|480:200,1,33.9999989624024
200,356,244436,6,0,L|56:352,1,135.99999584961
244,243,244865,2,0,L|248:199,1,33.9999989624024
148,108,245008,2,0,L|144:64,1,33.9999989624024
100,272,245151,6,0,L|52:268,1,33.9999989624024
331,179,245294,2,0,L|371:179,1,33.9999989624024
79,161,245436,2,0,L|39:157,1,33.9999989624024
248,64,245579,6,0,L|256:20,1,33.9999989624024
383,261,245722,2,0,L|391:309,1,33.9999989624024
356,60,245865,2,0,L|348:24,1,33.9999989624024
244,243,246008,2,0,L|188:235,1,33.9999989624024
428,112,246151,6,0,P|432:164|424:208,1,67.9999979248048
383,261,246436,1,0,0:0:0:0:
254,98,246579,2,0,P|250:58|254:26,1,67.9999979248048
296,324,246865,1,0,0:0:0:0:
344,144,247008,5,2,0:0:0:0:
156,176,247151,1,0,0:0:0:0:
430,179,247294,1,0,0:0:0:0:
204,96,247436,2,0,P|200:48|204:16,1,67.9999979248048
328,168,247722,1,0,0:0:0:0:
92,320,247865,6,0,L|88:184,1,135.99999584961
204,96,248294,2,0,P|284:128|176:144,1,289.000005512238
383,261,249651,6,0,L|384:200,1,59.4999981842042
440,144,250008,2,0,P|444:112|440:80,1,45.3333333333333
304,296,250508,6,0,L|228:292,1,76.4999976654053
344,372,250865,2,0,P|316:380|284:380,1,56.6666666666667
88,184,251294,6,0,L|92:48,1,135.99999584961
172,84,251722,2,0,P|228:92|312:84,1,135.99999584961
440,144,252151,6,0,B|440:188|440:188|444:228|444:228|444:300,1,135.99999584961
337,290,252579,2,0,P|361:258|447:288,1,135.99999584961
308,192,253008,6,0,P|268:188|172:192,1,135.99999584961
306,85,253436,2,0,P|246:73|170:73,1,135.99999584961
76,136,253865,6,0,L|32:132,1,28.3333333333333
144,194,254008,2,0,L|184:190,1,28.3333333333333
76,260,254151,2,0,L|40:256,1,28.3333333333333
144,304,254294,6,0,L|144:344,1,28.3333333333333
236,332,254436,2,0,L|240:364,1,28.3333333333333
336,344,254579,2,0,L|344:372,1,28.3333333333333
443,279,254722,6,0,P|447:211|443:135,1,135.99999584961
360,76,255151,2,0,P|352:136|280:76,1,192.666670341492
171,72,255579,6,0,B|115:68|115:68|31:68,1,135.99999584961
52,152,256008,2,0,B|72:164|72:164|128:152|192:164,1,135.99999584961
280,218,256436,6,0,P|272:162|280:58,1,135.99999584961
352,136,256865,2,0,B|352:172|368:228|368:228|368:204|368:168,1,135.99999584961
432,48,257294,6,0,P|464:44|536:136,1,135.99999584961
348,40,257722,2,0,L|352:-8,1,33.9999989624024
456,124,257865,1,2,0:0:0:0:
204,44,258008,1,2,0:0:0:0:
368,228,258151,6,0,L|412:224,1,33.9999989624024
144,160,258294,2,0,L|84:156,1,33.9999989624024
348,74,258436,2,0,L|348:34,1,33.9999989624024
196,300,258579,2,0,L|152:292,1,33.9999989624024
368,320,258722,1,2,0:0:0:0:
268,96,258865,1,2,0:0:0:0:
144,312,259008,5,0,0:0:0:0:
144,312,259865,6,0,B|148:236|148:236|136:152|136:152|152:80|140:0,1,311.666666666667
228,4,260722,2,0,B|239:81|223:153|223:153|235:237|235:237|231:313,1,311.666666666667
316,212,261579,6,0,B|308:152|308:152|316:108|312:56,1,135.99999584961
400,160,262008,2,0,P|464:176|440:88,1,192.666670341492
316,296,262436,6,2,L|316:336,1,33.9999989624024
224,152,262579,1,0,0:0:0:0:
408,256,262722,1,0,0:0:0:0:
443,88,262865,1,0,0:0:0:0:
144,200,263008,2,0,P|100:196|52:204,1,67.9999979248048
230,313,263294,6,2,L|232:352,1,33.9999989624024
268,104,263437,1,0,0:0:0:0:
156,280,263579,1,0,0:0:0:0:
400,160,263722,1,0,0:0:0:0:
148,112,263865,2,0,P|144:56|152:20,1,67.9999979248048
304,232,264151,6,2,L|344:232,1,33.9999989624024
76,198,264294,1,0,0:0:0:0:
268,104,264436,1,0,0:0:0:0:
204,324,264579,1,0,0:0:0:0:
380,144,264722,2,0,P|428:140|464:144,1,67.9999979248048
104,186,265008,6,2,L|100:144,1,33.9999989624024
388,240,265151,1,0,0:0:0:0:
156,280,265294,1,0,0:0:0:0:
288,80,265436,1,0,0:0:0:0:
408,256,265579,2,0,P|412:304|412:328,1,67.9999979248048
216,240,265865,6,2,L|212:200,1,33.9999989624024
380,144,266008,1,0,0:0:0:0:
148,112,266151,1,0,0:0:0:0:
328,216,266294,1,0,0:0:0:0:
78,265,266436,2,0,P|74:221|78:185,1,67.9999979248048
148,112,266722,6,2,L|152:72,1,33.9999989624024
156,312,266865,1,0,0:0:0:0:
268,56,267008,1,0,0:0:0:0:
316,196,267151,1,0,0:0:0:0:
424,56,267294,2,0,P|472:52|504:56,1,67.9999979248048
268,56,267579,6,0,L|176:52,1,67.9999979248048
148,112,267865,1,0,0:0:0:0:
248,140,268008,5,0,0:0:0:0:
332,112,268151,1,0,0:0:0:0:
348,24,268294,1,0,0:0:0:0:
392,192,268436,6,0,L|528:196,1,135.99999584961
454,336,268865,2,0,P|392:303|422:167,1,192.666670341492
223,290,269294,6,0,P|147:282|75:290,1,135.99999584961
256,193,269722,2,0,P|332:185|404:193,1,135.99999584961
200,53,270151,6,0,B|268:49|268:49|368:49,1,135.99999584961
156,132,270579,2,0,P|120:92|128:0,1,135.99999584961
68,176,271008,6,0,B|68:240|68:240|72:236|72:236|68:308,1,135.99999584961
124,360,271436,1,0,0:0:0:0:
196,324,271579,1,0,0:0:0:0:
272,352,271722,1,0,0:0:0:0:
375,306,271865,6,0,L|379:218,1,85
391,190,272151,2,0,P|427:182|459:182,1,56.6666666666667
312,132,272436,2,0,L|252:128,1,56.6666666666667
156,132,272722,2,0,P|152:172|156:212,2,56.6666666666667
200,53,273151,1,0,0:0:0:0:
264,216,273294,2,0,L|260:276,1,56.6666666666667
392,100,273579,6,0,P|440:96|484:100,1,67.9999979248048
446,181,273865,1,0,0:0:0:0:
312,132,274008,2,0,P|308:96|312:64,1,67.9999979248048
376,268,274294,1,0,0:0:0:0:
200,53,274436,5,2,0:0:0:0:
228,300,274579,1,2,0:0:0:0:
392,100,274722,1,2,0:0:0:0:
152,188,274865,1,2,0:0:0:0:
216,33,275008,1,2,0:0:0:0:
248,316,275151,1,2,0:0:0:0:
96,60,275294,6,0,L|52:64,2,33.9999989624024
