osu file format v14

[General]
AudioFilename: audio.mp3
AudioLeadIn: 0
PreviewTime: 27579
Countdown: 0
SampleSet: Soft
StackLeniency: 0.7
Mode: 0
LetterboxInBreaks: 0
WidescreenStoryboard: 1

[Editor]
Bookmarks: 1008,28436,55865,69579,83294,111151,138151,165579,193008,206722,220436,248722,275294
DistanceSpacing: 1.2
BeatDivisor: 6
GridSize: 4
TimelineZoom: 1.4

[Metadata]
Title:Forward
TitleUnicode:Forward
Artist:Gohma
ArtistUnicode:Gohma
Creator:Evgerable
Version:Light Breakout
Source:
Tags:edm dance energetic freebie 1k low cs jumps sqeez23
BeatmapID:1597765
BeatmapSetID:731899

[Difficulty]
HPDrainRate:4.8
CircleSize:3.2
OverallDifficulty:8.2
ApproachRate:9.2
SliderMultiplier:1.7
SliderTickRate:1

[Events]
//Background and Video events
0,0,"BG.jpg",0,0
//Break Periods
2,56065,60922
2,62922,66065
2,138351,150065
2,193208,198065
2,200065,203208
//Storyboard Layer 0 (Background)
//Storyboard Layer 1 (Fail)
//Storyboard Layer 2 (Pass)
//Storyboard Layer 3 (Foreground)
//Storyboard Sound Samples

[TimingPoints]
-706,428.571428571429,4,2,1,100,1,0
1008,-133.333333333333,4,2,1,50,0,0
14722,-117.647058823529,4,2,1,60,0,0
26722,-105.263157894737,4,2,1,70,0,0
27579,-95.2380952380952,4,2,1,70,0,0
28008,-95.2380952380952,4,2,1,75,0,0
28151,-95.2380952380952,4,2,1,80,0,0
28294,-95.2380952380952,4,2,1,85,0,0
28436,-83.3333333333333,4,2,1,90,0,1
35008,-90.9090909090909,4,2,1,85,0,1
35294,-83.3333333333333,4,2,1,90,0,1
41294,-83.3333333333333,4,2,1,95,0,1
41579,-83.3333333333333,4,2,1,94,0,1
41865,-83.3333333333333,4,2,1,93,0,1
42151,-83.3333333333333,4,2,1,90,0,1
48722,-90.9090909090909,4,2,1,85,0,1
49008,-83.3333333333333,4,2,1,90,0,1
55008,-83.3333333333333,4,2,1,95,0,1
55294,-83.3333333333333,4,2,1,94,0,1
55579,-83.3333333333333,4,2,1,93,0,1
55865,-83.3333333333333,4,2,1,90,0,0
68294,-83.3333333333333,4,2,1,85,0,0
68436,-83.3333333333333,4,2,1,80,0,0
68579,-83.3333333333333,4,2,1,75,0,0
68722,-83.3333333333333,4,2,1,70,0,0
68865,-83.3333333333333,4,2,1,65,0,0
69008,-83.3333333333333,4,2,1,60,0,0
69151,-83.3333333333333,4,2,1,55,0,0
69294,-83.3333333333333,4,2,1,50,0,0
69436,-83.3333333333333,4,2,1,40,0,0
69579,-80,4,2,1,95,0,1
76151,-86.9565217391304,4,2,1,90,0,1
76436,-76.9230769230769,4,2,1,100,0,1
81579,-80,4,2,1,95,0,1
83294,-83.3333333333333,4,2,1,90,0,0
83722,-58.8235294117647,4,2,1,95,0,0
84151,-83.3333333333333,4,2,1,90,0,0
86722,-66.6666666666667,4,2,1,90,0,0
87151,-83.3333333333333,4,2,1,90,0,0
89294,-90.9090909090909,4,2,1,80,0,0
90151,-83.3333333333333,4,2,1,90,0,0
90579,-58.8235294117647,4,2,1,95,0,0
91008,-83.3333333333333,4,2,1,90,0,0
93579,-66.6666666666667,4,2,1,90,0,0
94579,-100,4,2,1,70,0,0
95294,-83.3333333333333,4,2,1,90,0,0
97436,-58.8235294117647,4,2,1,95,0,0
97865,-83.3333333333333,4,2,1,90,0,0
100436,-66.6666666666667,4,2,1,90,0,0
100865,-83.3333333333333,4,2,1,90,0,0
103008,-90.9090909090909,4,2,1,80,0,0
103865,-83.3333333333333,4,2,1,90,0,0
104294,-58.8235294117647,4,2,1,95,0,0
104722,-83.3333333333333,4,2,1,90,0,0
111151,-58.8235294117647,4,2,1,95,0,0
111579,-58.8235294117647,4,2,1,5,0,0
112508,-142.857142857143,4,2,1,10,0,0
112865,-125,4,2,1,40,0,0
113365,-111.111111111111,4,2,1,50,0,0
113722,-100,4,2,1,80,0,0
114151,-83.3333333333333,4,2,1,90,0,0
116722,-100,4,2,1,80,0,0
117579,-83.3333333333333,4,2,1,90,0,0
118008,-58.8235294117647,4,2,1,95,0,0
118436,-83.3333333333333,4,2,1,90,0,0
121865,-83.3333333333333,4,2,1,100,0,0
122722,-100,4,2,1,80,0,0
124436,-83.3333333333333,4,2,1,90,0,0
124865,-58.8235294117647,4,2,1,95,0,0
125294,-83.3333333333333,4,2,1,90,0,0
130722,-83.3333333333333,4,2,1,50,0,0
130865,-100,4,2,1,60,0,0
131008,-100,4,2,1,70,0,0
131151,-100,4,2,1,80,0,0
131294,-83.3333333333333,4,2,1,90,0,0
131722,-58.8235294117647,4,2,1,95,0,0
132151,-83.3333333333333,4,2,1,90,0,0
134722,-100,4,2,1,60,0,0
136436,-83.3333333333333,4,2,1,90,0,0
137722,-83.3333333333333,4,2,1,95,0,0
138151,-83.3333333333333,4,2,1,100,0,0
151865,-200,4,2,1,20,0,0
163865,-200,4,2,1,50,0,0
164294,-200,4,2,1,55,0,0
164436,-200,4,2,1,60,0,0
164579,-200,4,2,1,65,0,0
164722,-200,4,2,1,70,0,0
164865,-200,4,2,1,75,0,0
165008,-200,4,2,1,80,0,0
165151,-200,4,2,1,85,0,0
165294,-200,4,2,1,70,0,0
165579,-83.3333333333333,4,2,1,90,0,1
172151,-90.9090909090909,4,2,1,85,0,1
172437,-83.3333333333333,4,2,1,90,0,1
178436,-83.3333333333333,4,2,1,93,0,1
178722,-83.3333333333333,4,2,1,95,0,1
179008,-83.3333333333333,4,2,1,97,0,1
179294,-83.3333333333333,4,2,1,90,0,1
185865,-90.9090909090909,4,2,1,85,0,1
186151,-83.3333333333333,4,2,1,90,0,1
192151,-83.3333333333333,4,2,1,93,0,1
192436,-83.3333333333333,4,2,1,95,0,1
192722,-83.3333333333333,4,2,1,97,0,1
193008,-83.3333333333333,4,2,1,90,0,0
205436,-83.3333333333333,4,2,1,85,0,0
205579,-83.3333333333333,4,2,1,80,0,0
205722,-83.3333333333333,4,2,1,75,0,0
205865,-83.3333333333333,4,2,1,70,0,0
206008,-83.3333333333333,4,2,1,65,0,0
206151,-83.3333333333333,4,2,1,60,0,0
206294,-83.3333333333333,4,2,1,55,0,0
206436,-83.3333333333333,4,2,1,50,0,0
206579,-83.3333333333333,4,2,1,40,0,0
206722,-80,4,2,1,95,0,1
213294,-86.9565217391304,4,2,1,90,0,1
213579,-76.9230769230769,4,2,1,100,0,1
218722,-80,4,2,1,95,0,1
220436,-83.3333333333333,4,2,1,90,0,0
220865,-58.8235294117647,4,2,1,95,0,0
221294,-83.3333333333333,4,2,1,90,0,0
223865,-66.6666666666667,4,2,1,90,0,0
224294,-83.3333333333333,4,2,1,90,0,0
226436,-90.9090909090909,4,2,1,80,0,0
227294,-83.3333333333333,4,2,1,90,0,0
227722,-58.8235294117647,4,2,1,95,0,0
228151,-83.3333333333333,4,2,1,90,0,0
230722,-66.6666666666667,4,2,1,90,0,0
231722,-100,4,2,1,70,0,0
232436,-83.3333333333333,4,2,1,90,0,0
234579,-58.8235294117647,4,2,1,95,0,0
235008,-83.3333333333333,4,2,1,90,0,0
237579,-66.6666666666667,4,2,1,90,0,0
238008,-83.3333333333333,4,2,1,90,0,0
240151,-90.9090909090909,4,2,1,80,0,0
241008,-83.3333333333333,4,2,1,90,0,0
241436,-58.8235294117647,4,2,1,95,0,0
241865,-83.3333333333333,4,2,1,90,0,0
248294,-58.8235294117647,4,2,1,95,0,0
248722,-58.8235294117647,4,2,1,5,0,0
249651,-142.857142857143,4,2,1,10,0,0
250008,-125,4,2,1,40,0,0
250508,-111.111111111111,4,2,1,50,0,0
250865,-100,4,2,1,80,0,0
251294,-83.3333333333333,4,2,1,90,0,0
253865,-100,4,2,1,80,0,0
254722,-83.3333333333333,4,2,1,90,0,0
255151,-58.8235294117647,4,2,1,95,0,0
255579,-83.3333333333333,4,2,1,90,0,0
259008,-83.3333333333333,4,2,1,100,0,0
259865,-100,4,2,1,80,0,0
261579,-83.3333333333333,4,2,1,90,0,0
262008,-58.8235294117647,4,2,1,95,0,0
262436,-83.3333333333333,4,2,1,90,0,0
267865,-83.3333333333333,4,2,1,50,0,0
268008,-100,4,2,1,60,0,0
268151,-100,4,2,1,70,0,0
268294,-100,4,2,1,80,0,0
268436,-83.3333333333333,4,2,1,90,0,0
268865,-58.8235294117647,4,2,1,95,0,0
269294,-83.3333333333333,4,2,1,90,0,0
271865,-100,4,2,1,60,0,0
273579,-83.3333333333333,4,2,1,90,0,0
274436,-83.3333333333333,4,2,1,95,0,0
274865,-83.3333333333333,4,2,1,100,0,0
275294,-83.3333333333333,4,2,1,5,0,0
275436,-83.3333333333333,4,2,1,20,0,0

[Colours]
Combo1 : 255,255,255
Combo2 : 0,0,205
Combo3 : 117,234,0
Combo4 : 255,47,47
Combo5 : 128,255,255

[HitObjects]
304,132,1008,6,2,P|316:175|312:244,1,85.0000032424928
256,276,1579,2,0,P|252:320|256:372,2,85.0000032424928
143,230,2579,5,0,0:0:0:0:
111,202,2722,2,2,P|103:158|111:98,1,85.0000032424928
167,58,3294,1,0,0:0:0:0:
219,126,3579,2,0,P|275:134|331:126,1,85.0000032424928
404,56,4293,5,0,0:0:0:0:
428,92,4436,2,2,P|436:136|436:188,1,85.0000032424928
360,212,5008,1,0,0:0:0:0:
460,256,5294,1,0,0:0:0:0:
340,224,5579,1,0,0:0:0:0:
240,304,6008,5,0,0:0:0:0:
208,332,6151,2,2,P|160:340|120:332,1,85.0000032424928
76,264,6722,1,0,0:0:0:0:
12,320,7008,1,0,0:0:0:0:
100,256,7294,1,0,0:0:0:0:
48,184,7579,1,0,0:0:0:0:
108,124,7865,6,2,P|156:116|200:128,1,85.0000032424928
268,156,8436,1,0,0:0:0:0:
272,240,8722,1,0,0:0:0:0:
336,104,9008,1,0,0:0:0:0:
452,160,9436,5,0,0:0:0:0:
432,196,9579,2,2,P|424:244|428:288,1,85.0000032424928
344,196,10151,1,0,0:0:0:0:
452,160,10436,2,0,P|460:112|456:68,1,85.0000032424928
352,4,11151,5,0,0:0:0:0:
320,32,11294,2,2,P|268:40|220:32,1,85.0000032424928
152,68,11865,1,0,0:0:0:0:
84,8,12151,1,0,0:0:0:0:
12,96,12436,1,0,0:0:0:0:
100,188,12865,5,0,0:0:0:0:
136,212,13008,2,2,P|188:220|232:216,1,85.0000032424928
296,180,13579,1,0,0:0:0:0:
384,256,13865,1,0,0:0:0:0:
304,164,14151,1,0,0:0:0:0:
432,92,14436,1,0,0:0:0:0:
296,144,14722,6,2,L|196:144,1,96.3333351707459
140,84,15151,1,0,0:0:0:0:
80,140,15294,2,0,P|72:176|72:204,1,48.1666675853729
120,256,15579,2,0,P|128:288|128:316,2,48.1666675853729
204,336,16008,2,0,P|212:368|212:392,2,48.1666675853729
280,304,16436,6,2,P|284:264|280:228,1,72.2500013780594
268,192,16722,2,0,P|260:164|260:128,1,48.1666675853729
304,76,17008,2,0,P|344:72|364:76,1,48.1666675853729
404,136,17294,5,0,0:0:0:0:
460,56,17436,1,0,0:0:0:0:
404,160,17579,2,0,P|400:184|400:212,1,48.1666675853729
452,272,17865,2,0,P|488:280|512:276,1,48.1666675853729
400,340,18151,6,2,P|368:344|348:340,1,48.1666675853729
280,304,18436,1,0,0:0:0:0:
240,376,18579,1,0,0:0:0:0:
200,256,18722,2,0,P|196:216|200:188,1,48.1666675853729
258,145,19008,5,0,0:0:0:0:
120,172,19151,1,0,0:0:0:0:
240,132,19294,2,0,L|292:128,1,48.1666675853729
108,192,19579,2,0,L|48:188,1,48.1666675853729
4,104,19865,6,2,P|0:80|4:48,1,48.1666675853729
76,20,20151,1,0,0:0:0:0:
108,96,20294,1,0,0:0:0:0:
176,16,20436,2,0,P|212:12|244:16,1,48.1666675853729
352,76,20722,6,0,L|448:80,1,96.3333351707459
316,152,21151,1,0,0:0:0:0:
236,132,21294,2,0,P|232:104|236:76,1,48.1666675853729
396,168,21579,6,2,L|400:280,1,96.3333351707459
480,240,22008,1,0,0:0:0:0:
352,332,22151,2,0,P|324:336|300:332,1,48.1666675853729
432,340,22436,2,0,P|448:368|452:384,1,48.1666675853729
316,252,22722,1,0,0:0:0:0:
240,284,22865,2,0,P|208:288|184:280,1,48.1666675853729
112,268,23151,5,0,0:0:0:0:
32,288,23294,2,2,P|20:320|16:384,1,96.3333351707459
112,268,23722,1,0,0:0:0:0:
68,196,23865,2,0,P|64:168|68:140,1,48.1666675853729
124,88,24151,2,0,P|128:60|124:28,1,48.1666675853729
44,60,24436,1,0,0:0:0:0:
192,132,24579,2,0,P|200:160|200:184,1,48.1666675853729
144,240,24865,1,0,0:0:0:0:
276,120,25008,6,2,L|276:16,1,96.3333351707459
356,136,25436,1,0,0:0:0:0:
424,64,25579,2,0,P|428:40|428:12,1,48.1666675853729
364,160,25865,2,0,P|396:168|416:168,1,48.1666675853729
300,240,26151,6,0,L|252:244,1,48.1666675853729
120,168,26436,2,0,L|72:164,1,48.1666675853729
220,68,26722,6,0,P|256:64|292:72,1,53.8333318958283
124,88,27008,1,0,0:0:0:0:
242,191,27151,2,0,P|250:223|251:255,1,53.8333318958283
364,160,27436,5,0,0:0:0:0:
168,232,27579,2,2,P|132:236|88:228,2,59.4999981842042
200,308,28008,1,0,0:0:0:0:
336,240,28151,1,0,0:0:0:0:
180,336,28294,1,0,0:0:0:0:
230,187,28436,6,2,B|238:135|234:87|234:87|226:131,1,135.99999584961
316,200,28865,1,0,0:0:0:0:
424,80,29008,1,0,0:0:0:0:
304,48,29151,1,0,0:0:0:0:
390,162,29294,2,0,P|434:166|466:162,2,67.9999979248048
230,187,29722,2,0,P|222:227|226:267,1,67.9999979248048
304,280,30008,1,0,0:0:0:0:
156,320,30151,6,2,L|80:324,1,67.9999979248048
240,336,30436,1,0,0:0:0:0:
108,233,30579,2,2,L|32:237,2,67.9999979248048
234,268,31008,6,0,P|241:311|237:347,1,67.9999979248048
152,160,31294,1,0,0:0:0:0:
316,200,31436,2,0,P|360:196|408:204,1,67.9999979248048
448,252,31722,1,0,0:0:0:0:
504,96,31865,6,2,L|508:4,1,67.9999979248048
412,32,32151,1,0,0:0:0:0:
316,200,32294,1,0,0:0:0:0:
296,72,32436,1,0,0:0:0:0:
464,168,32579,1,0,0:0:0:0:
276,56,32722,2,0,P|268:100|268:136,1,67.9999979248048
234,268,33008,6,0,L|150:272,1,67.9999979248048
396,163,33294,2,0,L|492:169,1,67.9999979248048
184,120,33579,6,2,P|180:160|188:204,1,67.9999979248048
267,123,33865,1,0,0:0:0:0:
316,200,34008,2,0,P|324:240|324:280,1,67.9999979248048
234,268,34294,1,0,0:0:0:0:
396,163,34436,2,0,P|440:159|476:163,1,67.9999979248048
412,248,34722,1,0,0:0:0:0:
348,92,34865,1,0,0:0:0:0:
234,268,35008,2,0,P|190:272|152:264,1,62.3333352355958
72,152,35294,6,2,B|72:96|72:96|76:44|76:44|72:-4,1,135.99999584961
183,187,35722,1,0,0:0:0:0:
159,51,35865,1,0,0:0:0:0:
200,168,36008,1,0,0:0:0:0:
296,72,36151,2,0,P|300:32|296:-4,2,67.9999979248048
432,72,36579,2,0,P|436:20|428:-12,1,67.9999979248048
312,152,36865,1,0,0:0:0:0:
412,248,37008,6,2,L|492:240,1,67.9999979248048
296,160,37294,1,0,0:0:0:0:
316,280,37436,1,0,0:0:0:0:
183,187,37579,1,0,0:0:0:0:
396,164,37722,1,0,0:0:0:0:
234,268,37865,6,0,P|230:300|234:344,1,67.9999979248048
108,224,38151,1,0,0:0:0:0:
148,112,38294,2,0,P|186:106|228:112,1,67.9999979248048
140,312,38579,1,0,0:0:0:0:
44,136,38722,2,2,L|52:52,1,67.9999979248048
184,192,39008,5,0,0:0:0:0:
124,32,39151,1,0,0:0:0:0:
108,224,39294,1,0,0:0:0:0:
148,16,39436,1,0,0:0:0:0:
215,108,39579,2,0,P|251:112|295:104,1,67.9999979248048
432,72,39865,6,0,B|436:40|436:40|436:-4,1,67.9999979248048
320,212,40151,2,0,B|316:244|316:244|316:288,1,67.9999979248048
324,32,40436,6,2,P|280:28|248:32,1,67.9999979248048
215,108,40722,1,0,0:0:0:0:
111,135,40865,2,0,P|71:139|39:135,1,67.9999979248048
108,224,41151,1,0,0:0:0:0:
320,212,41294,6,2,L|328:136,1,67.9999979248048
148,68,41579,2,2,L|140:-12,1,67.9999979248048
228,200,41865,2,0,P|232:152|228:112,1,67.9999979248048
43,135,42151,6,0,B|51:87|43:35|43:35|55:75,1,135.99999584961
108,224,42579,1,0,0:0:0:0:
230,132,42722,1,0,0:0:0:0:
200,292,42865,1,0,0:0:0:0:
327,144,43008,2,2,P|331:104|327:72,2,67.9999979248048
208,36,43436,2,0,L|139:72,2,67.9999979248048
268,212,43865,6,0,L|337:248,1,67.9999979248048
230,132,44151,1,0,0:0:0:0:
327,76,44294,2,0,P|367:72|395:76,2,67.9999979248048
188,272,44722,2,0,P|184:228|188:200,1,67.9999979248048
328,243,45008,1,0,0:0:0:0:
110,127,45151,2,0,L|34:135,2,67.9999979248048
230,132,45579,6,2,P|233:98|229:64,1,67.9999979248048
144,48,45865,1,0,0:0:0:0:
187,204,46008,1,0,0:0:0:0:
312,96,46151,1,0,0:0:0:0:
132,24,46294,1,0,0:0:0:0:
336,76,46436,2,0,P|340:40|336:4,1,67.9999979248048
104,212,46722,2,0,P|100:260|104:292,1,67.9999979248048
328,243,47008,2,0,P|332:207|328:171,1,67.9999979248048
144,48,47294,6,2,L|140:124,1,67.9999979248048
187,204,47579,1,0,0:0:0:0:
244,272,47722,2,0,L|248:352,1,67.9999979248048
328,243,48008,1,0,0:0:0:0:
392,304,48151,2,0,P|436:308|480:300,1,67.9999979248048
252,152,48436,1,0,0:0:0:0:
244,272,48579,1,0,0:0:0:0:
344,152,48722,2,0,P|380:148|428:156,1,62.3333352355958
460,239,49008,6,2,B|468:339|468:339|452:279,1,135.99999584961
328,243,49436,1,0,0:0:0:0:
488,156,49579,1,0,0:0:0:0:
344,152,49722,1,0,0:0:0:0:
388,68,49865,2,0,P|393:25|388:-7,1,67.9999979248048
252,152,50151,1,0,0:0:0:0:
144,72,50294,2,0,P|139:29|143:-3,1,67.9999979248048
224,36,50579,1,0,0:0:0:0:
168,152,50722,6,2,L|164:232,1,67.9999979248048
232,280,51008,1,0,0:0:0:0:
88,136,51151,2,0,P|52:132|12:136,2,67.9999979248048
308,240,51579,2,0,P|316:284|312:320,1,67.9999979248048
232,280,51865,5,0,0:0:0:0:
84,216,52008,2,0,P|48:212|8:216,1,67.9999979248048
116,300,52294,1,0,0:0:0:0:
252,152,52436,2,2,P|256:124|252:68,1,67.9999979248048
232,280,52722,5,0,0:0:0:0:
340,128,52865,1,0,0:0:0:0:
384,216,53008,1,0,0:0:0:0:
168,112,53151,1,0,0:0:0:0:
384,56,53294,2,0,P|428:60|456:56,1,67.9999979248048
255,219,53579,6,0,L|251:143,1,67.9999979248048
380,283,53865,2,0,L|384:207,1,67.9999979248048
268,352,54151,6,2,P|224:356|180:348,1,67.9999979248048
340,128,54436,1,0,0:0:0:0:
384,216,54579,2,0,P|388:240|388:288,1,67.9999979248048
348,356,54865,1,0,0:0:0:0:
132,245,55008,6,2,P|128:205|136:173,1,67.9999979248048
251,151,55294,6,2,P|260:112|279:84,1,67.9999979248048
383,111,55579,6,2,P|405:77|432:58,1,67.9999979248048
208,216,55865,5,0,0:0:0:0:
256,192,62722,5,0,0:0:0:0:
256,192,67865,12,0,69436,0:0:0:0:
416,105,69579,6,0,L|420:256,1,141.666666666667
324,288,70008,2,0,P|280:284|228:296,2,70.8333333333333
244,192,70436,2,0,P|200:188|148:200,2,70.8333333333333
324,288,70865,5,2,0:0:0:0:
328,160,71008,1,2,0:0:0:0:
216,100,71151,1,2,0:0:0:0:
416,105,71294,2,0,L|512:97,1,70.8333333333333
380,224,71579,5,0,0:0:0:0:
216,100,71722,2,0,L|224:20,2,70.8333333333333
380,224,72151,2,0,L|374:324,2,70.8333333333333
304,144,72579,1,2,0:0:0:0:
173,191,72722,1,2,0:0:0:0:
328,160,72865,1,2,0:0:0:0:
132,116,73008,2,0,L|40:116,1,70.8333333333333
204,276,73294,5,2,0:0:0:0:
328,160,73436,1,2,0:0:0:0:
223,29,73579,1,2,0:0:0:0:
256,212,73722,1,0,0:0:0:0:
416,105,73865,2,0,P|464:101|496:105,1,70.8333333333333
173,191,74151,2,0,L|84:184,1,70.8333333333333
380,224,74436,2,0,L|472:220,1,70.8333333333333
204,276,74722,6,2,P|192:320|192:376,1,70.8333333333333
256,212,75008,1,0,0:0:0:0:
201,121,75151,2,0,P|149:113|114:120,1,70.8333333333333,2|0,0:0|0:0,0:0:0:0:
288,288,75436,1,0,0:0:0:0:
380,224,75579,2,2,P|384:176|372:132,1,70.8333333333333
332,16,75865,1,0,0:0:0:0:
412,80,76008,1,0,0:0:0:0:
223,29,76151,2,0,L|137:25,1,65.1666679096222
156,200,76436,6,2,L|76:196,1,73.6666632944744
201,121,76722,1,0,0:0:0:0:
277,215,76865,6,2,L|289:295,1,73.6666632944744
379,153,77151,1,0,0:0:0:0:
201,121,77294,6,2,L|121:117,2,73.6666632944744
412,80,77722,6,2,L|496:84,1,73.6666632944744
284,84,78008,1,0,0:0:0:0:
364,236,78151,6,2,L|444:224,1,73.6666632944744
296,60,78436,1,0,0:0:0:0:
156,200,78579,6,2,L|164:296,1,73.6666632944744
127,117,78865,1,0,0:0:0:0:
312,44,79008,6,2,L|396:36,2,73.6666632944744
436,225,79436,6,2,P|440:273|436:321,1,73.6666632944744
277,215,79722,1,0,0:0:0:0:
412,80,79865,2,2,L|488:84,1,73.6666632944744
485,83,80079,1,0,0:0:0:0:
485,83,80151,1,0,0:0:0:0:
284,84,80294,5,2,0:0:0:0:
399,227,80436,2,0,L|450:223,2,36.8333316472372
248,292,80722,5,2,0:0:0:0:
208,132,80865,2,0,L|204:72,2,36.8333316472372
277,215,81151,5,2,0:0:0:0:
346,36,81294,2,0,L|342:-20,2,36.8333316472372
436,225,81579,6,0,P|440:273|436:305,1,70.8333333333333
336,296,81865,1,0,0:0:0:0:
411,150,82008,2,0,P|415:114|411:78,1,70.8333333333333
277,215,82294,1,0,0:0:0:0:
437,295,82436,2,0,P|477:299|521:291,2,70.8333333333333
356,216,82865,5,2,0:0:0:0:
248,292,83008,1,2,0:0:0:0:
210,95,83151,1,2,0:0:0:0:
328,116,83294,6,0,B|472:112,1,135.99999584961
277,215,83722,2,0,B|221:199|165:215|165:215|161:207|161:207|53:211,1,192.666670341492
226,111,84151,1,2,0:0:0:0:
356,216,84294,1,0,0:0:0:0:
210,95,84436,2,0,P|205:58|213:6,1,67.9999979248048
160,208,84722,5,0,0:0:0:0:
76,116,84865,1,0,0:0:0:0:
16,240,85008,2,0,P|12:284|16:316,1,67.9999979248048
96,96,85294,2,0,P|92:52|96:20,1,67.9999979248048
160,208,85579,1,0,0:0:0:0:
64,148,85722,1,0,0:0:0:0:
210,95,85865,6,0,L|285:92,2,67.9999979248048
356,32,86294,2,0,L|432:36,2,67.9999979248048
436,196,86722,6,0,B|440:248|440:248|432:312|432:312|436:384|436:384|416:284,1,255.000009727478
316,288,87294,1,0,0:0:0:0:
288,176,87436,1,0,0:0:0:0:
340,304,87579,2,0,P|344:352|340:384,1,67.9999979248048
436,196,87865,2,0,P|440:156|432:120,1,67.9999979248048
240,248,88151,5,0,0:0:0:0:
210,95,88294,1,0,0:0:0:0:
160,208,88436,2,0,P|156:256|160:300,2,67.9999979248048
172,188,89008,5,0,0:0:0:0:
210,95,89151,1,0,0:0:0:0:
311,192,89294,2,0,L|459:196,1,124.666670471192
344,324,89722,2,0,L|200:328,1,124.666670471192
435,195,90151,6,0,P|443:131|435:47,1,135.99999584961
344,132,90579,2,0,P|282:186|184:124,1,192.666670341492
368,244,91008,1,0,0:0:0:0:
265,103,91151,1,2,0:0:0:0:
435,195,91294,2,0,P|487:191|527:199,1,67.9999979248048
344,132,91579,5,0,0:0:0:0:
264,16,91722,1,0,0:0:0:0:
437,59,91865,2,0,P|489:55|533:63,1,67.9999979248048
192,144,92151,2,0,P|144:140|112:144,1,67.9999979248048
40,192,92436,1,0,0:0:0:0:
68,64,92579,1,0,0:0:0:0:
152,228,92722,6,0,L|239:233,2,67.9999979248048
265,103,93151,2,0,L|261:27,2,67.9999979248048
328,256,93579,6,0,B|368:256|368:256|384:252|384:252|416:252|416:252|432:256|432:256|504:256,1,170.000006484986
344,132,94008,2,0,B|328:176|328:176|328:256|328:256|340:204,1,170.000006484986
424,168,94436,1,2,0:0:0:0:
265,103,94579,5,0,0:0:0:0:
392,56,94722,1,0,0:0:0:0:
256,128,94865,2,0,L|184:120,1,56.6666666666667
336,0,95151,1,0,0:0:0:0:
424,168,95294,6,2,P|432:216|432:268,1,67.9999979248048
328,256,95579,1,0,0:0:0:0:
436,328,95722,2,0,P|480:324|512:328,1,67.9999979248048
340,352,96008,1,0,0:0:0:0:
219,231,96151,6,0,P|215:191|223:151,2,67.9999979248048
256,316,96579,1,0,0:0:0:0:
124,141,96722,1,0,0:0:0:0:
152,292,96865,1,0,0:0:0:0:
265,103,97008,6,0,L|409:107,1,135.99999584961
124,141,97436,2,0,B|60:149|0:141|0:141|44:141|88:133,1,192.666670341492
300,192,97865,1,2,0:0:0:0:
180,72,98008,1,0,0:0:0:0:
390,40,98151,2,0,P|402:92|398:120,1,67.9999979248048
328,272,98436,5,0,0:0:0:0:
265,103,98579,1,0,0:0:0:0:
388,196,98722,2,0,P|436:192|464:196,1,67.9999979248048
328,339,99008,2,0,P|332:299|324:259,1,67.9999979248048
300,192,99294,1,0,0:0:0:0:
400,106,99436,1,0,0:0:0:0:
219,231,99579,6,0,B|180:232|180:232|140:220,2,67.9999979248048
56,136,100008,2,0,B|95:135|95:135|135:147,2,67.9999979248048
264,104,100436,6,0,B|316:80|360:111|360:111|372:87|372:87|440:111|504:91,1,255.000009727478
308,176,101008,1,0,0:0:0:0:
408,180,101151,1,0,0:0:0:0:
192,52,101294,2,0,P|152:56|104:48,1,67.9999979248048
151,231,101580,2,0,P|195:235|239:223,1,67.9999979248048
308,176,101865,5,0,0:0:0:0:
248,304,102008,1,0,0:0:0:0:
184,152,102151,2,0,P|180:112|188:68,2,67.9999979248048
148,136,102722,5,0,0:0:0:0:
44,68,102865,1,0,0:0:0:0:
264,116,103008,2,0,L|420:112,1,155.833338088989
464,40,103436,2,0,P|496:76|456:44,1,155.833338088989
388,196,103865,6,0,L|392:356,1,135.99999584961
219,231,104294,2,0,B|215:175|223:135|223:135|219:23,1,192.666670341492
388,196,104722,1,2,0:0:0:0:
300,32,104865,1,0,0:0:0:0:
419,112,105008,2,0,P|435:76|439:36,1,67.9999979248048
304,164,105294,6,0,P|312:204|308:244,1,67.9999979248048
468,176,105579,1,2,0:0:0:0:
390,278,105722,1,0,0:0:0:0:
224,196,105865,2,0,P|220:148|228:108,1,67.9999979248048
240,280,106151,1,0,0:0:0:0:
388,196,106294,1,0,0:0:0:0:
222,128,106436,6,0,L|143:122,2,67.9999979248048
80,60,106865,2,0,L|0:68,2,67.9999979248048
104,289,107294,6,0,L|268:277,1,135.99999584961
32,240,107722,2,0,P|18:282|22:314,1,67.9999979248048
140,204,108008,1,0,0:0:0:0:
310,230,108151,2,0,P|324:272|320:304,1,67.9999979248048
222,128,108436,1,0,0:0:0:0:
388,196,108579,2,0,L|468:188,2,67.9999979248048
300,32,109008,6,2,P|248:28|212:32,1,67.9999979248048
222,128,109294,1,0,0:0:0:0:
81,127,109436,2,0,P|77:79|81:51,1,67.9999979248048
152,8,109722,1,0,0:0:0:0:
289,131,109865,6,0,L|217:127,2,67.9999979248048
388,196,110294,1,0,0:0:0:0:
300,32,110436,1,0,0:0:0:0:
468,16,110579,1,0,0:0:0:0:
376,220,110722,6,0,L|372:84,1,135.99999584961
456,236,111151,2,0,P|544:232|444:164,1,289.000005512238
376,220,112508,6,0,L|376:288,1,59.4999981842042
332,148,112865,2,0,P|364:136|388:136,1,45.3333333333333
244,276,113365,6,0,L|156:280,1,76.4999976654053
108,340,113722,2,0,P|88:312|84:268,1,56.6666666666667
309,164,114151,6,0,P|229:172|145:148,1,135.99999584961
337,84,114579,2,0,P|381:120|385:200,1,135.99999584961
256,48,115008,6,0,L|116:40,1,135.99999584961
337,84,115436,2,0,P|417:80|497:88,1,135.99999584961
244,330,115865,6,0,L|252:178,1,135.99999584961
337,84,116294,2,0,P|349:140|341:244,1,135.99999584961
328,300,116722,6,0,P|368:304|400:300,2,56.6666666666667
176,152,117151,2,0,P|170:179|168:207,2,56.6666666666667
80,268,117579,6,0,P|84:200|76:128,1,135.99999584961
0,96,118008,2,0,P|80:48|156:100,1,192.666670341492
256,48,118436,6,0,L|392:48,1,135.99999584961
311,156,118865,2,0,P|223:148|151:156,1,135.99999584961
396,268,119294,6,0,B|392:220|392:220|396:188|396:188|388:100,1,135.99999584961
480,276,119722,2,0,P|464:320|380:352,1,135.99999584961
204,272,120151,6,0,B|172:256|172:256|172:264|172:264|52:268,1,135.99999584961
280,240,120579,1,0,0:0:0:0:
175,151,120722,1,2,0:0:0:0:
268,328,120865,1,2,0:0:0:0:
327,155,121008,6,0,P|375:135|415:131,2,67.9999979248048
204,272,121436,2,0,P|154:256|121:233,2,67.9999979248048
256,48,121865,5,0,0:0:0:0:
325,238,122722,6,0,B|273:246|209:234|209:234|145:262|145:262|105:234|21:246,1,311.666666666667
25,162,123579,2,0,B|77:154|141:166|141:166|205:138|205:138|245:166|329:154,1,311.666666666667
420,172,124436,6,0,L|424:312,1,135.99999584961
475,57,124865,2,0,P|459:117|339:117,1,192.666670341492
340,240,125294,6,0,L|344:320,2,67.9999979248048
256,156,125722,1,0,0:0:0:0:
396,64,125865,2,0,P|373:16|351:-12,1,67.9999979248048
204,232,126151,6,2,P|191:282|189:314,2,67.9999979248048
128,80,126579,1,0,0:0:0:0:
256,156,126722,2,0,L|348:152,1,67.9999979248048
108,248,127008,6,0,L|28:240,2,67.9999979248048
148,96,127436,1,0,0:0:0:0:
204,232,127579,2,0,P|212:264|214:298,1,67.9999979248048
292,240,127865,5,2,0:0:0:0:
228,80,128008,1,0,0:0:0:0:
148,176,128151,1,0,0:0:0:0:
248,56,128294,1,0,0:0:0:0:
68,136,128436,2,0,P|28:140|-8:136,1,67.9999979248048
256,156,128722,6,0,L|332:143,2,67.9999979248048
248,56,129151,1,0,0:0:0:0:
420,172,129294,2,0,P|428:220|428:240,1,67.9999979248048
396,64,129579,6,0,L|463:75,1,67.9999979248048
256,156,129865,1,0,0:0:0:0:
292,240,130008,1,0,0:0:0:0:
315,58,130151,2,0,P|267:54|227:58,1,67.9999979248048
280,260,130436,6,0,L|356:260,1,67.9999979248048
148,176,130722,1,0,0:0:0:0:
212,324,130865,6,0,L|212:384,2,56.6666666666667
336,168,131294,6,0,L|328:28,1,135.99999584961
416,192,131722,2,0,P|340:252|254:168,1,192.666670341492
188,108,132151,6,0,P|100:100|40:108,1,135.99999584961
192,25,132579,2,0,L|356:33,1,135.99999584961
416,192,133008,6,0,P|424:132|424:56,1,135.99999584961
188,108,133436,2,0,P|244:116|332:112,1,135.99999584961
265,211,133865,6,0,L|120:219,1,135.99999584961
48,208,134294,1,0,0:0:0:0:
76,284,134436,1,0,0:0:0:0:
48,360,134579,1,0,0:0:0:0:
156,308,134722,6,0,P|208:304|264:316,1,85
272,296,135008,2,0,P|268:336|272:368,1,56.6666666666667
413,248,135294,2,0,P|417:208|413:176,1,56.6666666666667
323,113,135579,2,0,P|288:110|256:114,2,56.6666666666667
424,56,136008,1,0,0:0:0:0:
292,196,136151,2,0,P|288:236|292:268,1,56.6666666666667
188,108,136436,6,0,L|100:104,1,67.9999979248048
236,32,136722,1,0,0:0:0:0:
376,184,136865,2,0,L|472:180,1,67.9999979248048
323,113,137151,1,0,0:0:0:0:
200,200,137294,6,0,L|196:268,2,67.9999979248048
269,352,137722,1,2,0:0:0:0:
323,113,137865,1,2,0:0:0:0:
352,304,138008,1,2,0:0:0:0:
188,108,138151,5,0,0:0:0:0:
290,96,151865,6,0,L|348:100,1,56.6666666666667
290,96,153008,6,0,L|348:100,1,56.6666666666667
416,56,153579,2,0,L|472:52,1,56.6666666666667
279,233,155294,6,0,L|275:297,1,56.6666666666667
158,160,156436,6,0,L|154:100,1,56.6666666666667
92,44,157008,2,0,L|36:40,2,56.6666666666667
154,103,157865,2,0,L|158:159,1,56.6666666666667
116,232,158436,1,0,0:0:0:0:
192,332,158722,1,0,0:0:0:0:
348,184,159865,6,0,L|408:184,1,56.6666666666667
346,99,160436,2,0,L|406:99,1,56.6666666666667
244,56,162151,6,0,L|240:112,1,56.6666666666667
244,56,163294,6,0,L|240:112,1,56.6666666666667
256,192,163865,12,0,165294,0:0:0:0:
188,264,165579,6,2,L|192:348,1,67.9999979248048
260,172,165865,2,0,L|340:176,1,67.9999979248048
116,232,166151,2,0,L|24:228,1,67.9999979248048
260,172,166436,6,0,P|268:208|268:244,1,67.9999979248048
175,163,166722,1,0,0:0:0:0:
301,92,166865,2,0,P|337:88|369:92,1,67.9999979248048
348,184,167151,1,0,0:0:0:0:
456,44,167294,6,2,P|464:80|464:116,1,67.9999979248048
356,212,167579,2,0,L|268:216,1,67.9999979248048
440,292,167865,2,0,L|516:296,1,67.9999979248048
268,196,168151,2,0,P|264:148|268:116,1,67.9999979248048
352,304,168436,1,0,0:0:0:0:
188,264,168579,2,0,P|148:260|112:264,1,67.9999979248048
72,336,168865,1,0,0:0:0:0:
48,229,169008,6,2,L|48:153,1,67.9999979248048
198,127,169294,2,0,P|238:131|286:123,1,67.9999979248048
456,44,169579,2,0,P|416:40|368:48,1,67.9999979248048
180,160,169865,6,2,L|176:240,1,67.9999979248048
108,48,170151,2,0,L|112:124,1,67.9999979248048
269,60,170436,2,0,L|265:136,1,67.9999979248048
168,308,170722,6,2,P|112:300|84:304,1,67.9999979248048
264,216,171008,2,0,P|320:208|348:212,1,67.9999979248048
118,182,171294,2,0,P|110:126|114:97,1,67.9999979248048
308,296,171579,6,2,L|300:380,1,67.9999979248048
424,196,171865,2,0,L|416:128,1,67.9999979248048
396,344,172151,2,0,L|472:336,1,62.3333352355958
266,153,172436,6,2,P|262:193|266:233,1,62.3333352355958
416,128,172722,2,0,L|488:132,1,67.9999979248048
269,60,173008,2,0,P|264:20|268:-12,1,67.9999979248048
178,118,173294,6,2,L|102:114,1,67.9999979248048
180,200,173579,1,0,0:0:0:0:
92,88,173722,2,0,L|88:4,1,67.9999979248048
192,220,174008,1,0,0:0:0:0:
48,232,174151,6,2,L|-28:236,1,67.9999979248048
188,244,174436,2,0,P|200:288|200:328,1,67.9999979248048
266,153,174722,2,0,P|278:197|278:237,1,67.9999979248048
92,88,175008,6,2,L|88:160,1,67.9999979248048
216,80,175294,1,0,0:0:0:0:
348,127,175436,2,0,P|388:131|420:127,1,67.9999979248048
279,219,175722,1,0,0:0:0:0:
496,96,175865,2,2,P|500:140|496:168,1,67.9999979248048
368,248,176151,6,0,L|448:248,1,67.9999979248048
228,300,176436,2,0,L|156:300,1,67.9999979248048
415,127,176722,6,2,L|411:51,1,67.9999979248048
279,219,177008,2,0,L|283:139,1,67.9999979248048
371,315,177294,2,0,L|367:235,1,67.9999979248048
216,80,177579,6,2,P|164:76|132:80,1,67.9999979248048
415,127,177865,2,0,P|423:83|423:55,1,67.9999979248048
228,300,178151,2,0,P|220:344|220:372,1,67.9999979248048
332,84,178436,5,2,0:0:0:0:
371,315,178722,5,0,0:0:0:0:
176,164,179008,5,0,0:0:0:0:
468,276,179294,6,0,L|476:368,1,67.9999979248048
268,220,179579,2,0,P|232:216|196:220,1,67.9999979248048
371,315,179865,1,2,0:0:0:0:
340,168,180008,1,2,0:0:0:0:
444,200,180151,2,0,P|492:204|532:196,2,67.9999979248048
268,220,180579,1,0,0:0:0:0:
476,112,180722,2,0,L|468:32,1,67.9999979248048
264,132,181008,6,0,P|260:76|264:52,2,67.9999979248048
392,104,181436,1,0,0:0:0:0:
280,48,181579,2,0,P|240:44|208:48,1,67.9999979248048
200,219,181865,2,0,L|108:215,2,67.9999979248048
392,104,182294,2,0,L|385:29,2,67.9999979248048
362,247,182722,6,0,P|370:291|370:319,1,67.9999979248048
444,200,183008,1,2,0:0:0:0:
280,296,183151,2,0,P|236:300|204:296,1,67.9999979248048
460,220,183436,1,0,0:0:0:0:
264,132,183579,6,0,L|176:120,1,67.9999979248048
200,219,183865,1,2,0:0:0:0:
392,104,184008,2,0,L|404:176,1,67.9999979248048
284,212,184294,1,2,0:0:0:0:
392,72,184436,6,0,L|400:-4,2,67.9999979248048
284,212,184865,1,0,0:0:0:0:
304,52,185008,1,0,0:0:0:0:
362,247,185151,1,0,0:0:0:0:
196,122,185294,6,0,L|112:118,1,67.9999979248048
376,268,185579,2,0,L|456:264,1,67.9999979248048
128,268,185865,2,0,L|44:264,1,62.3333352355958
306,176,186151,6,2,P|310:128|306:104,1,67.9999979248048
376,268,186436,2,0,P|388:221|388:197,1,67.9999979248048
434,364,186722,2,0,P|454:320|458:296,1,67.9999979248048
222,220,187008,6,2,L|218:288,1,67.9999979248048
306,176,187294,1,0,0:0:0:0:
128,118,187436,1,0,0:0:0:0:
272,32,187579,2,0,P|316:28|360:36,1,67.9999979248048
144,136,187865,6,2,L|140:56,1,67.9999979248048
380,212,188151,2,0,P|384:168|380:144,1,67.9999979248048
155,220,188436,2,0,P|199:224|222:219,1,67.9999979248048
272,32,188722,2,2,P|238:27|204:31,1,67.9999979248048
380,144,189008,2,4,L|464:148,1,67.9999979248048
304,308,189294,2,0,P|300:268|304:228,1,67.9999979248048
464,56,189579,6,2,L|460:136,1,67.9999979248048
388,232,189865,2,0,L|392:304,1,67.9999979248048
300,88,190151,2,0,L|296:160,1,67.9999979248048
397,68,190436,2,2,P|437:56|473:56,1,67.9999979248048
304,308,190722,2,0,L|228:304,1,67.9999979248048
155,220,191008,2,0,L|87:224,1,67.9999979248048
300,88,191294,6,0,P|304:132|300:164,2,67.9999979248048
220,124,191722,1,0,0:0:0:0:
388,232,191865,2,0,P|432:236|468:228,1,67.9999979248048
463,55,192151,5,2,0:0:0:0:
140,68,192436,5,0,0:0:0:0:
304,308,192722,5,0,0:0:0:0:
463,55,193008,5,0,0:0:0:0:
220,124,199865,5,0,0:0:0:0:
256,192,205008,12,0,206579,0:0:0:0:
300,88,206722,6,0,P|376:84|448:88,1,141.666666666667
304,168,207151,1,2,0:0:0:0:
424,184,207294,1,2,0:0:0:0:
280,288,207436,1,2,0:0:0:0:
216,128,207579,2,0,L|212:216,2,70.8333333333333
364,256,208008,2,0,L|360:332,2,70.8333333333333
280,288,208436,5,2,0:0:0:0:
300,88,208579,1,0,0:0:0:0:
300,88,208651,1,0,0:0:0:0:
300,88,208722,1,0,0:0:0:0:
424,184,208865,2,0,P|464:188|504:180,1,70.8333333333333
441,87,209151,1,2,0:0:0:0:
212,198,209294,5,2,0:0:0:0:
360,326,209436,1,0,0:0:0:0:
300,88,209579,1,0,0:0:0:0:
192,288,209722,2,0,P|156:286|121:290,2,70.8333333333333
303,158,210151,6,2,L|299:78,1,70.8333333333333
212,198,210436,1,2,0:0:0:0:
224,48,210579,1,2,0:0:0:0:
355,255,210722,1,2,0:0:0:0:
168,116,210865,1,2,0:0:0:0:
355,255,211008,6,2,P|359:295|359:331,2,70.8333333333333
144,92,211436,2,0,P|140:52|140:16,2,70.8333333333333
192,288,211865,1,2,0:0:0:0:
299,87,212008,1,0,0:0:0:0:
355,255,212151,1,0,0:0:0:0:
144,92,212294,1,2,0:0:0:0:
284,336,212436,1,2,0:0:0:0:
120,76,212579,1,2,0:0:0:0:
372,276,212722,6,0,L|457:273,1,70.8333333333333
108,184,213008,2,0,L|104:260,1,70.8333333333333
302,152,213294,2,0,L|298:76,1,65.1666679096222
432,160,213579,6,2,B|472:164|472:164|520:164,1,73.6666632944744
355,255,213865,1,0,0:0:0:0:
212,112,214008,6,2,B|207:72|207:72|208:23,1,73.6666632944744
298,86,214294,1,0,0:0:0:0:
204,210,214436,6,2,B|199:250|199:250|200:298,1,73.6666632944744
92,160,214722,1,0,0:0:0:0:
12,76,214865,6,0,P|8:28|12:-4,2,73.6666632944744
199,283,215294,5,2,0:0:0:0:
207,38,215436,1,0,0:0:0:0:
171,275,215579,1,0,0:0:0:0:
298,86,215722,6,2,P|346:82|378:86,2,73.6666632944744
355,255,216151,5,2,0:0:0:0:
172,120,216294,1,0,0:0:0:0:
380,236,216436,1,0,0:0:0:0:
93,233,216579,6,2,P|89:189|97:137,2,73.6666632944744
298,86,217008,5,2,0:0:0:0:
228,276,217151,2,0,L|236:316,2,36.8333316472372
172,120,217436,5,2,0:0:0:0:
384,204,217579,2,0,L|432:196,2,36.8333316472372
336,292,217865,5,2,0:0:0:0:
93,233,218008,2,0,L|53:241,2,36.8333316472372
172,120,218294,5,2,0:0:0:0:
140,308,218436,2,0,L|148:356,2,36.8333316472372
278,122,218722,6,0,P|322:118|358:122,1,70.8333333333333
176,208,219008,1,0,0:0:0:0:
298,86,219151,2,0,P|342:82|378:86,1,70.8333333333333
172,120,219436,5,0,0:0:0:0:
384,204,219579,1,0,0:0:0:0:
228,276,219722,1,0,0:0:0:0:
392,60,219865,1,0,0:0:0:0:
96,80,220008,2,0,P|92:128|96:160,2,70.8333333333333
176,208,220436,6,0,L|184:64,1,135.99999584961
94,150,220865,2,0,B|78:214|78:214|86:270|86:270|74:314|82:350,1,192.666670341492
228,276,221294,1,2,0:0:0:0:
312,208,221436,1,0,0:0:0:0:
264,360,221579,2,0,P|220:364|184:356,1,67.9999979248048
344,288,221865,6,0,P|352:336|348:368,1,67.9999979248048
176,208,222151,1,2,0:0:0:0:
312,208,222294,1,0,0:0:0:0:
94,150,222436,2,0,P|42:146|10:150,1,67.9999979248048
248,148,222722,1,0,0:0:0:0:
183,72,222865,1,0,0:0:0:0:
336,56,223008,6,2,L|332:136,2,67.9999979248048
94,150,223436,2,2,L|18:146,2,67.9999979248048
228,276,223865,6,0,B|278:296|338:272|338:272|358:304|358:304|398:276|398:276|434:284|470:272,1,255.000009727478
428,192,224436,1,0,0:0:0:0:
332,123,224579,1,0,0:0:0:0:
412,24,224722,2,0,P|456:20|484:24,1,67.9999979248048
248,148,225008,2,0,P|252:188|248:220,1,67.9999979248048
164,184,225294,5,0,0:0:0:0:
272,64,225436,1,0,0:0:0:0:
423,124,225579,2,0,P|427:168|427:196,2,67.9999979248048
412,24,226008,1,0,0:0:0:0:
340,204,226151,5,0,0:0:0:0:
272,64,226294,1,0,0:0:0:0:
164,184,226436,2,0,L|14:184,1,124.666670471192
212,296,226865,2,0,L|64:300,1,124.666670471192
336,272,227294,6,0,P|404:280|488:268,1,135.99999584961
288,348,227722,2,0,P|212:388|124:316,1,192.666670341492
248,148,228151,1,2,0:0:0:0:
212,296,228294,1,0,0:0:0:0:
328,108,228436,2,0,P|336:148|332:184,1,67.9999979248048
164,184,228722,5,0,0:0:0:0:
256,64,228865,1,0,0:0:0:0:
416,100,229008,2,0,P|422:133|423:167,1,67.9999979248048
148,160,229294,2,0,P|114:155|80:158,1,67.9999979248048
212,296,229579,1,0,0:0:0:0:
248,148,229722,1,0,0:0:0:0:
423,167,229865,6,0,L|419:255,2,67.9999979248048
212,296,230294,2,0,L|136:292,2,67.9999979248048
292,72,230722,6,0,B|336:68|336:68|364:84|364:84|416:68|488:84,1,170.000006484986
248,148,231151,2,0,P|208:100|268:-12,1,170.000006484986
336,168,231579,1,2,0:0:0:0:
212,296,231722,5,0,0:0:0:0:
148,160,231865,1,0,0:0:0:0:
296,260,232008,2,0,P|332:268|368:260,1,56.6666666666667
280,348,232294,1,0,0:0:0:0:
168,136,232436,6,0,P|212:132|260:140,1,67.9999979248048
336,168,232722,1,0,0:0:0:0:
454,146,232865,2,0,P|458:102|454:62,1,67.9999979248048
351,265,233151,1,0,0:0:0:0:
292,72,233294,1,2,0:0:0:0:
440,240,233436,1,0,0:0:0:0:
235,134,233579,1,0,0:0:0:0:
456,78,233722,6,0,L|460:-2,2,67.9999979248048
440,240,234151,6,0,P|448:296|444:376,1,135.99999584961
351,265,234579,2,0,B|311:249|271:265|271:265|251:249|251:249|203:265|163:253,1,192.666670341492
312,344,235008,1,2,0:0:0:0:
376,184,235151,1,0,0:0:0:0:
440,240,235294,2,0,P|448:284|448:312,1,67.9999979248048
235,134,235579,5,0,0:0:0:0:
392,164,235722,1,2,0:0:0:0:
156,172,235865,2,0,P|152:136|156:96,1,67.9999979248048
408,140,236151,2,0,P|412:104|408:56,1,67.9999979248048
459,10,236436,1,0,0:0:0:0:
292,72,236579,1,0,0:0:0:0:
372,243,236722,6,0,L|440:239,2,67.9999979248048
248,320,237151,2,0,L|248:252,2,67.9999979248048
158,135,237579,6,0,B|194:147|194:147|246:135|246:135|290:147|326:135|326:135|374:151|420:136,1,255.000009727478
484,168,238151,1,0,0:0:0:0:
372,56,238294,1,0,0:0:0:0:
344,232,238436,2,0,P|377:227|412:228,1,67.9999979248048
284,56,238722,2,0,P|292:104|292:136,1,67.9999979248048
248,252,239008,5,0,0:0:0:0:
160,324,239151,1,0,0:0:0:0:
68,240,239294,2,0,P|24:236|-24:244,2,67.9999979248048
200,104,239722,1,0,0:0:0:0:
160,232,239865,5,0,0:0:0:0:
160,96,240008,1,0,0:0:0:0:
248,252,240151,2,0,L|242:96,1,155.833338088989
328,68,240579,2,0,P|376:88|328:76,1,155.833338088989
424,160,241008,6,0,P|460:104|456:32,1,135.99999584961
336,124,241436,2,0,B|324:168|340:212|340:212|332:264|332:264|344:340,1,192.666670341492
244,168,241865,1,2,0:0:0:0:
424,160,242008,1,0,0:0:0:0:
248,252,242151,2,0,P|240:300|244:328,1,67.9999979248048
339,313,242436,5,0,0:0:0:0:
424,160,242579,1,0,0:0:0:0:
244,168,242722,2,0,P|208:144|192:112,1,67.9999979248048
440,136,243008,2,0,P|448:176|443:212,1,67.9999979248048
242,318,243294,1,0,0:0:0:0:
416,280,243436,1,0,0:0:0:0:
244,168,243579,6,0,L|240:92,2,67.9999979248048
336,336,244008,2,0,L|340:252,2,67.9999979248048
164,228,244436,6,0,L|20:224,1,135.99999584961
244,168,244865,2,0,P|248:124|244:92,1,67.9999979248048
160,128,245151,1,0,0:0:0:0:
304,48,245294,2,0,P|352:44|380:48,2,67.9999979248048
180,44,245722,1,0,0:0:0:0:
328,208,245865,1,0,0:0:0:0:
160,128,246008,1,0,0:0:0:0:
412,128,246151,6,0,P|416:180|408:224,1,67.9999979248048
380,276,246436,1,0,0:0:0:0:
244,168,246579,2,0,P|240:128|244:96,1,67.9999979248048
164,228,246865,1,0,0:0:0:0:
328,124,247008,5,2,0:0:0:0:
144,204,247151,1,0,0:0:0:0:
344,248,247294,1,0,0:0:0:0:
243,100,247436,2,0,P|239:60|243:28,2,67.9999979248048
112,328,247865,6,0,L|108:192,1,135.99999584961
64,116,248294,2,0,P|144:148|36:164,1,289.000005512238
344,248,249651,6,0,L|345:187,1,59.4999981842042
401,131,250008,2,0,P|405:99|401:67,1,45.3333333333333
284,300,250508,6,0,L|208:296,1,76.4999976654053
324,376,250865,2,0,P|296:384|264:384,1,56.6666666666667
92,164,251294,6,0,L|96:28,1,135.99999584961
176,64,251722,2,0,P|232:72|316:64,1,135.99999584961
476,184,252151,6,0,B|476:228|476:228|480:268|480:268|480:340,1,135.99999584961
373,330,252579,2,0,P|397:298|483:328,1,135.99999584961
312,172,253008,6,0,P|272:168|176:172,1,135.99999584961
310,65,253436,2,0,P|250:53|174:53,1,135.99999584961
128,248,253865,6,0,P|92:252|64:248,2,56.6666666666667
264,260,254294,2,0,P|249:293|232:315,2,56.6666666666667
373,330,254722,6,0,P|377:262|373:186,1,135.99999584961
290,127,255151,2,0,P|282:187|210:127,1,192.666670341492
193,44,255579,6,0,B|137:40|137:40|53:40,1,135.99999584961
74,124,256008,2,0,B|94:136|94:136|150:124|214:136,1,135.99999584961
294,262,256436,6,0,P|286:206|294:102,1,135.99999584961
366,180,256865,2,0,B|366:216|382:272|382:272|382:248|382:212,1,135.99999584961
368,96,257294,6,0,P|400:92|472:184,1,135.99999584961
300,44,257722,1,0,0:0:0:0:
392,176,257865,1,2,0:0:0:0:
206,134,258008,1,2,0:0:0:0:
384,272,258151,6,0,L|456:256,2,67.9999979248048
220,200,258579,2,0,L|204:127,2,67.9999979248048
376,8,259008,5,0,0:0:0:0:
144,312,259865,6,0,B|148:236|148:236|136:152|136:152|152:80|140:0,1,311.666666666667
228,4,260722,2,0,B|239:81|223:153|223:153|235:237|235:237|231:313,1,311.666666666667
316,212,261579,6,0,B|308:152|308:152|316:108|312:56,1,135.99999584961
400,160,262008,2,0,P|464:176|440:88,1,192.666670341492
316,296,262436,6,0,P|312:336|316:368,2,67.9999979248048
400,160,262865,1,0,0:0:0:0:
228,200,263008,2,0,P|184:196|136:204,1,67.9999979248048
232,284,263294,5,2,0:0:0:0:
268,104,263437,1,0,0:0:0:0:
206,295,263579,1,0,0:0:0:0:
316,212,263722,1,0,0:0:0:0:
148,112,263865,2,0,P|144:56|152:20,1,67.9999979248048
336,228,264151,6,0,P|340:184|336:152,2,67.9999979248048
232,284,264579,1,0,0:0:0:0:
356,136,264722,2,0,P|404:132|440:136,1,67.9999979248048
207,183,265008,6,0,P|199:147|203:107,2,67.9999979248048
284,88,265436,1,0,0:0:0:0:
424,224,265579,2,0,P|428:272|428:296,1,67.9999979248048
208,251,265865,6,0,P|204:207|208:179,1,67.9999979248048
337,160,266151,1,0,0:0:0:0:
312,308,266294,1,0,0:0:0:0:
172,204,266436,2,0,P|168:160|172:124,1,67.9999979248048
116,64,266722,6,0,P|68:68|36:64,1,67.9999979248048
220,32,267008,1,0,0:0:0:0:
256,168,267151,1,0,0:0:0:0:
356,48,267294,2,0,P|404:44|436:48,1,67.9999979248048
172,204,267579,6,0,L|80:200,1,67.9999979248048
220,32,267865,1,0,0:0:0:0:
353,104,268008,6,0,P|357:64|353:36,2,56.6666666666667
376,200,268436,6,0,L|512:204,1,135.99999584961
438,344,268865,2,0,P|376:311|406:175,1,192.666670341492
207,299,269294,6,0,P|131:291|59:299,1,135.99999584961
240,202,269722,2,0,P|316:194|388:202,1,135.99999584961
219,51,270151,6,0,B|287:47|287:47|387:47,1,135.99999584961
175,130,270579,2,0,P|139:90|147:-2,1,135.99999584961
71,170,271008,6,0,B|71:234|71:234|75:230|75:230|71:302,1,135.99999584961
124,360,271436,1,0,0:0:0:0:
196,324,271579,1,0,0:0:0:0:
272,352,271722,1,0,0:0:0:0:
371,284,271865,6,0,L|375:196,1,85
348,180,272151,2,0,P|384:172|416:172,1,56.6666666666667
300,108,272436,2,0,L|240:112,1,56.6666666666667
156,132,272722,2,0,P|152:172|156:212,2,56.6666666666667
180,52,273151,1,0,0:0:0:0:
264,212,273294,2,0,L|260:272,1,56.6666666666667
380,88,273579,6,0,P|428:84|472:88,1,67.9999979248048
488,160,273865,1,0,0:0:0:0:
300,108,274008,2,0,P|296:72|300:40,1,67.9999979248048
374,199,274294,1,0,0:0:0:0:
196,72,274436,6,0,L|120:76,2,67.9999979248048
152,188,274865,1,2,0:0:0:0:
299,40,275008,1,2,0:0:0:0:
260,268,275151,1,2,0:0:0:0:
380,88,275294,6,0,L|424:92,2,33.9999989624024
