osu file format v14

[General]
AudioFilename: audio_0.9.mp3
AudioLeadIn: 0
PreviewTime: 84008
Countdown: 0
SampleSet: None
StackLeniency: 0.7
Mode: 3
LetterboxInBreaks: 0
SpecialStyle: 0
WidescreenStoryboard: 0

[Editor]
DistanceSpacing: 1.6
BeatDivisor: 4
GridSize: 16
TimelineZoom: 2.499999

[Metadata]
Title:Lost in the maze
TitleUnicode:Lost in the maze
Artist:Godspeed
ArtistUnicode:Godspeed
Creator:Calcyon
Version:Forever Lost x0.9
Source:
Tags:
BeatmapID:-1
BeatmapSetID:-1

[Difficulty]
HPDrainRate:8
CircleSize:4
OverallDifficulty:8.5
ApproachRate:5
SliderMultiplier:1.4
SliderTickRate:1

[Events]
//Background and Video events
0,0,"background.jpg",0,0
//Break Periods
//Storyboard Layer 0 (Background)
//Storyboard Layer 1 (Fail)
//Storyboard Layer 2 (Pass)
//Storyboard Layer 3 (Foreground)
//Storyboard Sound Samples

[TimingPoints]
903,303.030303030303,4,3,0,40,1,0

[HitObjects]
192,192,903,5,0,0:0:0:0::
320,192,903,1,0,0:0:0:0::
448,192,903,1,8,0:0:0:0::
64,192,1054,1,0,0:0:0:0::
192,192,1054,1,0,0:0:0:0::
64,192,1205,1,0,0:0:0:0::
192,192,1205,1,0,0:0:0:0::
192,192,1357,1,8,0:0:0:0::
448,192,1357,1,0,0:0:0:0::
320,192,1357,1,0,0:0:0:0::
320,192,1508,1,0,0:0:0:0::
192,192,1508,1,0,0:0:0:0::
320,192,1660,1,0,0:0:0:0::
192,192,1660,1,0,0:0:0:0::
64,192,1812,1,0,0:0:0:0::
320,192,1812,1,0,0:0:0:0::
448,192,1812,1,8,0:0:0:0::
448,192,1963,1,0,0:0:0:0::
320,192,1963,1,0,0:0:0:0::
448,192,2114,1,0,0:0:0:0::
64,192,2114,1,0,0:0:0:0::
192,192,2114,1,8,0:0:0:0::
192,192,2266,1,0,0:0:0:0::
448,192,2266,1,0,0:0:0:0::
320,192,2417,1,8,0:0:0:0::
64,192,2417,1,0,0:0:0:0::
192,192,2417,1,0,0:0:0:0::
64,192,2570,1,8,0:0:0:0::
320,192,2570,1,0,0:0:0:0::
448,192,2570,1,0,0:0:0:0::
192,192,2721,1,8,0:0:0:0::
320,192,2721,1,0,0:0:0:0::
448,192,2721,1,0,0:0:0:0::
448,192,2872,1,0,0:0:0:0::
64,192,2872,1,0,0:0:0:0::
64,192,3024,1,0,0:0:0:0::
448,192,3024,1,0,0:0:0:0::
320,192,3175,1,8,0:0:0:0::
192,192,3175,1,0,0:0:0:0::
64,192,3175,1,0,0:0:0:0::
320,192,3326,1,0,0:0:0:0::
448,192,3326,1,0,0:0:0:0::
320,192,3478,1,0,0:0:0:0::
448,192,3478,1,0,0:0:0:0::
192,192,3630,1,8,0:0:0:0::
448,192,3630,1,0,0:0:0:0::
320,192,3630,1,0,0:0:0:0::
192,192,3781,1,0,0:0:0:0::
64,192,3781,1,0,0:0:0:0::
192,192,3933,1,8,0:0:0:0::
320,192,3933,1,0,0:0:0:0::
448,192,3933,1,0,0:0:0:0::
192,192,4084,1,0,0:0:0:0::
320,192,4084,1,8,0:0:0:0::
64,192,4084,1,0,0:0:0:0::
64,192,4236,1,0,0:0:0:0::
448,192,4236,1,0,0:0:0:0::
320,192,4236,1,8,0:0:0:0::
192,192,4387,1,8,0:0:0:0::
320,192,4387,1,0,0:0:0:0::
448,192,4387,1,0,0:0:0:0::
64,192,4538,1,0,0:0:0:0::
192,192,4538,1,8,0:0:0:0::
448,192,4538,1,0,0:0:0:0::
64,192,4691,1,0,0:0:0:0::
320,192,4691,1,0,0:0:0:0::
64,192,4842,1,0,0:0:0:0::
320,192,4842,1,0,0:0:0:0::
192,192,4993,1,8,0:0:0:0::
448,192,4993,1,0,0:0:0:0::
64,192,4993,1,0,0:0:0:0::
320,192,5145,1,0,0:0:0:0::
192,192,5145,1,0,0:0:0:0::
192,192,5296,1,0,0:0:0:0::
320,192,5296,1,0,0:0:0:0::
64,192,5447,1,8,0:0:0:0::
320,192,5447,1,0,0:0:0:0::
448,192,5447,1,0,0:0:0:0::
192,192,5600,1,0,0:0:0:0::
64,192,5600,1,0,0:0:0:0::
448,192,5751,1,0,0:0:0:0::
320,192,5751,1,0,0:0:0:0::
192,192,5751,1,8,0:0:0:0::
64,192,5903,1,0,0:0:0:0::
192,192,5903,1,0,0:0:0:0::
64,192,6054,1,0,0:0:0:0::
192,192,6054,1,8,0:0:0:0::
448,192,6054,1,0,0:0:0:0::
320,192,6205,1,0,0:0:0:0::
192,192,6205,1,8,0:0:0:0::
448,192,6205,1,0,0:0:0:0::
64,192,6357,1,0,0:0:0:0::
192,192,6357,1,0,0:0:0:0::
320,192,6357,1,8,0:0:0:0::
320,192,6508,1,0,0:0:0:0::
448,192,6508,1,0,0:0:0:0::
320,192,6660,1,0,0:0:0:0::
448,192,6660,1,0,0:0:0:0::
192,192,6812,1,0,0:0:0:0::
64,192,6812,1,0,0:0:0:0::
320,192,6812,1,8,0:0:0:0::
320,192,6963,1,0,0:0:0:0::
192,192,6963,1,0,0:0:0:0::
192,192,7114,1,0,0:0:0:0::
320,192,7114,1,0,0:0:0:0::
448,192,7266,1,8,0:0:0:0::
64,192,7266,1,0,0:0:0:0::
192,192,7266,1,0,0:0:0:0::
192,192,7417,1,0,0:0:0:0::
448,192,7417,1,0,0:0:0:0::
192,192,7570,1,8,0:0:0:0::
448,192,7570,1,0,0:0:0:0::
64,192,7570,1,0,0:0:0:0::
320,192,7645,1,0,0:0:0:0::
192,192,7721,1,0,0:0:0:0::
64,192,7721,1,0,0:0:0:0::
320,192,7796,1,0,0:0:0:0::
448,192,7796,1,0,0:0:0:0::
192,192,7872,1,0,0:0:0:0::
64,192,7872,1,0,0:0:0:0::
448,192,8024,1,0,0:0:0:0::
320,192,8024,1,0,0:0:0:0::
320,192,8175,1,8,0:0:0:0::
192,192,8175,1,0,0:0:0:0::
64,192,8175,128,0,8630:0:0:0:0:
320,192,8326,1,0,0:0:0:0::
448,192,8326,1,0,0:0:0:0::
320,192,8478,1,0,0:0:0:0::
448,192,8478,1,0,0:0:0:0::
192,192,8630,1,8,0:0:0:0::
320,192,8630,1,0,0:0:0:0::
448,192,8630,128,0,9084:0:0:0:0:
192,192,8781,1,0,0:0:0:0::
64,192,8781,1,0,0:0:0:0::
64,192,8933,1,0,0:0:0:0::
192,192,8933,1,0,0:0:0:0::
320,192,9084,1,8,0:0:0:0::
64,192,9084,1,0,0:0:0:0::
192,192,9084,128,0,9387:0:0:0:0:
320,192,9236,1,0,0:0:0:0::
448,192,9236,1,0,0:0:0:0::
64,192,9387,1,0,0:0:0:0::
320,192,9387,1,8,0:0:0:0::
448,192,9387,1,0,0:0:0:0::
192,192,9538,1,0,0:0:0:0::
320,192,9538,1,0,0:0:0:0::
64,192,9691,1,0,0:0:0:0::
448,192,9691,1,0,0:0:0:0::
192,192,9691,1,8,0:0:0:0::
320,192,9842,1,8,0:0:0:0::
192,192,9842,1,0,0:0:0:0::
448,192,9842,1,0,0:0:0:0::
192,192,9993,1,0,0:0:0:0::
320,192,9993,1,8,0:0:0:0::
64,192,9993,128,0,10145:0:0:0:0:
320,192,10145,1,0,0:0:0:0::
448,192,10145,1,0,0:0:0:0::
320,192,10296,1,0,0:0:0:0::
448,192,10296,1,0,0:0:0:0::
192,192,10447,1,0,0:0:0:0::
320,192,10447,1,8,0:0:0:0::
64,192,10447,1,0,0:0:0:0::
64,192,10600,1,0,0:0:0:0::
192,192,10600,1,0,0:0:0:0::
64,192,10751,1,0,0:0:0:0::
192,192,10751,1,0,0:0:0:0::
192,192,10903,1,8,0:0:0:0::
320,192,10903,1,0,0:0:0:0::
448,192,10903,1,0,0:0:0:0::
192,192,11054,1,0,0:0:0:0::
320,192,11054,1,0,0:0:0:0::
192,192,11205,1,8,0:0:0:0::
64,192,11205,1,0,0:0:0:0::
448,192,11205,1,0,0:0:0:0::
64,192,11357,1,0,0:0:0:0::
448,192,11357,1,0,0:0:0:0::
320,192,11357,1,8,0:0:0:0::
192,192,11508,1,8,0:0:0:0::
320,192,11508,1,0,0:0:0:0::
64,192,11508,1,0,0:0:0:0::
448,192,11660,1,0,0:0:0:0::
320,192,11660,1,0,0:0:0:0::
192,192,11660,1,8,0:0:0:0::
64,192,11812,1,0,0:0:0:0::
192,192,11812,1,8,0:0:0:0::
448,192,11812,128,0,11963:0:0:0:0:
320,192,11963,1,0,0:0:0:0::
64,192,11963,1,0,0:0:0:0::
64,192,12114,1,0,0:0:0:0::
320,192,12114,1,0,0:0:0:0::
64,192,12266,1,0,0:0:0:0::
192,192,12266,1,8,0:0:0:0::
320,192,12266,1,0,0:0:0:0::
448,192,12417,1,0,0:0:0:0::
192,192,12417,1,0,0:0:0:0::
192,192,12570,1,0,0:0:0:0::
448,192,12570,1,0,0:0:0:0::
320,192,12721,1,0,0:0:0:0::
192,192,12721,1,8,0:0:0:0::
448,192,12721,1,0,0:0:0:0::
64,192,12872,1,0,0:0:0:0::
192,192,12872,1,0,0:0:0:0::
192,192,13024,1,0,0:0:0:0::
320,192,13024,1,8,0:0:0:0::
64,192,13024,1,0,0:0:0:0::
320,192,13175,1,0,0:0:0:0::
448,192,13175,1,0,0:0:0:0::
192,192,13326,1,8,0:0:0:0::
320,192,13326,1,0,0:0:0:0::
448,192,13326,1,0,0:0:0:0::
192,192,13478,1,0,0:0:0:0::
64,192,13478,1,0,0:0:0:0::
320,192,13478,1,8,0:0:0:0::
448,192,13630,1,0,0:0:0:0::
64,192,13630,1,8,0:0:0:0::
192,192,13630,128,0,13781:0:0:0:0:
320,192,13781,1,0,0:0:0:0::
448,192,13781,1,0,0:0:0:0::
320,192,13933,1,0,0:0:0:0::
448,192,13933,1,0,0:0:0:0::
320,192,14084,1,0,0:0:0:0::
192,192,14084,1,8,0:0:0:0::
64,192,14084,1,0,0:0:0:0::
192,192,14236,1,0,0:0:0:0::
320,192,14236,1,0,0:0:0:0::
192,192,14387,1,0,0:0:0:0::
320,192,14387,1,0,0:0:0:0::
448,192,14538,1,0,0:0:0:0::
64,192,14538,1,0,0:0:0:0::
320,192,14538,1,8,0:0:0:0::
192,192,14614,1,0,0:0:0:0::
448,192,14691,1,0,0:0:0:0::
64,192,14691,1,0,0:0:0:0::
320,192,14766,1,0,0:0:0:0::
192,192,14766,1,0,0:0:0:0::
64,192,14842,1,0,0:0:0:0::
448,192,14842,1,0,0:0:0:0::
192,192,14993,1,0,0:0:0:0::
320,192,14993,1,0,0:0:0:0::
64,192,15070,1,0,0:0:0:0::
448,192,15070,1,0,0:0:0:0::
320,192,15145,1,0,0:0:0:0::
192,192,15145,1,0,0:0:0:0::
192,192,15296,1,8,0:0:0:0::
448,192,15296,1,0,0:0:0:0::
64,192,15296,1,0,0:0:0:0::
448,192,15751,1,0,0:0:0:0::
320,192,15751,1,0,0:0:0:0::
448,192,16054,1,0,0:0:0:0::
320,192,16054,1,0,0:0:0:0::
320,192,16357,1,0,0:0:0:0::
448,192,16357,1,0,0:0:0:0::
192,192,16508,1,0,0:0:0:0::
64,192,16508,1,0,0:0:0:0::
320,192,16660,1,0,0:0:0:0::
448,192,16660,1,0,0:0:0:0::
192,192,16812,1,0,0:0:0:0::
64,192,16812,1,0,0:0:0:0::
448,192,16963,1,0,0:0:0:0::
320,192,16963,1,0,0:0:0:0::
320,192,17114,1,0,0:0:0:0::
448,192,17114,1,0,0:0:0:0::
64,192,17191,1,0,0:0:0:0::
192,192,17191,1,0,0:0:0:0::
320,192,17266,1,0,0:0:0:0::
448,192,17266,1,0,0:0:0:0::
192,192,17417,1,0,0:0:0:0::
320,192,17417,1,0,0:0:0:0::
448,192,17570,1,0,0:0:0:0::
64,192,17570,1,0,0:0:0:0::
192,192,17721,1,0,0:0:0:0::
320,192,17721,1,0,0:0:0:0::
64,192,17872,1,0,0:0:0:0::
448,192,17872,1,0,0:0:0:0::
448,192,18175,1,0,0:0:0:0::
64,192,18175,1,0,0:0:0:0::
448,192,18478,1,0,0:0:0:0::
64,192,18478,1,0,0:0:0:0::
448,192,18781,1,0,0:0:0:0::
64,192,18781,1,0,0:0:0:0::
192,192,18933,1,0,0:0:0:0::
320,192,18933,1,0,0:0:0:0::
448,192,19084,1,0,0:0:0:0::
64,192,19084,1,0,0:0:0:0::
192,192,19236,1,0,0:0:0:0::
320,192,19236,1,0,0:0:0:0::
448,192,19387,1,0,0:0:0:0::
64,192,19387,1,0,0:0:0:0::
192,192,19538,1,0,0:0:0:0::
320,192,19538,1,0,0:0:0:0::
448,192,19691,1,0,0:0:0:0::
64,192,19691,1,0,0:0:0:0::
192,192,19842,1,0,0:0:0:0::
320,192,19842,1,0,0:0:0:0::
448,192,19917,1,0,0:0:0:0::
64,192,19917,1,0,0:0:0:0::
320,192,19993,1,0,0:0:0:0::
192,192,19993,1,0,0:0:0:0::
64,192,20145,1,0,0:0:0:0::
448,192,20145,1,0,0:0:0:0::
192,192,20296,1,0,0:0:0:0::
64,192,20296,1,0,0:0:0:0::
192,192,20600,1,0,0:0:0:0::
64,192,20600,1,0,0:0:0:0::
64,192,20903,1,0,0:0:0:0::
192,192,20903,1,0,0:0:0:0::
192,192,21205,1,0,0:0:0:0::
64,192,21205,1,0,0:0:0:0::
320,192,21357,1,0,0:0:0:0::
448,192,21357,1,0,0:0:0:0::
64,192,21508,1,0,0:0:0:0::
192,192,21508,1,0,0:0:0:0::
192,192,21660,1,0,0:0:0:0::
64,192,21660,1,0,0:0:0:0::
448,192,21736,1,0,0:0:0:0::
320,192,21736,1,0,0:0:0:0::
192,192,21812,1,0,0:0:0:0::
64,192,21812,1,0,0:0:0:0::
448,192,21963,1,0,0:0:0:0::
192,192,21963,1,0,0:0:0:0::
320,192,22114,1,0,0:0:0:0::
64,192,22114,1,0,0:0:0:0::
192,192,22266,1,0,0:0:0:0::
448,192,22266,1,0,0:0:0:0::
320,192,22417,1,0,0:0:0:0::
64,192,22417,1,0,0:0:0:0::
192,192,22570,1,0,0:0:0:0::
448,192,22570,1,0,0:0:0:0::
320,192,22721,1,0,0:0:0:0::
64,192,22721,1,0,0:0:0:0::
320,192,23024,1,0,0:0:0:0::
64,192,23024,1,0,0:0:0:0::
320,192,23326,1,0,0:0:0:0::
64,192,23326,1,0,0:0:0:0::
320,192,23630,1,0,0:0:0:0::
64,192,23630,1,0,0:0:0:0::
192,192,23781,1,0,0:0:0:0::
448,192,23781,1,0,0:0:0:0::
64,192,23933,1,0,0:0:0:0::
320,192,23933,1,0,0:0:0:0::
192,192,24084,1,0,0:0:0:0::
448,192,24084,1,0,0:0:0:0::
320,192,24236,1,0,0:0:0:0::
64,192,24236,1,0,0:0:0:0::
64,192,24387,1,0,0:0:0:0::
192,192,24387,1,0,0:0:0:0::
64,192,24463,1,0,0:0:0:0::
192,192,24463,1,0,0:0:0:0::
448,192,24538,1,0,0:0:0:0::
320,192,24538,1,0,0:0:0:0::
320,192,24614,1,0,0:0:0:0::
448,192,24614,1,0,0:0:0:0::
64,192,24691,1,0,0:0:0:0::
192,192,24691,1,0,0:0:0:0::
64,192,24766,1,0,0:0:0:0::
192,192,24766,1,0,0:0:0:0::
448,192,24842,1,0,0:0:0:0::
320,192,24842,1,0,0:0:0:0::
192,192,24993,1,0,0:0:0:0::
64,192,24993,1,0,0:0:0:0::
64,192,25296,1,0,0:0:0:0::
192,192,25296,1,0,0:0:0:0::
192,192,25447,1,8,0:0:0:0::
320,192,25447,1,0,0:0:0:0::
448,192,25447,1,0,0:0:0:0::
320,192,25600,1,0,0:0:0:0::
64,192,25600,1,0,0:0:0:0::
192,192,25751,1,0,0:0:0:0::
320,192,25751,1,8,0:0:0:0::
64,192,25751,1,0,0:0:0:0::
320,192,25903,1,0,0:0:0:0::
448,192,25903,1,0,0:0:0:0::
192,192,26054,1,8,0:0:0:0::
64,192,26054,1,0,0:0:0:0::
448,192,26054,1,0,0:0:0:0::
192,192,26205,1,0,0:0:0:0::
64,192,26205,1,0,0:0:0:0::
64,192,26357,1,0,0:0:0:0::
448,192,26357,1,0,0:0:0:0::
320,192,26357,1,8,0:0:0:0::
64,192,26508,1,0,0:0:0:0::
448,192,26508,1,0,0:0:0:0::
448,192,26660,1,0,0:0:0:0::
320,192,26660,1,0,0:0:0:0::
192,192,26660,1,8,0:0:0:0::
192,192,26812,1,0,0:0:0:0::
320,192,26812,1,0,0:0:0:0::
64,192,26887,1,0,0:0:0:0::
448,192,26887,1,0,0:0:0:0::
448,192,26963,1,8,0:0:0:0::
64,192,26963,1,0,0:0:0:0::
192,192,26963,1,0,0:0:0:0::
64,192,27114,1,0,0:0:0:0::
320,192,27114,1,0,0:0:0:0::
320,192,27266,1,0,0:0:0:0::
448,192,27266,1,0,0:0:0:0::
192,192,27266,1,8,0:0:0:0::
192,192,27417,1,0,0:0:0:0::
64,192,27417,1,0,0:0:0:0::
64,192,27721,1,0,0:0:0:0::
192,192,27721,1,0,0:0:0:0::
448,192,27872,1,0,0:0:0:0::
320,192,27872,1,0,0:0:0:0::
192,192,27872,1,8,0:0:0:0::
448,192,28024,1,0,0:0:0:0::
192,192,28024,1,0,0:0:0:0::
320,192,28175,1,0,0:0:0:0::
192,192,28175,1,8,0:0:0:0::
64,192,28175,1,0,0:0:0:0::
448,192,28326,1,0,0:0:0:0::
320,192,28326,1,0,0:0:0:0::
64,192,28478,1,0,0:0:0:0::
192,192,28478,1,8,0:0:0:0::
448,192,28478,1,0,0:0:0:0::
320,192,28630,1,0,0:0:0:0::
192,192,28630,1,0,0:0:0:0::
448,192,28781,1,0,0:0:0:0::
64,192,28781,1,0,0:0:0:0::
320,192,28781,1,8,0:0:0:0::
64,192,28933,1,0,0:0:0:0::
320,192,28933,1,0,0:0:0:0::
192,192,29084,1,8,0:0:0:0::
448,192,29084,1,0,0:0:0:0::
320,192,29084,1,0,0:0:0:0::
64,192,29236,1,0,0:0:0:0::
448,192,29236,1,0,0:0:0:0::
64,192,29387,1,0,0:0:0:0::
192,192,29387,1,8,0:0:0:0::
320,192,29387,1,0,0:0:0:0::
320,192,29538,1,0,0:0:0:0::
448,192,29538,1,0,0:0:0:0::
64,192,29614,1,0,0:0:0:0::
192,192,29614,1,0,0:0:0:0::
192,192,29691,1,0,0:0:0:0::
64,192,29691,1,8,0:0:0:0::
320,192,29691,1,0,0:0:0:0::
64,192,29842,1,0,0:0:0:0::
192,192,29842,1,0,0:0:0:0::
192,192,30145,1,0,0:0:0:0::
320,192,30145,1,0,0:0:0:0::
448,192,30296,1,0,0:0:0:0::
192,192,30296,1,8,0:0:0:0::
64,192,30296,1,0,0:0:0:0::
320,192,30447,1,0,0:0:0:0::
448,192,30447,1,0,0:0:0:0::
64,192,30600,1,0,0:0:0:0::
192,192,30600,1,8,0:0:0:0::
320,192,30600,1,0,0:0:0:0::
64,192,30751,1,0,0:0:0:0::
192,192,30751,1,0,0:0:0:0::
448,192,30903,1,0,0:0:0:0::
320,192,30903,1,8,0:0:0:0::
64,192,30903,1,0,0:0:0:0::
192,192,31054,1,0,0:0:0:0::
448,192,31054,1,0,0:0:0:0::
448,192,31205,1,0,0:0:0:0::
64,192,31205,1,8,0:0:0:0::
320,192,31205,1,0,0:0:0:0::
192,192,31357,1,0,0:0:0:0::
64,192,31357,1,0,0:0:0:0::
320,192,31433,1,0,0:0:0:0::
448,192,31433,1,0,0:0:0:0::
320,192,31508,1,8,0:0:0:0::
448,192,31508,1,0,0:0:0:0::
192,192,31508,1,0,0:0:0:0::
320,192,31660,1,0,0:0:0:0::
448,192,31660,1,0,0:0:0:0::
192,192,31812,1,8,0:0:0:0::
320,192,31812,1,0,0:0:0:0::
64,192,31812,1,0,0:0:0:0::
64,192,31963,1,0,0:0:0:0::
448,192,31963,1,0,0:0:0:0::
448,192,32114,1,0,0:0:0:0::
320,192,32114,1,0,0:0:0:0::
192,192,32114,1,8,0:0:0:0::
64,192,32266,1,8,0:0:0:0::
448,192,32266,1,0,0:0:0:0::
192,192,32266,1,0,0:0:0:0::
64,192,32570,1,0,0:0:0:0::
448,192,32570,1,0,0:0:0:0::
192,192,32721,1,8,0:0:0:0::
320,192,32721,1,0,0:0:0:0::
448,192,32721,1,0,0:0:0:0::
320,192,32872,1,0,0:0:0:0::
64,192,32872,1,0,0:0:0:0::
448,192,33024,1,0,0:0:0:0::
192,192,33024,1,8,0:0:0:0::
64,192,33024,1,0,0:0:0:0::
320,192,33175,1,0,0:0:0:0::
192,192,33175,1,0,0:0:0:0::
448,192,33326,1,0,0:0:0:0::
320,192,33326,1,8,0:0:0:0::
64,192,33326,1,0,0:0:0:0::
192,192,33478,1,0,0:0:0:0::
64,192,33478,1,0,0:0:0:0::
320,192,33630,1,8,0:0:0:0::
192,192,33630,1,0,0:0:0:0::
64,192,33630,1,0,0:0:0:0::
448,192,33781,1,0,0:0:0:0::
320,192,33781,1,0,0:0:0:0::
448,192,33933,1,0,0:0:0:0::
192,192,33933,1,8,0:0:0:0::
64,192,33933,1,0,0:0:0:0::
320,192,34084,1,0,0:0:0:0::
192,192,34084,1,0,0:0:0:0::
448,192,34236,1,0,0:0:0:0::
192,192,34236,1,8,0:0:0:0::
64,192,34236,1,0,0:0:0:0::
320,192,34387,1,0,0:0:0:0::
448,192,34387,1,0,0:0:0:0::
64,192,34463,1,0,0:0:0:0::
192,192,34463,1,0,0:0:0:0::
192,192,34538,1,8,0:0:0:0::
64,192,34538,1,0,0:0:0:0::
320,192,34538,1,0,0:0:0:0::
320,192,34691,1,4,0:0:0:0::
448,192,34691,128,0,38478:0:0:0:0:
192,192,34993,1,0,0:0:0:0::
64,192,35145,1,0,0:0:0:0::
320,192,35296,1,0,0:0:0:0::
64,192,35447,1,0,0:0:0:0::
192,192,35447,1,0,0:0:0:0::
320,192,35600,1,0,0:0:0:0::
192,192,35751,1,0,0:0:0:0::
64,192,35903,1,0,0:0:0:0::
64,192,36054,1,0,0:0:0:0::
192,192,36054,1,0,0:0:0:0::
320,192,36205,1,0,0:0:0:0::
64,192,36357,1,0,0:0:0:0::
192,192,36508,1,0,0:0:0:0::
64,192,36660,1,0,0:0:0:0::
192,192,36660,1,0,0:0:0:0::
320,192,36812,1,0,0:0:0:0::
192,192,36963,1,0,0:0:0:0::
320,192,37114,128,0,37266:0:0:0:0:
64,192,37266,1,0,0:0:0:0::
192,192,37266,1,0,0:0:0:0::
64,192,37417,1,0,0:0:0:0::
192,192,37570,1,0,0:0:0:0::
320,192,37721,1,0,0:0:0:0::
64,192,37872,1,0,0:0:0:0::
192,192,37872,1,0,0:0:0:0::
64,192,38024,1,0,0:0:0:0::
320,192,38175,1,0,0:0:0:0::
192,192,38326,1,0,0:0:0:0::
320,192,38478,1,0,0:0:0:0::
64,192,38478,128,0,38630:0:0:0:0:
192,192,38630,128,0,38781:0:0:0:0:
448,192,38781,128,0,38933:0:0:0:0:
64,192,38933,128,0,39084:0:0:0:0:
320,192,39084,1,0,0:0:0:0::
192,192,39084,1,0,0:0:0:0::
448,192,39236,128,0,39387:0:0:0:0:
320,192,39387,128,0,39538:0:0:0:0:
192,192,39538,128,0,39691:0:0:0:0:
64,192,39691,1,0,0:0:0:0::
448,192,39691,1,0,0:0:0:0::
320,192,39842,128,0,39993:0:0:0:0:
192,192,39993,128,0,40145:0:0:0:0:
64,192,40145,128,0,40296:0:0:0:0:
320,192,40296,128,0,40447:0:0:0:0:
192,192,40296,1,0,0:0:0:0::
448,192,40447,128,0,40600:0:0:0:0:
64,192,40600,128,0,40751:0:0:0:0:
320,192,40751,128,0,40903:0:0:0:0:
448,192,40903,1,0,0:0:0:0::
192,192,40903,128,0,41054:0:0:0:0:
64,192,41054,128,0,41205:0:0:0:0:
320,192,41205,128,0,41357:0:0:0:0:
448,192,41357,128,0,41508:0:0:0:0:
64,192,41508,1,0,0:0:0:0::
192,192,41508,128,0,41660:0:0:0:0:
320,192,41660,128,0,41812:0:0:0:0:
64,192,41812,128,0,41963:0:0:0:0:
448,192,41963,128,0,42114:0:0:0:0:
192,192,42114,1,0,0:0:0:0::
64,192,42114,1,0,0:0:0:0::
320,192,42266,128,0,42417:0:0:0:0:
192,192,42417,128,0,42570:0:0:0:0:
64,192,42570,128,0,42721:0:0:0:0:
192,192,42721,1,0,0:0:0:0::
320,192,42721,128,0,42872:0:0:0:0:
448,192,42872,128,0,43024:0:0:0:0:
64,192,43024,128,0,43175:0:0:0:0:
320,192,43175,1,0,0:0:0:0::
448,192,43175,1,0,0:0:0:0::
320,192,43251,1,0,0:0:0:0::
448,192,43251,1,0,0:0:0:0::
192,192,43326,1,0,0:0:0:0::
64,192,43326,1,0,0:0:0:0::
64,192,43403,1,0,0:0:0:0::
192,192,43403,1,0,0:0:0:0::
320,192,43478,1,0,0:0:0:0::
448,192,43478,1,0,0:0:0:0::
448,192,43554,1,0,0:0:0:0::
320,192,43554,1,0,0:0:0:0::
192,192,43630,1,0,0:0:0:0::
64,192,43630,1,0,0:0:0:0::
448,192,43781,1,0,0:0:0:0::
64,192,43781,1,0,0:0:0:0::
320,192,43857,1,0,0:0:0:0::
192,192,43857,1,0,0:0:0:0::
64,192,43933,1,0,0:0:0:0::
448,192,43933,1,0,0:0:0:0::
448,192,44084,1,0,0:0:0:0::
64,192,44084,1,0,0:0:0:0::
64,192,44160,1,0,0:0:0:0::
448,192,44160,1,0,0:0:0:0::
192,192,44236,1,0,0:0:0:0::
320,192,44236,1,0,0:0:0:0::
64,192,44387,1,8,0:0:0:0::
192,192,44387,1,2,0:0:0:0::
448,192,44387,1,0,0:0:0:0::
64,192,44842,1,0,0:0:0:0::
320,192,44842,1,8,0:0:0:0::
448,192,44842,128,0,45145:0:0:0:0:
192,192,44993,1,0,0:0:0:0::
64,192,44993,1,0,0:0:0:0::
320,192,45145,128,0,45296:0:0:0:0:
192,192,45296,128,0,45447:0:0:0:0:
64,192,45447,128,0,45600:0:0:0:0:
448,192,45447,1,0,0:0:0:0::
320,192,45447,1,8,0:0:0:0::
320,192,45600,1,0,0:0:0:0::
448,192,45600,128,0,46357:0:0:0:0:
192,192,45751,1,0,0:0:0:0::
64,192,45903,1,0,0:0:0:0::
320,192,46054,1,8,0:0:0:0::
192,192,46054,1,0,0:0:0:0::
64,192,46054,1,0,0:0:0:0::
320,192,46357,1,0,0:0:0:0::
64,192,46357,128,0,46508:0:0:0:0:
192,192,46508,128,0,46660:0:0:0:0:
448,192,46508,1,0,0:0:0:0::
64,192,46660,1,8,0:0:0:0::
448,192,46660,1,0,0:0:0:0::
320,192,46660,128,0,47266:0:0:0:0:
64,192,46812,1,0,0:0:0:0::
192,192,46812,1,0,0:0:0:0::
64,192,47114,1,0,0:0:0:0::
64,192,47266,1,0,0:0:0:0::
192,192,47266,1,8,0:0:0:0::
448,192,47266,128,0,47872:0:0:0:0:
192,192,47417,1,0,0:0:0:0::
320,192,47417,1,0,0:0:0:0::
64,192,47721,1,0,0:0:0:0::
320,192,47872,128,0,48024:0:0:0:0:
64,192,47872,1,0,0:0:0:0::
192,192,47872,1,8,0:0:0:0::
448,192,48024,1,0,0:0:0:0::
192,192,48024,128,0,48326:0:0:0:0:
64,192,48326,128,0,48478:0:0:0:0:
192,192,48478,1,0,0:0:0:0::
448,192,48478,128,0,48630:0:0:0:0:
320,192,48478,1,8,0:0:0:0::
320,192,48630,128,0,48781:0:0:0:0:
192,192,48781,1,0,0:0:0:0::
64,192,48781,1,0,0:0:0:0::
320,192,48933,1,0,0:0:0:0::
448,192,48933,128,0,49387:0:0:0:0:
64,192,49084,1,0,0:0:0:0::
192,192,49084,1,8,0:0:0:0::
320,192,49084,1,0,0:0:0:0::
192,192,49387,1,0,0:0:0:0::
320,192,49387,1,2,0:0:0:0::
448,192,49691,1,0,0:0:0:0::
320,192,49691,1,8,0:0:0:0::
64,192,49691,128,0,49993:0:0:0:0:
192,192,49842,1,0,0:0:0:0::
448,192,49842,1,0,0:0:0:0::
320,192,49993,128,0,50145:0:0:0:0:
192,192,50145,128,0,50296:0:0:0:0:
64,192,50296,128,0,50447:0:0:0:0:
320,192,50296,1,8,0:0:0:0::
448,192,50296,1,0,0:0:0:0::
448,192,50447,128,0,51357:0:0:0:0:
192,192,50447,1,0,0:0:0:0::
320,192,50600,1,0,0:0:0:0::
192,192,50751,1,0,0:0:0:0::
320,192,50903,1,8,0:0:0:0::
64,192,50903,1,0,0:0:0:0::
192,192,50903,1,0,0:0:0:0::
320,192,51205,1,0,0:0:0:0::
64,192,51205,1,0,0:0:0:0::
192,192,51357,1,0,0:0:0:0::
320,192,51357,128,0,51508:0:0:0:0:
448,192,51508,1,8,0:0:0:0::
192,192,51508,128,0,51660:0:0:0:0:
64,192,51508,1,8,0:0:0:0::
64,192,51660,1,0,0:0:0:0::
448,192,51660,128,0,51963:0:0:0:0:
192,192,51963,128,0,52114:0:0:0:0:
64,192,52114,128,0,52266:0:0:0:0:
320,192,52114,1,8,0:0:0:0::
448,192,52114,1,0,0:0:0:0::
448,192,52266,128,0,52721:0:0:0:0:
192,192,52417,1,0,0:0:0:0::
320,192,52417,1,0,0:0:0:0::
64,192,52570,1,0,0:0:0:0::
320,192,52645,1,0,0:0:0:0::
64,192,52721,1,0,0:0:0:0::
192,192,52721,128,0,52872:0:0:0:0:
320,192,52872,128,0,53024:0:0:0:0:
448,192,52872,1,0,0:0:0:0::
64,192,53024,128,0,53175:0:0:0:0:
192,192,53024,1,0,0:0:0:0::
448,192,53175,128,0,53326:0:0:0:0:
64,192,53326,1,0,0:0:0:0::
320,192,53326,1,8,0:0:0:0::
192,192,53326,128,0,53478:0:0:0:0:
320,192,53478,1,0,0:0:0:0::
448,192,53478,128,0,53781:0:0:0:0:
320,192,53630,1,0,0:0:0:0::
64,192,53630,1,8,0:0:0:0::
192,192,53630,1,0,0:0:0:0::
320,192,53781,128,0,54236:0:0:0:0:
192,192,53781,1,0,0:0:0:0::
64,192,53933,1,0,0:0:0:0::
448,192,53933,1,0,0:0:0:0::
192,192,53933,1,8,0:0:0:0::
448,192,54084,1,0,0:0:0:0::
64,192,54084,1,0,0:0:0:0::
192,192,54084,1,8,0:0:0:0::
64,192,54236,1,2,0:0:0:0::
192,192,54236,1,0,0:0:0:0::
320,192,54538,1,8,0:0:0:0::
192,192,54538,1,0,0:0:0:0::
448,192,54538,128,0,54842:0:0:0:0:
64,192,54691,1,0,0:0:0:0::
192,192,54691,1,0,0:0:0:0::
320,192,54842,128,0,54993:0:0:0:0:
192,192,54993,128,0,55145:0:0:0:0:
448,192,55145,128,0,55296:0:0:0:0:
64,192,55145,1,0,0:0:0:0::
320,192,55145,1,8,0:0:0:0::
192,192,55296,1,0,0:0:0:0::
64,192,55296,128,0,56205:0:0:0:0:
448,192,55447,1,0,0:0:0:0::
320,192,55600,1,0,0:0:0:0::
448,192,55751,1,0,0:0:0:0::
192,192,55751,1,0,0:0:0:0::
320,192,55751,1,8,0:0:0:0::
320,192,56054,1,0,0:0:0:0::
448,192,56054,1,0,0:0:0:0::
192,192,56205,1,0,0:0:0:0::
320,192,56205,128,0,56357:0:0:0:0:
64,192,56357,1,0,0:0:0:0::
192,192,56357,1,0,0:0:0:0::
448,192,56357,128,8,56508:0:0:0:0:
320,192,56508,1,0,0:0:0:0::
192,192,56508,128,0,56963:0:0:0:0:
448,192,56963,1,0,0:0:0:0::
64,192,56963,1,8,0:0:0:0::
320,192,56963,128,0,57114:0:0:0:0:
448,192,57114,128,0,57570:0:0:0:0:
64,192,57114,1,0,0:0:0:0::
192,192,57570,1,8,0:0:0:0::
320,192,57570,1,0,0:0:0:0::
64,192,57570,128,0,57721:0:0:0:0:
192,192,57721,1,0,0:0:0:0::
320,192,57721,128,0,58100:0:0:0:0:
448,192,58100,128,0,58175:0:0:0:0:
192,192,58175,1,8,0:0:0:0::
320,192,58175,1,0,0:0:0:0::
64,192,58175,128,0,58478:0:0:0:0:
320,192,58326,1,0,0:0:0:0::
192,192,58478,128,0,58630:0:0:0:0:
448,192,58478,1,0,0:0:0:0::
64,192,58630,1,0,0:0:0:0::
448,192,58630,128,0,58781:0:0:0:0:
64,192,58781,1,0,0:0:0:0::
192,192,58781,1,8,0:0:0:0::
320,192,58781,128,0,58933:0:0:0:0:
64,192,58933,128,0,59084:0:0:0:0:
192,192,59084,1,2,0:0:0:0::
448,192,59084,128,0,59691:0:0:0:0:
64,192,59387,1,0,0:0:0:0::
192,192,59387,1,8,0:0:0:0::
320,192,59387,1,0,0:0:0:0::
320,192,59691,1,0,0:0:0:0::
192,192,59691,128,0,59993:0:0:0:0:
64,192,59842,1,0,0:0:0:0::
320,192,59917,1,0,0:0:0:0::
448,192,59993,1,0,0:0:0:0::
64,192,59993,128,0,60296:0:0:0:0:
448,192,60145,1,0,0:0:0:0::
320,192,60145,1,0,0:0:0:0::
448,192,60296,128,0,60447:0:0:0:0:
320,192,60447,128,0,60751:0:0:0:0:
192,192,60600,1,8,0:0:0:0::
64,192,60600,1,0,0:0:0:0::
448,192,60600,1,0,0:0:0:0::
192,192,60751,128,0,61054:0:0:0:0:
64,192,60903,1,0,0:0:0:0::
448,192,60903,1,0,0:0:0:0::
448,192,61054,1,0,0:0:0:0::
64,192,61054,128,0,61433:0:0:0:0:
192,192,61205,1,0,0:0:0:0::
320,192,61205,1,8,0:0:0:0::
448,192,61205,1,0,0:0:0:0::
192,192,61357,1,0,0:0:0:0::
320,192,61357,1,0,0:0:0:0::
448,192,61433,128,0,61508:0:0:0:0:
320,192,61508,1,0,0:0:0:0::
192,192,61508,128,0,61660:0:0:0:0:
64,192,61660,128,0,61812:0:0:0:0:
320,192,61812,128,0,61963:0:0:0:0:
448,192,61812,1,0,0:0:0:0::
192,192,61812,1,8,0:0:0:0::
192,192,61963,128,0,62266:0:0:0:0:
64,192,61963,1,0,0:0:0:0::
448,192,62266,128,0,62417:0:0:0:0:
320,192,62266,1,0,0:0:0:0::
192,192,62417,1,0,0:0:0:0::
320,192,62417,1,8,0:0:0:0::
64,192,62417,128,0,62570:0:0:0:0:
320,192,62570,128,0,62721:0:0:0:0:
448,192,62721,128,0,62872:0:0:0:0:
192,192,62721,1,0,0:0:0:0::
64,192,62872,128,0,63024:0:0:0:0:
192,192,63024,128,0,63175:0:0:0:0:
320,192,63024,1,8,0:0:0:0::
448,192,63024,1,0,0:0:0:0::
448,192,63175,128,0,63630:0:0:0:0:
320,192,63175,1,0,0:0:0:0::
192,192,63251,1,0,0:0:0:0::
64,192,63251,1,0,0:0:0:0::
64,192,63326,1,0,0:0:0:0::
192,192,63326,1,0,0:0:0:0::
320,192,63326,1,8,0:0:0:0::
64,192,63478,1,0,0:0:0:0::
320,192,63478,1,0,0:0:0:0::
192,192,63630,1,0,0:0:0:0::
64,192,63630,128,0,63781:0:0:0:0:
320,192,63781,1,2,0:0:0:0::
192,192,63781,128,0,64538:0:0:0:0:
320,192,64236,1,8,0:0:0:0::
64,192,64236,1,0,0:0:0:0::
448,192,64236,1,0,0:0:0:0::
448,192,64538,128,0,64842:0:0:0:0:
320,192,64538,1,0,0:0:0:0::
64,192,64691,1,0,0:0:0:0::
320,192,64691,1,0,0:0:0:0::
64,192,64842,1,0,0:0:0:0::
320,192,64842,1,8,0:0:0:0::
192,192,64842,128,0,65145:0:0:0:0:
64,192,65145,128,0,65751:0:0:0:0:
320,192,65145,1,0,0:0:0:0::
192,192,65447,1,8,0:0:0:0::
320,192,65447,1,0,0:0:0:0::
448,192,65447,1,0,0:0:0:0::
320,192,65751,1,0,0:0:0:0::
192,192,65751,128,0,66054:0:0:0:0:
448,192,66054,1,8,0:0:0:0::
64,192,66054,1,0,0:0:0:0::
320,192,66054,128,0,66130:0:0:0:0:
448,192,66205,1,2,0:0:0:0::
64,192,66205,128,8,66508:0:0:0:0:
320,192,66508,128,0,66660:0:0:0:0:
192,192,66660,128,0,67570:0:0:0:0:
448,192,66660,1,0,0:0:0:0::
64,192,66660,1,8,0:0:0:0::
64,192,66963,1,0,0:0:0:0::
320,192,67114,1,0,0:0:0:0::
448,192,67114,1,0,0:0:0:0::
64,192,67266,1,0,0:0:0:0::
320,192,67266,1,8,0:0:0:0::
448,192,67266,1,0,0:0:0:0::
64,192,67570,1,0,0:0:0:0::
320,192,67570,128,0,67721:0:0:0:0:
448,192,67721,128,0,67872:0:0:0:0:
192,192,67872,128,0,68024:0:0:0:0:
64,192,67872,1,0,0:0:0:0::
320,192,67872,1,8,0:0:0:0::
320,192,68024,128,0,68175:0:0:0:0:
64,192,68175,128,0,68326:0:0:0:0:
448,192,68175,1,0,0:0:0:0::
448,192,68326,128,0,68478:0:0:0:0:
192,192,68326,1,0,0:0:0:0::
192,192,68478,128,0,68630:0:0:0:0:
320,192,68478,1,8,0:0:0:0::
64,192,68478,1,0,0:0:0:0::
64,192,68630,128,0,68781:0:0:0:0:
320,192,68781,128,0,69084:0:0:0:0:
448,192,68781,1,2,0:0:0:0::
64,192,69084,1,8,0:0:0:0::
192,192,69084,128,0,69236:0:0:0:0:
448,192,69084,1,0,0:0:0:0::
448,192,69236,128,0,69387:0:0:0:0:
320,192,69387,128,0,69538:0:0:0:0:
192,192,69538,128,0,69691:0:0:0:0:
64,192,69538,1,0,0:0:0:0::
64,192,69691,128,0,69842:0:0:0:0:
320,192,69691,1,0,0:0:0:0::
448,192,69691,1,8,0:0:0:0::
320,192,69842,128,0,70145:0:0:0:0:
448,192,69842,1,2,0:0:0:0::
448,192,70145,128,0,70296:0:0:0:0:
320,192,70296,1,0,0:0:0:0::
192,192,70296,128,0,70447:0:0:0:0:
64,192,70296,1,8,0:0:0:0::
64,192,70447,128,0,70600:0:0:0:0:
448,192,70600,1,0,0:0:0:0::
320,192,70600,128,0,70751:0:0:0:0:
64,192,70751,1,0,0:0:0:0::
192,192,70751,128,0,70903:0:0:0:0:
320,192,70903,1,8,0:0:0:0::
64,192,70903,1,0,0:0:0:0::
448,192,70903,128,0,71054:0:0:0:0:
192,192,71054,128,0,71357:0:0:0:0:
320,192,71054,1,2,0:0:0:0::
64,192,71357,128,0,71508:0:0:0:0:
448,192,71508,1,8,0:0:0:0::
320,192,71508,128,0,71660:0:0:0:0:
192,192,71508,1,0,0:0:0:0::
64,192,71660,128,0,71812:0:0:0:0:
448,192,71812,1,0,0:0:0:0::
192,192,71812,128,0,71963:0:0:0:0:
320,192,71963,128,0,72114:0:0:0:0:
64,192,71963,1,0,0:0:0:0::
448,192,72114,128,0,72266:0:0:0:0:
192,192,72114,1,8,0:0:0:0::
64,192,72114,1,0,0:0:0:0::
320,192,72266,128,0,72342:0:0:0:0:
192,192,72342,128,0,72417:0:0:0:0:
448,192,72417,1,2,0:0:0:0::
64,192,72417,128,0,72721:0:0:0:0:
320,192,72417,1,8,0:0:0:0::
192,192,72570,1,0,0:0:0:0::
320,192,72721,1,0,0:0:0:0::
448,192,72721,1,0,0:0:0:0::
64,192,72796,1,0,0:0:0:0::
192,192,72796,1,0,0:0:0:0::
320,192,72872,1,0,0:0:0:0::
448,192,72872,1,0,0:0:0:0::
64,192,72947,1,0,0:0:0:0::
192,192,72947,1,0,0:0:0:0::
320,192,73024,1,0,0:0:0:0::
448,192,73024,1,0,0:0:0:0::
64,192,73100,1,0,0:0:0:0::
192,192,73100,1,0,0:0:0:0::
320,192,73175,1,0,0:0:0:0::
448,192,73175,1,0,0:0:0:0::
64,192,73251,1,0,0:0:0:0::
192,192,73251,1,0,0:0:0:0::
320,192,73326,1,0,0:0:0:0::
448,192,73326,1,0,0:0:0:0::
64,192,73403,1,0,0:0:0:0::
192,192,73403,1,0,0:0:0:0::
320,192,73478,1,0,0:0:0:0::
448,192,73478,1,0,0:0:0:0::
64,192,73554,1,0,0:0:0:0::
192,192,73554,1,0,0:0:0:0::
320,192,73630,1,8,0:0:0:0::
192,192,73630,1,0,0:0:0:0::
448,192,73630,128,0,74236:0:0:0:0:
192,192,73933,1,0,0:0:0:0::
320,192,73933,1,0,0:0:0:0::
64,192,73933,1,8,0:0:0:0::
320,192,74236,128,0,74842:0:0:0:0:
64,192,74236,1,0,0:0:0:0::
64,192,74387,1,0,0:0:0:0::
448,192,74387,1,0,0:0:0:0::
192,192,74538,1,8,0:0:0:0::
448,192,74538,1,0,0:0:0:0::
64,192,74538,1,0,0:0:0:0::
192,192,74842,1,0,0:0:0:0::
64,192,74842,128,0,75447:0:0:0:0:
192,192,75145,1,0,0:0:0:0::
320,192,75145,1,8,0:0:0:0::
448,192,75145,1,0,0:0:0:0::
320,192,75447,1,0,0:0:0:0::
192,192,75447,128,0,75903:0:0:0:0:
320,192,75751,1,8,0:0:0:0::
448,192,75751,1,0,0:0:0:0::
64,192,75751,1,0,0:0:0:0::
320,192,75903,1,2,0:0:0:0::
448,192,75903,128,0,76205:0:0:0:0:
192,192,76205,128,0,76357:0:0:0:0:
64,192,76357,128,0,76660:0:0:0:0:
320,192,76357,1,8,0:0:0:0::
448,192,76357,1,0,0:0:0:0::
192,192,76660,128,0,76736:0:0:0:0:
320,192,76736,128,0,76887:0:0:0:0:
64,192,76887,128,0,76963:0:0:0:0:
192,192,76963,1,8,0:0:0:0::
448,192,76963,128,0,77191:0:0:0:0:
320,192,76963,1,0,0:0:0:0::
192,192,77191,128,0,77266:0:0:0:0:
320,192,77266,128,0,77417:0:0:0:0:
64,192,77266,1,0,0:0:0:0::
448,192,77417,128,0,77570:0:0:0:0:
320,192,77570,1,8,0:0:0:0::
192,192,77570,128,0,77721:0:0:0:0:
64,192,77570,1,0,0:0:0:0::
64,192,77721,128,0,77872:0:0:0:0:
320,192,77872,1,0,0:0:0:0::
448,192,77872,128,0,78024:0:0:0:0:
320,192,78024,1,0,0:0:0:0::
192,192,78024,128,0,78175:0:0:0:0:
64,192,78175,1,0,0:0:0:0::
448,192,78175,1,8,0:0:0:0::
320,192,78175,128,0,78326:0:0:0:0:
192,192,78326,1,2,0:0:0:0::
64,192,78326,128,0,78580:0:0:0:0:
448,192,78681,128,0,78781:0:0:0:0:
192,192,78781,128,0,78933:0:0:0:0:
320,192,78781,1,8,0:0:0:0::
64,192,78781,1,0,0:0:0:0::
64,192,78933,128,0,79084:0:0:0:0:
320,192,79084,128,0,79236:0:0:0:0:
448,192,79236,128,0,79387:0:0:0:0:
192,192,79236,1,0,0:0:0:0::
192,192,79387,128,0,79538:0:0:0:0:
64,192,79387,1,0,0:0:0:0::
320,192,79387,1,8,0:0:0:0::
64,192,79538,1,2,0:0:0:0::
320,192,79538,128,0,79792:0:0:0:0:
64,192,79892,128,0,79993:0:0:0:0:
192,192,79993,1,0,0:0:0:0::
320,192,79993,128,0,80145:0:0:0:0:
448,192,80145,128,0,80296:0:0:0:0:
192,192,80296,128,0,80447:0:0:0:0:
64,192,80296,1,0,0:0:0:0::
448,192,80447,1,0,0:0:0:0::
320,192,80447,128,0,80600:0:0:0:0:
192,192,80600,5,8,0:0:0:0::
448,192,80600,1,0,0:0:0:0::
64,192,80600,128,0,80751:0:0:0:0:
320,192,80751,1,0,0:0:0:0::
192,192,80751,128,2,80903:0:0:0:0:
64,192,80903,1,0,0:0:0:0::
448,192,80978,1,0,0:0:0:0::
192,192,81054,1,0,0:0:0:0::
64,192,81130,1,0,0:0:0:0::
192,192,81205,1,0,0:0:0:0::
320,192,81205,1,0,0:0:0:0::
448,192,81281,1,0,0:0:0:0::
64,192,81357,1,0,0:0:0:0::
192,192,81433,1,0,0:0:0:0::
320,192,81508,1,0,0:0:0:0::
448,192,81584,1,0,0:0:0:0::
192,192,81660,1,0,0:0:0:0::
64,192,81660,1,0,0:0:0:0::
320,192,81736,1,0,0:0:0:0::
192,192,81812,1,8,0:0:0:0::
64,192,81812,1,0,0:0:0:0::
448,192,81812,1,0,0:0:0:0::
320,192,81887,1,0,0:0:0:0::
192,192,81963,1,0,0:0:0:0::
64,192,82038,1,0,0:0:0:0::
320,192,82114,1,0,0:0:0:0::
192,192,82114,1,0,0:0:0:0::
448,192,82191,1,0,0:0:0:0::
192,192,82266,1,0,0:0:0:0::
64,192,82342,1,0,0:0:0:0::
192,192,82417,1,0,0:0:0:0::
320,192,82417,1,0,0:0:0:0::
448,192,82493,1,0,0:0:0:0::
64,192,82570,1,0,0:0:0:0::
192,192,82570,1,0,0:0:0:0::
448,192,82645,1,0,0:0:0:0::
320,192,82645,1,0,0:0:0:0::
64,192,82721,1,0,0:0:0:0::
192,192,82721,1,0,0:0:0:0::
448,192,82796,1,0,0:0:0:0::
320,192,82796,1,0,0:0:0:0::
64,192,82872,1,0,0:0:0:0::
192,192,82872,1,0,0:0:0:0::
448,192,83024,1,0,0:0:0:0::
64,192,83024,1,0,0:0:0:0::
448,192,83175,1,0,0:0:0:0::
320,192,83175,1,0,0:0:0:0::
64,192,83251,1,0,0:0:0:0::
192,192,83251,1,0,0:0:0:0::
64,192,83326,1,2,0:0:0:0::
448,192,83326,1,8,0:0:0:0::
192,192,83326,1,0,0:0:0:0::
320,192,84084,1,0,0:0:0:0::
448,192,84084,1,0,0:0:0:0::
64,192,84160,1,0,0:0:0:0::
192,192,84160,1,0,0:0:0:0::
192,192,84236,1,0,0:0:0:0::
320,192,84236,1,8,0:0:0:0::
448,192,84236,128,0,84387:0:0:0:0:
64,192,84387,128,0,84538:0:0:0:0:
448,192,84538,1,0,0:0:0:0::
320,192,84538,128,0,84842:0:0:0:0:
64,192,84842,1,8,0:0:0:0::
448,192,84842,1,0,0:0:0:0::
192,192,84842,128,0,85296:0:0:0:0:
320,192,85145,128,0,85296:0:0:0:0:
448,192,85296,128,0,85447:0:0:0:0:
64,192,85296,1,0,0:0:0:0::
192,192,85447,1,0,0:0:0:0::
320,192,85447,1,8,0:0:0:0::
64,192,85447,128,0,85600:0:0:0:0:
448,192,85600,1,0,0:0:0:0::
320,192,85600,128,0,85903:0:0:0:0:
192,192,85903,128,0,86054:0:0:0:0:
448,192,86054,128,0,86205:0:0:0:0:
64,192,86054,1,0,0:0:0:0::
320,192,86054,1,8,0:0:0:0::
320,192,86357,128,0,86508:0:0:0:0:
64,192,86357,1,0,0:0:0:0::
192,192,86508,128,0,86660:0:0:0:0:
448,192,86508,1,0,0:0:0:0::
320,192,86660,1,8,0:0:0:0::
64,192,86660,128,0,86812:0:0:0:0:
448,192,86660,1,0,0:0:0:0::
192,192,86812,1,0,0:0:0:0::
448,192,86812,128,0,87721:0:0:0:0:
192,192,87266,1,8,0:0:0:0::
64,192,87266,1,0,0:0:0:0::
320,192,87266,1,0,0:0:0:0::
320,192,87570,1,0,0:0:0:0::
192,192,87570,1,0,0:0:0:0::
64,192,87721,128,0,87872:0:0:0:0:
192,192,87872,128,0,88024:0:0:0:0:
320,192,87872,1,8,0:0:0:0::
448,192,87872,1,0,0:0:0:0::
448,192,88024,128,0,88326:0:0:0:0:
320,192,88024,1,0,0:0:0:0::
320,192,88326,1,0,0:0:0:0::
64,192,88326,128,0,88478:0:0:0:0:
448,192,88478,1,0,0:0:0:0::
192,192,88478,1,8,0:0:0:0::
320,192,88478,128,0,88630:0:0:0:0:
192,192,88630,128,0,88933:0:0:0:0:
64,192,88933,1,0,0:0:0:0::
448,192,88933,1,0,0:0:0:0::
320,192,89008,1,0,0:0:0:0::
192,192,89008,1,0,0:0:0:0::
320,192,89084,1,8,0:0:0:0::
64,192,89084,1,0,0:0:0:0::
448,192,89084,128,0,89236:0:0:0:0:
64,192,89236,1,2,0:0:0:0::
192,192,89236,128,0,89691:0:0:0:0:
64,192,89691,1,8,0:0:0:0::
448,192,89691,1,0,0:0:0:0::
320,192,89691,128,0,89993:0:0:0:0:
64,192,89993,1,0,0:0:0:0::
448,192,89993,128,0,90145:0:0:0:0:
192,192,90145,128,0,90296:0:0:0:0:
64,192,90296,128,0,90447:0:0:0:0:
320,192,90296,1,8,0:0:0:0::
448,192,90296,1,0,0:0:0:0::
192,192,90447,1,0,0:0:0:0::
448,192,90447,128,0,90751:0:0:0:0:
320,192,90751,128,0,90903:0:0:0:0:
192,192,90903,1,8,0:0:0:0::
448,192,90903,1,0,0:0:0:0::
64,192,90903,128,0,91054:0:0:0:0:
448,192,91205,1,0,0:0:0:0::
192,192,91205,128,0,91357:0:0:0:0:
64,192,91357,1,0,0:0:0:0::
320,192,91357,128,0,91508:0:0:0:0:
64,192,91508,1,0,0:0:0:0::
192,192,91508,1,8,0:0:0:0::
448,192,91508,128,0,91660:0:0:0:0:
320,192,91660,1,0,0:0:0:0::
192,192,91660,128,0,91963:0:0:0:0:
448,192,91963,128,0,92114:0:0:0:0:
320,192,92114,1,8,0:0:0:0::
192,192,92114,1,0,0:0:0:0::
64,192,92114,128,0,92266:0:0:0:0:
448,192,92266,1,0,0:0:0:0::
192,192,92266,128,0,92417:0:0:0:0:
320,192,92417,128,0,92570:0:0:0:0:
448,192,92417,1,0,0:0:0:0::
64,192,92570,128,0,92872:0:0:0:0:
192,192,92721,1,8,0:0:0:0::
320,192,92721,1,0,0:0:0:0::
448,192,92721,1,0,0:0:0:0::
320,192,92872,1,0,0:0:0:0::
448,192,92872,128,0,93024:0:0:0:0:
192,192,93024,128,0,93175:0:0:0:0:
64,192,93024,1,0,0:0:0:0::
320,192,93175,128,0,93251:0:0:0:0:
448,192,93251,128,0,93326:0:0:0:0:
192,192,93326,1,0,0:0:0:0::
320,192,93326,1,8,0:0:0:0::
64,192,93326,128,0,93478:0:0:0:0:
192,192,93478,1,0,0:0:0:0::
320,192,93478,1,0,0:0:0:0::
448,192,93554,128,0,93630:0:0:0:0:
320,192,93630,1,8,0:0:0:0::
192,192,93630,1,0,0:0:0:0::
64,192,93630,1,0,0:0:0:0::
64,192,93731,1,0,0:0:0:0::
192,192,93731,128,0,93832:0:0:0:0:
448,192,93832,1,0,0:0:0:0::
320,192,93832,128,0,93933:0:0:0:0:
64,192,93933,128,0,94034:0:0:0:0:
192,192,94034,128,0,94135:0:0:0:0:
448,192,94135,128,0,94236:0:0:0:0:
64,192,94236,1,2,0:0:0:0::
192,192,94236,1,8,0:0:0:0::
320,192,94236,128,0,94387:0:0:0:0:
192,192,94387,128,0,94538:0:0:0:0:
448,192,94538,1,0,0:0:0:0::
64,192,94538,128,0,94691:0:0:0:0:
320,192,94538,1,8,0:0:0:0::
192,192,94691,1,0,0:0:0:0::
448,192,94691,128,0,94842:0:0:0:0:
320,192,94842,1,0,0:0:0:0::
192,192,94842,128,0,94993:0:0:0:0:
320,192,94993,1,8,0:0:0:0::
448,192,94993,1,0,0:0:0:0::
64,192,94993,128,0,95145:0:0:0:0:
448,192,95145,1,0,0:0:0:0::
320,192,95296,128,0,95447:0:0:0:0:
192,192,95296,1,8,0:0:0:0::
64,192,95296,1,0,0:0:0:0::
192,192,95447,1,0,0:0:0:0::
448,192,95447,128,0,95600:0:0:0:0:
320,192,95600,1,0,0:0:0:0::
192,192,95600,128,0,95751:0:0:0:0:
64,192,95751,1,8,0:0:0:0::
448,192,95751,1,0,0:0:0:0::
320,192,95751,128,0,95903:0:0:0:0:
192,192,95903,1,0,0:0:0:0::
64,192,95903,128,0,96054:0:0:0:0:
320,192,96054,1,8,0:0:0:0::
448,192,96054,128,0,96205:0:0:0:0:
192,192,96054,1,0,0:0:0:0::
192,192,96205,1,8,0:0:0:0::
64,192,96205,1,0,0:0:0:0::
320,192,96205,128,0,96357:0:0:0:0:
64,192,96357,1,2,0:0:0:0::
448,192,96357,1,0,0:0:0:0::
192,192,96508,1,8,0:0:0:0::
320,192,96508,1,0,0:0:0:0::
448,192,96508,128,0,96660:0:0:0:0:
64,192,96660,1,0,0:0:0:0::
320,192,96660,128,0,96812:0:0:0:0:
192,192,96812,1,8,0:0:0:0::
448,192,96812,1,0,0:0:0:0::
64,192,96812,128,0,96963:0:0:0:0:
320,192,96963,1,0,0:0:0:0::
192,192,96963,128,0,97114:0:0:0:0:
64,192,97114,1,0,0:0:0:0::
448,192,97114,128,0,97266:0:0:0:0:
320,192,97266,1,8,0:0:0:0::
192,192,97266,1,0,0:0:0:0::
64,192,97266,128,0,97417:0:0:0:0:
448,192,97417,1,0,0:0:0:0::
320,192,97417,128,0,97570:0:0:0:0:
192,192,97570,1,8,0:0:0:0::
64,192,97570,1,0,0:0:0:0::
448,192,97570,1,0,0:0:0:0::
320,192,97721,1,0,0:0:0:0::
192,192,97796,1,0,0:0:0:0::
64,192,97872,1,0,0:0:0:0::
320,192,97872,1,0,0:0:0:0::
448,192,97947,1,0,0:0:0:0::
192,192,98024,1,0,0:0:0:0::
64,192,98100,1,0,0:0:0:0::
320,192,98175,1,0,0:0:0:0::
448,192,98175,1,0,0:0:0:0::
192,192,98251,1,0,0:0:0:0::
64,192,98326,1,0,0:0:0:0::
448,192,98403,1,0,0:0:0:0::
320,192,98478,1,0,0:0:0:0::
192,192,98478,1,0,0:0:0:0::
64,192,98554,1,0,0:0:0:0::
320,192,98630,1,0,0:0:0:0::
192,192,98705,1,0,0:0:0:0::
448,192,98781,1,0,0:0:0:0::
64,192,98781,1,0,0:0:0:0::
320,192,98781,1,8,0:0:0:0::
192,192,98933,1,0,0:0:0:0::
64,192,98933,1,0,0:0:0:0::
64,192,99084,1,0,0:0:0:0::
320,192,99084,1,8,0:0:0:0::
448,192,99084,1,0,0:0:0:0::
320,192,99236,1,0,0:0:0:0::
192,192,99236,1,0,0:0:0:0::
192,192,99387,1,0,0:0:0:0::
320,192,99387,1,0,0:0:0:0::
448,192,99538,1,8,0:0:0:0::
192,192,99538,1,0,0:0:0:0::
64,192,99538,1,0,0:0:0:0::
64,192,99691,1,0,0:0:0:0::
448,192,99691,1,0,0:0:0:0::
64,192,99842,1,0,0:0:0:0::
448,192,99842,1,0,0:0:0:0::
320,192,99993,1,8,0:0:0:0::
448,192,99993,1,0,0:0:0:0::
192,192,99993,1,0,0:0:0:0::
192,192,100145,1,0,0:0:0:0::
64,192,100145,1,0,0:0:0:0::
320,192,100296,1,8,0:0:0:0::
64,192,100296,1,0,0:0:0:0::
448,192,100296,1,0,0:0:0:0::
320,192,100447,1,0,0:0:0:0::
448,192,100447,1,0,0:0:0:0::
320,192,100600,1,0,0:0:0:0::
448,192,100600,1,0,0:0:0:0::
320,192,100751,1,0,0:0:0:0::
64,192,100751,1,0,0:0:0:0::
192,192,100751,1,8,0:0:0:0::
192,192,100903,1,0,0:0:0:0::
448,192,100903,1,0,0:0:0:0::
192,192,101054,1,0,0:0:0:0::
448,192,101054,1,0,0:0:0:0::
320,192,101054,1,8,0:0:0:0::
320,192,101205,1,0,0:0:0:0::
64,192,101205,1,0,0:0:0:0::
64,192,101357,1,0,0:0:0:0::
320,192,101357,1,0,0:0:0:0::
192,192,101508,1,8,0:0:0:0::
320,192,101508,1,0,0:0:0:0::
448,192,101508,1,0,0:0:0:0::
192,192,101660,1,0,0:0:0:0::
64,192,101660,1,0,0:0:0:0::
64,192,101812,1,2,0:0:0:0::
192,192,101812,1,8,0:0:0:0::
448,192,101812,1,0,0:0:0:0::
320,192,101963,1,0,0:0:0:0::
192,192,101963,1,0,0:0:0:0::
192,192,102114,1,0,0:0:0:0::
320,192,102114,1,0,0:0:0:0::
320,192,102266,1,8,0:0:0:0::
448,192,102266,1,0,0:0:0:0::
64,192,102266,1,0,0:0:0:0::
448,192,102417,1,0,0:0:0:0::
192,192,102417,1,0,0:0:0:0::
192,192,102570,1,0,0:0:0:0::
448,192,102570,1,0,0:0:0:0::
192,192,102721,1,8,0:0:0:0::
64,192,102721,1,0,0:0:0:0::
448,192,102721,1,0,0:0:0:0::
448,192,102872,1,0,0:0:0:0::
64,192,102872,1,0,0:0:0:0::
320,192,103024,1,8,0:0:0:0::
192,192,103024,1,0,0:0:0:0::
448,192,103024,1,0,0:0:0:0::
192,192,103175,1,0,0:0:0:0::
320,192,103175,1,0,0:0:0:0::
320,192,103326,1,0,0:0:0:0::
192,192,103326,1,8,0:0:0:0::
64,192,103326,1,0,0:0:0:0::
448,192,103478,1,0,0:0:0:0::
320,192,103478,1,8,0:0:0:0::
64,192,103478,1,0,0:0:0:0::
64,192,103630,1,0,0:0:0:0::
192,192,103630,1,2,0:0:0:0::
64,192,103781,1,0,0:0:0:0::
192,192,103781,1,0,0:0:0:0::
448,192,103933,1,0,0:0:0:0::
320,192,103933,1,8,0:0:0:0::
192,192,103933,1,0,0:0:0:0::
448,192,104084,1,0,0:0:0:0::
192,192,104084,1,0,0:0:0:0::
192,192,104236,1,0,0:0:0:0::
448,192,104236,1,0,0:0:0:0::
320,192,104387,1,8,0:0:0:0::
64,192,104387,1,0,0:0:0:0::
448,192,104387,1,0,0:0:0:0::
64,192,104538,1,0,0:0:0:0::
320,192,104538,1,0,0:0:0:0::
192,192,104691,1,8,0:0:0:0::
320,192,104691,1,0,0:0:0:0::
448,192,104691,1,0,0:0:0:0::
64,192,104842,1,0,0:0:0:0::
192,192,104842,1,0,0:0:0:0::
320,192,104842,1,8,0:0:0:0::
448,192,104993,1,0,0:0:0:0::
192,192,104993,1,8,0:0:0:0::
64,192,104993,1,0,0:0:0:0::
320,192,105145,1,8,0:0:0:0::
448,192,105145,1,0,0:0:0:0::
64,192,105145,1,0,0:0:0:0::
192,192,105296,1,0,0:0:0:0::
320,192,105296,1,8,0:0:0:0::
64,192,105296,1,0,0:0:0:0::
448,192,105447,1,0,0:0:0:0::
192,192,105447,1,8,0:0:0:0::
320,192,105447,1,2,0:0:0:0::
64,192,105600,1,0,0:0:0:0::
192,192,105600,1,0,0:0:0:0::
64,192,105751,1,0,0:0:0:0::
192,192,105751,1,0,0:0:0:0::
64,192,105903,1,0,0:0:0:0::
320,192,105903,1,8,0:0:0:0::
448,192,105903,1,0,0:0:0:0::
320,192,106054,1,0,0:0:0:0::
192,192,106054,1,0,0:0:0:0::
192,192,106205,1,0,0:0:0:0::
320,192,106205,1,0,0:0:0:0::
448,192,106357,1,0,0:0:0:0::
64,192,106357,1,0,0:0:0:0::
192,192,106357,1,8,0:0:0:0::
448,192,106508,1,0,0:0:0:0::
320,192,106508,1,0,0:0:0:0::
320,192,106660,1,0,0:0:0:0::
448,192,106660,1,0,0:0:0:0::
192,192,106660,1,8,0:0:0:0::
320,192,106812,1,0,0:0:0:0::
64,192,106812,1,0,0:0:0:0::
64,192,106963,1,0,0:0:0:0::
320,192,106963,1,0,0:0:0:0::
64,192,107114,1,0,0:0:0:0::
192,192,107114,1,0,0:0:0:0::
320,192,107114,1,8,0:0:0:0::
448,192,107266,1,0,0:0:0:0::
192,192,107266,1,0,0:0:0:0::
320,192,107417,1,8,0:0:0:0::
448,192,107417,1,0,0:0:0:0::
192,192,107417,1,0,0:0:0:0::
448,192,107570,1,0,0:0:0:0::
320,192,107570,1,0,0:0:0:0::
320,192,107721,1,0,0:0:0:0::
448,192,107721,1,0,0:0:0:0::
192,192,107872,1,8,0:0:0:0::
64,192,107872,1,0,0:0:0:0::
448,192,107872,1,0,0:0:0:0::
320,192,108024,1,0,0:0:0:0::
192,192,108024,1,0,0:0:0:0::
64,192,108175,1,0,0:0:0:0::
320,192,108175,1,8,0:0:0:0::
448,192,108175,1,2,0:0:0:0::
64,192,108326,1,0,0:0:0:0::
192,192,108326,1,0,0:0:0:0::
64,192,108478,1,0,0:0:0:0::
192,192,108478,1,0,0:0:0:0::
64,192,108630,1,0,0:0:0:0::
192,192,108630,1,8,0:0:0:0::
320,192,108630,1,0,0:0:0:0::
448,192,108781,1,0,0:0:0:0::
64,192,108781,1,0,0:0:0:0::
64,192,108933,1,0,0:0:0:0::
448,192,108933,1,0,0:0:0:0::
320,192,109084,1,8,0:0:0:0::
192,192,109084,1,0,0:0:0:0::
448,192,109084,1,0,0:0:0:0::
192,192,109236,1,0,0:0:0:0::
448,192,109236,1,0,0:0:0:0::
320,192,109387,1,8,0:0:0:0::
64,192,109387,1,0,0:0:0:0::
448,192,109387,1,0,0:0:0:0::
320,192,109538,1,0,0:0:0:0::
64,192,109538,1,0,0:0:0:0::
64,192,109691,1,0,0:0:0:0::
192,192,109691,1,8,0:0:0:0::
448,192,109691,1,0,0:0:0:0::
320,192,109842,1,8,0:0:0:0::
448,192,109842,1,0,0:0:0:0::
192,192,109842,1,0,0:0:0:0::
192,192,109993,1,2,0:0:0:0::
320,192,109993,1,0,0:0:0:0::
192,192,110145,1,0,0:0:0:0::
320,192,110145,1,0,0:0:0:0::
320,192,110296,1,0,0:0:0:0::
448,192,110296,1,0,0:0:0:0::
64,192,110372,1,0,0:0:0:0::
192,192,110372,1,0,0:0:0:0::
320,192,110447,1,0,0:0:0:0::
448,192,110447,1,0,0:0:0:0::
64,192,110524,1,0,0:0:0:0::
192,192,110524,1,0,0:0:0:0::
192,192,110600,1,0,0:0:0:0::
320,192,110600,1,8,0:0:0:0::
448,192,110600,1,0,0:0:0:0::
192,192,110751,1,0,0:0:0:0::
320,192,110751,1,0,0:0:0:0::
448,192,110826,1,0,0:0:0:0::
64,192,110826,1,0,0:0:0:0::
320,192,110903,1,8,0:0:0:0::
448,192,110903,1,0,0:0:0:0::
192,192,110903,128,0,111812:0:0:0:0:
320,192,111054,128,0,111205:0:0:0:0:
448,192,111205,128,0,111357:0:0:0:0:
64,192,111357,128,0,111508:0:0:0:0:
320,192,111508,128,0,111660:0:0:0:0:
448,192,111660,128,0,111812:0:0:0:0:
320,192,111812,1,2,0:0:0:0::
64,192,111812,128,0,112114:0:0:0:0:
192,192,112114,1,0,0:0:0:0::
320,192,112114,1,0,0:0:0:0::
192,192,112417,1,0,0:0:0:0::
448,192,112417,128,0,112570:0:0:0:0:
64,192,112570,1,0,0:0:0:0::
320,192,112570,128,0,112721:0:0:0:0:
448,192,112721,1,0,0:0:0:0::
64,192,112721,1,0,0:0:0:0::
192,192,112721,1,8,0:0:0:0::
64,192,113024,1,0,0:0:0:0::
448,192,113024,1,0,0:0:0:0::
320,192,113175,128,0,113326:0:0:0:0:
192,192,113175,1,0,0:0:0:0::
448,192,113478,128,0,113630:0:0:0:0:
64,192,113478,1,0,0:0:0:0::
192,192,113630,1,0,0:0:0:0::
320,192,113630,1,0,0:0:0:0::
64,192,113781,1,0,0:0:0:0::
192,192,113781,1,0,0:0:0:0::
448,192,113933,1,0,0:0:0:0::
192,192,113933,128,0,114084:0:0:0:0:
320,192,114084,128,0,114387:0:0:0:0:
64,192,114084,1,0,0:0:0:0::
448,192,114236,1,0,0:0:0:0::
192,192,114236,1,0,0:0:0:0::
64,192,114387,1,0,0:0:0:0::
192,192,114387,1,0,0:0:0:0::
448,192,114538,1,0,0:0:0:0::
320,192,114538,1,0,0:0:0:0::
64,192,114538,128,0,114842:0:0:0:0:
320,192,114842,128,0,115145:0:0:0:0:
192,192,114842,1,2,0:0:0:0::
448,192,115145,128,0,115296:0:0:0:0:
64,192,115145,1,2,0:0:0:0::
192,192,115447,1,0,0:0:0:0::
320,192,115447,1,2,0:0:0:0::
64,192,115751,1,0,0:0:0:0::
192,192,115751,1,0,0:0:0:0::
192,192,116054,128,0,116205:0:0:0:0:
448,192,116205,1,0,0:0:0:0::
320,192,116205,128,0,116357:0:0:0:0:
64,192,116357,128,0,116508:0:0:0:0:
192,192,116357,1,8,0:0:0:0::
448,192,116357,1,0,0:0:0:0::
192,192,116660,1,0,0:0:0:0::
448,192,116660,1,0,0:0:0:0::
320,192,116812,128,0,116963:0:0:0:0:
64,192,116812,1,0,0:0:0:0::
192,192,117114,128,0,117266:0:0:0:0:
448,192,117114,1,0,0:0:0:0::
64,192,117266,128,0,117417:0:0:0:0:
320,192,117266,1,0,0:0:0:0::
192,192,117417,1,0,0:0:0:0::
448,192,117417,1,0,0:0:0:0::
448,192,117570,128,0,117721:0:0:0:0:
320,192,117570,1,8,0:0:0:0::
64,192,117570,1,0,0:0:0:0::
64,192,117721,1,0,0:0:0:0::
320,192,117721,1,0,0:0:0:0::
448,192,117796,1,0,0:0:0:0::
192,192,117796,1,0,0:0:0:0::
192,192,117872,1,0,0:0:0:0::
320,192,117872,1,8,0:0:0:0::
64,192,117872,1,0,0:0:0:0::
320,192,118024,1,0,0:0:0:0::
448,192,118024,1,0,0:0:0:0::
64,192,118100,1,0,0:0:0:0::
192,192,118100,1,0,0:0:0:0::
320,192,118175,1,8,0:0:0:0::
192,192,118175,1,0,0:0:0:0::
448,192,118175,128,0,118478:0:0:0:0:
64,192,118478,128,0,118554:0:0:0:0:
448,192,118554,128,0,118630:0:0:0:0:
64,192,118630,128,0,118705:0:0:0:0:
448,192,118705,128,0,118781:0:0:0:0:
64,192,118781,128,0,118857:0:0:0:0:
448,192,118857,128,0,118933:0:0:0:0:
64,192,118933,128,0,119008:0:0:0:0:
448,192,119008,128,0,119084:0:0:0:0:
320,192,119084,1,2,0:0:0:0::
64,192,119084,1,0,0:0:0:0::
192,192,119084,128,8,120903:0:0:0:0:
64,192,119387,1,0,0:0:0:0::
448,192,119387,1,0,0:0:0:0::
448,192,119691,1,0,0:0:0:0::
320,192,119691,1,0,0:0:0:0::
64,192,119842,1,0,0:0:0:0::
448,192,119842,1,0,0:0:0:0::
64,192,119993,1,0,0:0:0:0::
320,192,119993,1,8,0:0:0:0::
448,192,119993,1,0,0:0:0:0::
320,192,120296,1,0,0:0:0:0::
448,192,120296,1,0,0:0:0:0::
320,192,120447,1,0,0:0:0:0::
64,192,120447,1,0,0:0:0:0::
320,192,120751,1,0,0:0:0:0::
64,192,120903,1,0,0:0:0:0::
320,192,120903,1,8,0:0:0:0::
448,192,120903,128,0,121812:0:0:0:0:
192,192,121054,1,0,0:0:0:0::
64,192,121054,1,0,0:0:0:0::
192,192,121205,1,0,0:0:0:0::
320,192,121205,1,0,0:0:0:0::
320,192,121357,1,0,0:0:0:0::
64,192,121357,1,0,0:0:0:0::
64,192,121508,1,0,0:0:0:0::
192,192,121508,1,0,0:0:0:0::
320,192,121660,1,0,0:0:0:0::
192,192,121660,1,0,0:0:0:0::
192,192,121812,1,0,0:0:0:0::
320,192,121812,1,8,0:0:0:0::
64,192,121812,128,0,122114:0:0:0:0:
320,192,122114,128,0,122417:0:0:0:0:
192,192,122114,1,0,0:0:0:0::
448,192,122417,128,0,122721:0:0:0:0:
64,192,122417,1,0,0:0:0:0::
192,192,122721,128,0,123024:0:0:0:0:
64,192,122721,1,0,0:0:0:0::
448,192,123024,1,0,0:0:0:0::
320,192,123024,128,0,123630:0:0:0:0:
64,192,123326,1,0,0:0:0:0::
448,192,123326,1,0,0:0:0:0::
64,192,123478,1,0,0:0:0:0::
192,192,123478,1,0,0:0:0:0::
448,192,123630,128,0,123933:0:0:0:0:
64,192,123630,1,0,0:0:0:0::
192,192,123630,1,8,0:0:0:0::
320,192,123933,1,0,0:0:0:0::
64,192,123933,1,0,0:0:0:0::
64,192,124084,128,0,124538:0:0:0:0:
192,192,124084,1,0,0:0:0:0::
320,192,124387,1,0,0:0:0:0::
192,192,124387,1,0,0:0:0:0::
320,192,124538,1,0,0:0:0:0::
192,192,124538,1,8,0:0:0:0::
448,192,124538,128,0,124842:0:0:0:0:
64,192,124691,1,0,0:0:0:0::
320,192,124691,1,0,0:0:0:0::
64,192,124842,1,0,0:0:0:0::
192,192,124842,128,0,125145:0:0:0:0:
320,192,124993,1,0,0:0:0:0::
448,192,124993,1,0,0:0:0:0::
320,192,125145,128,0,125447:0:0:0:0:
64,192,125145,1,0,0:0:0:0::
192,192,125296,1,0,0:0:0:0::
448,192,125296,1,0,0:0:0:0::
64,192,125447,1,0,0:0:0:0::
192,192,125447,1,0,0:0:0:0::
448,192,125524,1,0,0:0:0:0::
192,192,125600,1,0,0:0:0:0::
64,192,125675,1,0,0:0:0:0::
320,192,125751,1,0,0:0:0:0::
448,192,125751,1,0,0:0:0:0::
192,192,125826,1,0,0:0:0:0::
64,192,125826,1,0,0:0:0:0::
448,192,125903,1,0,0:0:0:0::
192,192,125978,1,0,0:0:0:0::
320,192,126054,1,0,0:0:0:0::
64,192,126130,1,0,0:0:0:0::
448,192,126205,1,0,0:0:0:0::
320,192,126205,1,0,0:0:0:0::
192,192,126281,1,0,0:0:0:0::
448,192,126357,1,0,0:0:0:0::
64,192,126357,1,0,0:0:0:0::
320,192,126357,1,8,0:0:0:0::
192,192,126660,1,0,0:0:0:0::
320,192,126812,1,0,0:0:0:0::
448,192,126963,1,0,0:0:0:0::
64,192,127114,1,0,0:0:0:0::
192,192,127266,1,0,0:0:0:0::
320,192,127417,1,0,0:0:0:0::
448,192,127721,1,0,0:0:0:0::
320,192,128024,1,0,0:0:0:0::
448,192,128326,1,0,0:0:0:0::
320,192,128478,1,0,0:0:0:0::
192,192,128630,1,0,0:0:0:0::
64,192,128933,1,0,0:0:0:0::
192,192,129084,1,0,0:0:0:0::
320,192,129236,1,0,0:0:0:0::
448,192,129387,1,0,0:0:0:0::
192,192,129538,1,0,0:0:0:0::
64,192,129691,1,0,0:0:0:0::
448,192,129842,1,0,0:0:0:0::
320,192,130447,1,0,0:0:0:0::
448,192,130600,1,0,0:0:0:0::
320,192,130751,1,0,0:0:0:0::
192,192,130903,1,0,0:0:0:0::
64,192,131054,1,0,0:0:0:0::
320,192,131205,1,0,0:0:0:0::
448,192,131357,1,0,0:0:0:0::
192,192,131508,1,0,0:0:0:0::
320,192,131660,1,0,0:0:0:0::
64,192,131812,1,0,0:0:0:0::
192,192,131963,1,0,0:0:0:0::
448,192,132114,1,0,0:0:0:0::
192,192,132266,1,0,0:0:0:0::
448,192,132570,1,0,0:0:0:0::
64,192,132872,1,0,0:0:0:0::
192,192,133175,1,0,0:0:0:0::
64,192,133326,1,0,0:0:0:0::
192,192,133478,1,0,0:0:0:0::
64,192,133781,1,0,0:0:0:0::
192,192,133933,1,0,0:0:0:0::
320,192,134084,1,0,0:0:0:0::
448,192,134236,1,0,0:0:0:0::
320,192,134387,1,0,0:0:0:0::
64,192,134538,1,0,0:0:0:0::
192,192,134691,1,0,0:0:0:0::
320,192,135296,1,0,0:0:0:0::
192,192,135447,1,0,0:0:0:0::
64,192,135600,1,0,0:0:0:0::
192,192,135751,1,0,0:0:0:0::
320,192,135903,1,0,0:0:0:0::
448,192,136054,1,0,0:0:0:0::
320,192,136357,1,0,0:0:0:0::
320,192,136660,1,0,0:0:0:0::
192,192,136812,1,0,0:0:0:0::
320,192,136963,1,0,0:0:0:0::
448,192,137114,1,0,0:0:0:0::
192,192,137417,1,0,0:0:0:0::
448,192,137570,1,0,0:0:0:0::
192,192,137872,1,0,0:0:0:0::
64,192,138024,1,0,0:0:0:0::
320,192,138175,1,0,0:0:0:0::
448,192,138326,1,0,0:0:0:0::
448,192,139084,1,0,0:0:0:0::
320,192,139236,1,0,0:0:0:0::
192,192,139387,1,0,0:0:0:0::
64,192,139538,1,0,0:0:0:0::
192,192,139842,1,0,0:0:0:0::
320,192,139993,1,0,0:0:0:0::
192,192,140145,1,0,0:0:0:0::
64,192,140296,1,0,0:0:0:0::
192,192,140447,1,0,0:0:0:0::
320,192,140600,1,0,0:0:0:0::
448,192,140903,1,0,0:0:0:0::
320,192,141205,1,0,0:0:0:0::
320,192,141508,1,0,0:0:0:0::
192,192,141660,1,0,0:0:0:0::
320,192,141812,1,0,0:0:0:0::
448,192,141963,1,0,0:0:0:0::
192,192,142266,1,0,0:0:0:0::
320,192,142417,1,0,0:0:0:0::
192,192,142570,128,0,142721:0:0:0:0:
448,192,142721,128,0,142872:0:0:0:0:
64,192,142872,1,0,0:0:0:0::
64,192,143024,1,0,0:0:0:0::
192,192,143175,1,0,0:0:0:0::
64,192,143478,1,0,0:0:0:0::
192,192,143630,1,0,0:0:0:0::
448,192,143781,1,0,0:0:0:0::
192,192,143933,1,0,0:0:0:0::
320,192,144084,1,0,0:0:0:0::
64,192,144387,1,0,0:0:0:0::
320,192,144538,128,0,146963:0:0:0:0:
448,192,146963,1,0,0:0:0:0::
320,192,147872,128,0,148024:0:0:0:0:
448,192,148024,128,0,148175:0:0:0:0:
64,192,148175,1,2,0:0:0:0::
320,192,148175,1,8,0:0:0:0::
192,192,148175,128,0,148478:0:0:0:0:
64,192,148478,1,0,0:0:0:0::
448,192,148478,1,8,0:0:0:0::
320,192,148478,128,0,148781:0:0:0:0:
448,192,148781,1,0,0:0:0:0::
192,192,148781,128,0,148933:0:0:0:0:
64,192,148933,128,0,149084:0:0:0:0:
320,192,148933,1,0,0:0:0:0::
320,192,149084,128,0,149236:0:0:0:0:
448,192,149084,1,0,0:0:0:0::
192,192,149084,1,8,0:0:0:0::
64,192,149236,1,0,0:0:0:0::
448,192,149236,128,0,149538:0:0:0:0:
192,192,149538,128,0,149691:0:0:0:0:
320,192,149691,128,0,149842:0:0:0:0:
64,192,149691,1,0,0:0:0:0::
448,192,149691,1,8,0:0:0:0::
64,192,149993,1,0,0:0:0:0::
448,192,149993,128,0,150145:0:0:0:0:
192,192,150145,128,0,150296:0:0:0:0:
448,192,150296,1,0,0:0:0:0::
64,192,150296,1,8,0:0:0:0::
320,192,150296,128,0,150447:0:0:0:0:
448,192,150447,128,0,151407:0:0:0:0:
192,192,150447,1,0,0:0:0:0::
64,192,150903,1,0,0:0:0:0::
192,192,150903,1,8,0:0:0:0::
320,192,150903,1,0,0:0:0:0::
192,192,151205,1,0,0:0:0:0::
320,192,151205,1,0,0:0:0:0::
64,192,151407,128,0,151508:0:0:0:0:
192,192,151508,1,8,0:0:0:0::
448,192,151508,1,0,0:0:0:0::
320,192,151508,128,0,151660:0:0:0:0:
448,192,151660,1,0,0:0:0:0::
192,192,151660,128,0,151963:0:0:0:0:
64,192,151963,1,0,0:0:0:0::
448,192,151963,128,0,152114:0:0:0:0:
192,192,152114,1,8,0:0:0:0::
64,192,152114,1,0,0:0:0:0::
320,192,152114,128,0,152266:0:0:0:0:
64,192,152266,128,0,152417:0:0:0:0:
192,192,152417,1,0,0:0:0:0::
448,192,152417,1,0,0:0:0:0::
448,192,152570,1,0,0:0:0:0::
320,192,152570,128,0,152721:0:0:0:0:
64,192,152721,1,8,0:0:0:0::
448,192,152721,1,0,0:0:0:0::
192,192,152721,128,0,152872:0:0:0:0:
64,192,152872,1,0,0:0:0:0::
320,192,152872,128,0,153326:0:0:0:0:
192,192,153326,1,8,0:0:0:0::
64,192,153326,1,0,0:0:0:0::
448,192,153326,128,0,153630:0:0:0:0:
192,192,153630,128,0,153781:0:0:0:0:
64,192,153630,1,0,0:0:0:0::
448,192,153781,1,0,0:0:0:0::
320,192,153781,128,0,153933:0:0:0:0:
64,192,153933,128,0,154084:0:0:0:0:
192,192,153933,1,8,0:0:0:0::
448,192,153933,1,0,0:0:0:0::
448,192,154084,128,0,154463:0:0:0:0:
320,192,154084,1,0,0:0:0:0::
64,192,154463,128,0,154538:0:0:0:0:
192,192,154538,1,8,0:0:0:0::
448,192,154538,1,0,0:0:0:0::
320,192,154538,128,0,154691:0:0:0:0:
64,192,154842,1,0,0:0:0:0::
192,192,154842,128,0,154993:0:0:0:0:
448,192,154993,128,0,155145:0:0:0:0:
320,192,155145,128,0,155296:0:0:0:0:
64,192,155145,1,0,0:0:0:0::
192,192,155145,1,8,0:0:0:0::
64,192,155296,128,0,155600:0:0:0:0:
448,192,155296,1,0,0:0:0:0::
192,192,155600,128,0,155751:0:0:0:0:
320,192,155751,1,0,0:0:0:0::
448,192,155751,128,0,155903:0:0:0:0:
64,192,155903,128,0,156054:0:0:0:0:
320,192,156054,128,0,156205:0:0:0:0:
448,192,156205,1,0,0:0:0:0::
192,192,156205,128,0,156508:0:0:0:0:
64,192,156357,1,0,0:0:0:0::
320,192,156357,1,8,0:0:0:0::
448,192,156357,1,0,0:0:0:0::
320,192,156508,1,0,0:0:0:0::
64,192,156508,128,0,156660:0:0:0:0:
448,192,156660,1,0,0:0:0:0::
192,192,156660,1,0,0:0:0:0::
64,192,156761,1,0,0:0:0:0::
320,192,156761,1,0,0:0:0:0::
192,192,156862,1,0,0:0:0:0::
448,192,156862,1,0,0:0:0:0::
64,192,156963,1,0,0:0:0:0::
320,192,157064,1,0,0:0:0:0::
192,192,157064,1,0,0:0:0:0::
448,192,157165,1,0,0:0:0:0::
64,192,157165,1,0,0:0:0:0::
192,192,157266,1,0,0:0:0:0::
320,192,157266,1,0,0:0:0:0::
64,192,157367,1,0,0:0:0:0::
448,192,157367,1,0,0:0:0:0::
64,192,157468,1,0,0:0:0:0::
448,192,157468,1,0,0:0:0:0::
192,192,157570,1,0,0:0:0:0::
64,192,157670,1,0,0:0:0:0::
320,192,157670,1,0,0:0:0:0::
192,192,157771,1,0,0:0:0:0::
448,192,157771,1,0,0:0:0:0::
192,192,157872,1,8,0:0:0:0::
448,192,157872,1,0,0:0:0:0::
64,192,157872,128,0,158175:0:0:0:0:
192,192,158175,1,0,0:0:0:0::
448,192,158175,128,0,158478:0:0:0:0:
320,192,158175,1,8,0:0:0:0::
320,192,158478,128,0,158630:0:0:0:0:
64,192,158478,1,0,0:0:0:0::
192,192,158630,128,0,158781:0:0:0:0:
448,192,158630,1,0,0:0:0:0::
64,192,158781,128,0,158933:0:0:0:0:
320,192,158781,1,8,0:0:0:0::
448,192,158781,1,0,0:0:0:0::
448,192,158933,128,0,159236:0:0:0:0:
192,192,158933,1,0,0:0:0:0::
192,192,159236,128,0,159387:0:0:0:0:
320,192,159236,128,0,159387:0:0:0:0:
64,192,159387,128,0,159538:0:0:0:0:
448,192,159387,128,0,159538:0:0:0:0:
192,192,159538,128,0,159691:0:0:0:0:
64,192,159691,1,0,0:0:0:0::
320,192,159691,128,0,159842:0:0:0:0:
448,192,159842,128,0,159993:0:0:0:0:
192,192,159993,128,0,160145:0:0:0:0:
64,192,159993,1,0,0:0:0:0::
320,192,159993,1,8,0:0:0:0::
448,192,160145,128,0,160600:0:0:0:0:
64,192,160145,128,0,160903:0:0:0:0:
192,192,160600,1,0,0:0:0:0::
320,192,160600,1,8,0:0:0:0::
192,192,160903,1,0,0:0:0:0::
448,192,160903,128,0,161054:0:0:0:0:
320,192,161054,128,0,161205:0:0:0:0:
192,192,161205,1,8,0:0:0:0::
448,192,161205,1,0,0:0:0:0::
64,192,161205,128,0,161357:0:0:0:0:
192,192,161357,128,0,161660:0:0:0:0:
320,192,161357,128,0,161660:0:0:0:0:
448,192,161660,128,0,161812:0:0:0:0:
64,192,161660,128,0,161812:0:0:0:0:
192,192,161812,128,8,161963:0:0:0:0:
320,192,161812,128,0,161963:0:0:0:0:
448,192,161963,128,0,162114:0:0:0:0:
64,192,161963,128,0,162114:0:0:0:0:
192,192,162114,1,0,0:0:0:0::
320,192,162114,1,0,0:0:0:0::
64,192,162266,128,0,162417:0:0:0:0:
192,192,162266,128,0,162417:0:0:0:0:
320,192,162417,128,8,162570:0:0:0:0:
448,192,162417,128,0,162570:0:0:0:0:
192,192,162570,128,0,162872:0:0:0:0:
64,192,162570,128,0,163024:0:0:0:0:
192,192,163024,1,0,0:0:0:0::
320,192,163024,1,8,0:0:0:0::
448,192,163024,128,0,163326:0:0:0:0:
64,192,163326,1,0,0:0:0:0::
192,192,163326,128,0,163478:0:0:0:0:
448,192,163478,1,0,0:0:0:0::
320,192,163478,128,0,163630:0:0:0:0:
192,192,163630,1,8,0:0:0:0::
448,192,163630,1,0,0:0:0:0::
64,192,163630,128,0,163781:0:0:0:0:
448,192,163781,1,0,0:0:0:0::
192,192,163781,128,0,164236:0:0:0:0:
320,192,164084,128,0,164236:0:0:0:0:
448,192,164236,128,8,164387:0:0:0:0:
64,192,164236,128,0,164387:0:0:0:0:
192,192,164387,128,0,164538:0:0:0:0:
320,192,164387,128,0,164538:0:0:0:0:
64,192,164538,128,0,164691:0:0:0:0:
448,192,164538,1,0,0:0:0:0::
320,192,164691,128,0,164842:0:0:0:0:
64,192,164842,1,0,0:0:0:0::
192,192,164842,128,8,164993:0:0:0:0:
448,192,164842,1,0,0:0:0:0::
64,192,164993,128,0,165296:0:0:0:0:
448,192,164993,128,0,165447:0:0:0:0:
320,192,165296,128,0,165447:0:0:0:0:
192,192,165447,1,8,0:0:0:0::
64,192,165447,1,0,0:0:0:0::
192,192,165600,128,0,165751:0:0:0:0:
320,192,165600,1,0,0:0:0:0::
320,192,165751,1,8,0:0:0:0::
448,192,165751,1,0,0:0:0:0::
64,192,165751,128,0,165903:0:0:0:0:
192,192,165903,1,0,0:0:0:0::
448,192,165903,128,0,166205:0:0:0:0:
320,192,166054,1,0,0:0:0:0::
64,192,166054,1,0,0:0:0:0::
192,192,166054,1,8,0:0:0:0::
64,192,166205,1,0,0:0:0:0::
320,192,166205,128,0,166357:0:0:0:0:
192,192,166357,128,0,166812:0:0:0:0:
448,192,166357,1,8,0:0:0:0::
64,192,166357,1,0,0:0:0:0::
64,192,166508,1,0,0:0:0:0::
448,192,166508,1,0,0:0:0:0::
64,192,166660,1,0,0:0:0:0::
320,192,166660,1,8,0:0:0:0::
448,192,166660,1,0,0:0:0:0::
320,192,166812,1,0,0:0:0:0::
448,192,166812,1,0,0:0:0:0::
64,192,166887,1,0,0:0:0:0::
192,192,166887,1,0,0:0:0:0::
320,192,166963,1,0,0:0:0:0::
448,192,166963,1,0,0:0:0:0::
192,192,167038,1,0,0:0:0:0::
64,192,167038,1,0,0:0:0:0::
320,192,167114,1,0,0:0:0:0::
448,192,167114,1,0,0:0:0:0::
192,192,167191,1,0,0:0:0:0::
64,192,167191,1,0,0:0:0:0::
320,192,167266,1,0,0:0:0:0::
448,192,167266,1,0,0:0:0:0::
192,192,167342,1,0,0:0:0:0::
64,192,167342,1,0,0:0:0:0::
320,192,167417,1,0,0:0:0:0::
448,192,167417,1,0,0:0:0:0::
192,192,167493,1,0,0:0:0:0::
64,192,167493,1,0,0:0:0:0::
320,192,167570,1,0,0:0:0:0::
448,192,167570,128,0,167721:0:0:0:0:
320,192,167721,1,0,0:0:0:0::
192,192,167721,128,0,167872:0:0:0:0:
448,192,167872,1,0,0:0:0:0::
64,192,167872,128,0,168024:0:0:0:0:
192,192,168024,1,0,0:0:0:0::
320,192,168024,128,0,168175:0:0:0:0:
448,192,168175,128,0,168326:0:0:0:0:
64,192,168175,1,0,0:0:0:0::
320,192,168326,1,8,0:0:0:0::
64,192,168326,1,0,0:0:0:0::
192,192,168326,128,0,168478:0:0:0:0:
320,192,168630,1,0,0:0:0:0::
64,192,168630,128,0,168781:0:0:0:0:
448,192,168781,1,0,0:0:0:0::
192,192,168781,128,0,168933:0:0:0:0:
64,192,168933,1,0,0:0:0:0::
448,192,168933,1,8,0:0:0:0::
320,192,168933,128,0,169084:0:0:0:0:
64,192,169084,128,0,169236:0:0:0:0:
192,192,169236,128,0,169387:0:0:0:0:
320,192,169236,1,0,0:0:0:0::
64,192,169387,1,0,0:0:0:0::
448,192,169387,128,0,169538:0:0:0:0:
320,192,169387,1,8,0:0:0:0::
192,192,169538,1,0,0:0:0:0::
64,192,169538,128,0,169691:0:0:0:0:
320,192,169691,1,0,0:0:0:0::
448,192,169691,1,0,0:0:0:0::
448,192,169842,1,8,0:0:0:0::
64,192,169842,1,0,0:0:0:0::
320,192,169842,128,0,169993:0:0:0:0:
192,192,169993,1,0,0:0:0:0::
448,192,169993,128,0,170145:0:0:0:0:
64,192,170145,1,0,0:0:0:0::
320,192,170145,1,8,0:0:0:0::
192,192,170145,128,0,170296:0:0:0:0:
320,192,170296,1,0,0:0:0:0::
64,192,170296,128,0,170447:0:0:0:0:
192,192,170447,1,0,0:0:0:0::
448,192,170447,128,0,170600:0:0:0:0:
320,192,170600,128,0,170751:0:0:0:0:
64,192,170600,1,0,0:0:0:0::
192,192,170600,1,8,0:0:0:0::
64,192,170751,128,0,170903:0:0:0:0:
448,192,170751,1,0,0:0:0:0::
192,192,171054,1,0,0:0:0:0::
320,192,171054,1,8,0:0:0:0::
448,192,171054,1,0,0:0:0:0::
64,192,171205,1,0,0:0:0:0::
320,192,171205,128,0,171357:0:0:0:0:
448,192,171357,128,0,171508:0:0:0:0:
192,192,171357,1,8,0:0:0:0::
64,192,171357,1,0,0:0:0:0::
320,192,171660,1,8,0:0:0:0::
192,192,171660,128,0,171812:0:0:0:0:
64,192,171660,1,0,0:0:0:0::
320,192,171812,1,0,0:0:0:0::
448,192,171812,128,0,171963:0:0:0:0:
64,192,171963,128,0,172114:0:0:0:0:
192,192,171963,1,0,0:0:0:0::
192,192,172114,1,8,0:0:0:0::
448,192,172114,1,0,0:0:0:0::
320,192,172114,128,0,172266:0:0:0:0:
64,192,172266,1,8,0:0:0:0::
192,192,172266,128,0,172417:0:0:0:0:
448,192,172266,1,0,0:0:0:0::
320,192,172417,1,0,0:0:0:0::
448,192,172417,128,0,172570:0:0:0:0:
192,192,172570,1,0,0:0:0:0::
64,192,172570,128,0,172721:0:0:0:0:
192,192,172721,1,8,0:0:0:0::
448,192,172721,1,0,0:0:0:0::
320,192,172721,128,0,172872:0:0:0:0:
64,192,172872,1,0,0:0:0:0::
192,192,172872,128,0,173024:0:0:0:0:
448,192,173024,128,0,173175:0:0:0:0:
320,192,173024,1,0,0:0:0:0::
64,192,173175,1,0,0:0:0:0::
320,192,173175,128,0,173326:0:0:0:0:
192,192,173175,1,8,0:0:0:0::
448,192,173478,1,0,0:0:0:0::
192,192,173478,128,0,173630:0:0:0:0:
320,192,173630,128,0,173781:0:0:0:0:
64,192,173630,1,0,0:0:0:0::
64,192,173781,1,0,0:0:0:0::
192,192,173781,1,8,0:0:0:0::
448,192,173781,128,0,173933:0:0:0:0:
192,192,173933,128,0,174084:0:0:0:0:
320,192,174084,1,0,0:0:0:0::
64,192,174084,128,0,174236:0:0:0:0:
448,192,174236,128,0,174387:0:0:0:0:
192,192,174236,1,0,0:0:0:0::
320,192,174236,1,8,0:0:0:0::
64,192,174387,1,0,0:0:0:0::
192,192,174387,128,0,174538:0:0:0:0:
320,192,174538,1,0,0:0:0:0::
448,192,174538,1,0,0:0:0:0::
192,192,174691,1,8,0:0:0:0::
64,192,174691,1,0,0:0:0:0::
320,192,174691,128,0,174842:0:0:0:0:
448,192,174842,1,0,0:0:0:0::
64,192,174842,128,0,174993:0:0:0:0:
192,192,174993,128,0,175145:0:0:0:0:
320,192,174993,1,8,0:0:0:0::
448,192,174993,1,0,0:0:0:0::
448,192,175145,128,0,175296:0:0:0:0:
64,192,175145,1,0,0:0:0:0::
192,192,175296,1,0,0:0:0:0::
320,192,175296,128,0,175447:0:0:0:0:
192,192,175447,1,8,0:0:0:0::
448,192,175447,1,0,0:0:0:0::
64,192,175447,128,0,175600:0:0:0:0:
192,192,175600,128,0,175751:0:0:0:0:
320,192,175600,1,0,0:0:0:0::
320,192,175903,1,0,0:0:0:0::
448,192,175903,1,0,0:0:0:0::
64,192,175903,128,0,176054:0:0:0:0:
192,192,176054,1,0,0:0:0:0::
448,192,176054,128,0,176205:0:0:0:0:
320,192,176205,128,0,176433:0:0:0:0:
192,192,176205,1,8,0:0:0:0::
64,192,176205,1,0,0:0:0:0::
64,192,176508,1,8,0:0:0:0::
448,192,176508,1,0,0:0:0:0::
192,192,176508,128,0,176660:0:0:0:0:
320,192,176660,128,0,176812:0:0:0:0:
448,192,176660,1,0,0:0:0:0::
64,192,176812,128,0,176963:0:0:0:0:
192,192,176812,1,0,0:0:0:0::
320,192,176963,1,0,0:0:0:0::
192,192,176963,1,8,0:0:0:0::
448,192,176963,128,0,177114:0:0:0:0:
320,192,177114,1,0,0:0:0:0::
192,192,177114,128,0,177417:0:0:0:0:
320,192,177417,1,0,0:0:0:0::
320,192,177570,1,0,0:0:0:0::
320,192,177721,1,0,0:0:0:0::
64,192,177872,1,0,0:0:0:0::
192,192,177872,1,8,0:0:0:0::
320,192,177872,1,0,0:0:0:0::
192,192,178024,1,0,0:0:0:0::
192,192,178175,1,0,0:0:0:0::
192,192,178326,1,0,0:0:0:0::
448,192,178478,1,0,0:0:0:0::
64,192,178478,1,0,0:0:0:0::
320,192,178478,1,8,0:0:0:0::
320,192,178630,1,0,0:0:0:0::
320,192,178781,1,0,0:0:0:0::
448,192,178933,1,0,0:0:0:0::
192,192,178933,1,8,0:0:0:0::
64,192,178933,1,0,0:0:0:0::
192,192,179084,1,0,0:0:0:0::
448,192,179236,1,0,0:0:0:0::
64,192,179236,1,0,0:0:0:0::
320,192,179236,1,8,0:0:0:0::
320,192,179387,1,0,0:0:0:0::
320,192,179538,1,0,0:0:0:0::
320,192,179691,1,8,0:0:0:0::
192,192,179691,1,0,0:0:0:0::
448,192,179691,1,0,0:0:0:0::
192,192,179842,1,0,0:0:0:0::
192,192,179993,1,0,0:0:0:0::
192,192,180145,1,0,0:0:0:0::
64,192,180296,1,0,0:0:0:0::
448,192,180296,1,0,0:0:0:0::
320,192,180296,1,8,0:0:0:0::
448,192,180447,1,0,0:0:0:0::
448,192,180600,1,0,0:0:0:0::
448,192,180751,1,0,0:0:0:0::
320,192,180903,1,0,0:0:0:0::
192,192,180903,1,8,0:0:0:0::
64,192,180903,1,0,0:0:0:0::
320,192,181054,1,0,0:0:0:0::
320,192,181205,1,0,0:0:0:0::
320,192,181357,1,0,0:0:0:0::
448,192,181508,1,0,0:0:0:0::
192,192,181508,1,8,0:0:0:0::
64,192,181508,1,0,0:0:0:0::
192,192,181660,1,0,0:0:0:0::
448,192,181812,1,0,0:0:0:0::
320,192,181812,1,8,0:0:0:0::
64,192,181812,1,0,0:0:0:0::
64,192,181963,1,0,0:0:0:0::
192,192,181963,1,0,0:0:0:0::
320,192,182266,1,0,0:0:0:0::
320,192,182417,1,0,0:0:0:0::
320,192,182570,1,0,0:0:0:0::
448,192,182721,1,0,0:0:0:0::
192,192,182721,1,8,0:0:0:0::
320,192,182721,1,0,0:0:0:0::
64,192,182872,1,0,0:0:0:0::
64,192,183024,1,0,0:0:0:0::
64,192,183175,1,0,0:0:0:0::
64,192,183326,1,0,0:0:0:0::
192,192,183326,1,8,0:0:0:0::
448,192,183326,1,0,0:0:0:0::
320,192,183478,1,0,0:0:0:0::
320,192,183630,1,0,0:0:0:0::
448,192,183781,1,0,0:0:0:0::
192,192,183781,1,0,0:0:0:0::
320,192,183781,1,8,0:0:0:0::
192,192,183933,1,0,0:0:0:0::
64,192,183933,1,0,0:0:0:0::
192,192,184084,1,8,0:0:0:0::
448,192,184084,1,0,0:0:0:0::
64,192,184084,1,0,0:0:0:0::
448,192,184236,1,0,0:0:0:0::
448,192,184387,1,0,0:0:0:0::
448,192,184538,1,0,0:0:0:0::
320,192,184538,1,8,0:0:0:0::
192,192,184538,1,0,0:0:0:0::
192,192,184691,1,0,0:0:0:0::
192,192,184842,1,0,0:0:0:0::
448,192,184993,1,0,0:0:0:0::
64,192,184993,1,0,0:0:0:0::
320,192,184993,1,8,0:0:0:0::
320,192,185145,1,0,0:0:0:0::
192,192,185145,1,0,0:0:0:0::
448,192,185296,1,0,0:0:0:0::
448,192,185447,1,0,0:0:0:0::
64,192,185447,1,8,0:0:0:0::
192,192,185447,1,0,0:0:0:0::
320,192,185600,1,0,0:0:0:0::
64,192,185751,1,0,0:0:0:0::
192,192,185751,1,0,0:0:0:0::
448,192,185903,1,0,0:0:0:0::
320,192,185903,1,8,0:0:0:0::
192,192,185903,1,0,0:0:0:0::
320,192,186054,1,0,0:0:0:0::
320,192,186205,1,0,0:0:0:0::
64,192,186357,1,8,0:0:0:0::
192,192,186357,1,0,0:0:0:0::
448,192,186357,1,0,0:0:0:0::
192,192,186508,1,0,0:0:0:0::
448,192,186508,1,0,0:0:0:0::
320,192,186660,1,8,0:0:0:0::
64,192,186660,1,0,0:0:0:0::
448,192,186660,1,0,0:0:0:0::
192,192,186812,1,0,0:0:0:0::
320,192,186812,1,0,0:0:0:0::
192,192,187114,1,0,0:0:0:0::
320,192,187114,1,0,0:0:0:0::
448,192,187266,1,0,0:0:0:0::
320,192,187266,1,8,0:0:0:0::
192,192,187266,1,0,0:0:0:0::
64,192,187417,1,0,0:0:0:0::
192,192,187417,1,0,0:0:0:0::
320,192,187570,1,0,0:0:0:0::
64,192,187570,1,0,0:0:0:0::
448,192,187570,1,8,0:0:0:0::
320,192,187721,1,0,0:0:0:0::
192,192,187721,1,0,0:0:0:0::
64,192,187872,1,8,0:0:0:0::
448,192,187872,1,0,0:0:0:0::
192,192,187872,1,0,0:0:0:0::
320,192,188024,1,0,0:0:0:0::
448,192,188024,1,0,0:0:0:0::
64,192,188175,1,0,0:0:0:0::
192,192,188175,1,0,0:0:0:0::
320,192,188175,1,8,0:0:0:0::
64,192,188326,1,0,0:0:0:0::
448,192,188326,1,0,0:0:0:0::
448,192,188478,1,0,0:0:0:0::
320,192,188478,1,0,0:0:0:0::
192,192,188478,1,8,0:0:0:0::
64,192,188630,1,0,0:0:0:0::
320,192,188630,1,0,0:0:0:0::
192,192,188781,1,0,0:0:0:0::
448,192,188781,1,8,0:0:0:0::
64,192,188781,1,0,0:0:0:0::
448,192,188933,1,0,0:0:0:0::
192,192,188933,1,0,0:0:0:0::
448,192,189084,1,0,0:0:0:0::
320,192,189084,1,8,0:0:0:0::
64,192,189084,1,0,0:0:0:0::
64,192,189236,1,0,0:0:0:0::
192,192,189236,1,0,0:0:0:0::
448,192,189387,1,0,0:0:0:0::
320,192,189387,1,0,0:0:0:0::
192,192,189387,1,8,0:0:0:0::
448,192,189538,1,0,0:0:0:0::
320,192,189538,1,0,0:0:0:0::
192,192,189691,1,0,0:0:0:0::
64,192,189691,1,8,0:0:0:0::
448,192,189691,1,0,0:0:0:0::
64,192,189842,1,0,0:0:0:0::
320,192,189842,1,0,0:0:0:0::
448,192,189993,1,8,0:0:0:0::
320,192,189993,1,0,0:0:0:0::
192,192,189993,1,0,0:0:0:0::
192,192,190145,1,0,0:0:0:0::
320,192,190145,1,0,0:0:0:0::
64,192,190296,1,0,0:0:0:0::
192,192,190296,1,8,0:0:0:0::
320,192,190296,1,0,0:0:0:0::
448,192,190447,1,0,0:0:0:0::
320,192,190447,1,0,0:0:0:0::
64,192,190600,1,0,0:0:0:0::
192,192,190600,1,8,0:0:0:0::
448,192,190600,1,0,0:0:0:0::
192,192,190751,1,0,0:0:0:0::
64,192,190751,1,0,0:0:0:0::
448,192,190903,1,8,0:0:0:0::
320,192,190903,1,0,0:0:0:0::
64,192,190903,1,0,0:0:0:0::
64,192,191054,1,0,0:0:0:0::
448,192,191054,1,0,0:0:0:0::
320,192,191205,1,0,0:0:0:0::
192,192,191205,1,8,0:0:0:0::
64,192,191205,1,0,0:0:0:0::
448,192,191357,1,0,0:0:0:0::
192,192,191357,1,0,0:0:0:0::
64,192,191508,1,0,0:0:0:0::
320,192,191508,1,8,0:0:0:0::
448,192,191508,1,0,0:0:0:0::
192,192,191660,1,0,0:0:0:0::
320,192,191660,1,0,0:0:0:0::
448,192,191963,1,0,0:0:0:0::
64,192,191963,1,0,0:0:0:0::
192,192,192114,1,0,0:0:0:0::
320,192,192114,1,8,0:0:0:0::
448,192,192114,1,0,0:0:0:0::
192,192,192266,1,0,0:0:0:0::
448,192,192266,1,0,0:0:0:0::
64,192,192417,1,0,0:0:0:0::
192,192,192417,1,8,0:0:0:0::
320,192,192417,1,0,0:0:0:0::
448,192,192570,1,0,0:0:0:0::
320,192,192570,1,0,0:0:0:0::
320,192,192721,1,8,0:0:0:0::
448,192,192721,1,0,0:0:0:0::
64,192,192721,1,0,0:0:0:0::
192,192,192872,1,0,0:0:0:0::
64,192,192872,1,0,0:0:0:0::
64,192,193024,1,0,0:0:0:0::
192,192,193024,1,8,0:0:0:0::
448,192,193024,1,0,0:0:0:0::
320,192,193175,1,0,0:0:0:0::
64,192,193175,1,0,0:0:0:0::
448,192,193326,1,0,0:0:0:0::
192,192,193326,1,8,0:0:0:0::
320,192,193326,1,0,0:0:0:0::
448,192,193478,1,0,0:0:0:0::
64,192,193478,1,0,0:0:0:0::
64,192,193630,1,8,0:0:0:0::
192,192,193630,1,0,0:0:0:0::
320,192,193630,1,0,0:0:0:0::
192,192,193781,1,0,0:0:0:0::
448,192,193781,1,0,0:0:0:0::
320,192,193933,1,0,0:0:0:0::
448,192,193933,1,0,0:0:0:0::
64,192,193933,1,8,0:0:0:0::
320,192,194084,1,0,0:0:0:0::
448,192,194084,1,0,0:0:0:0::
192,192,194236,1,0,0:0:0:0::
64,192,194236,1,8,0:0:0:0::
320,192,194236,1,0,0:0:0:0::
320,192,194387,1,0,0:0:0:0::
192,192,194387,1,0,0:0:0:0::
448,192,194538,1,0,0:0:0:0::
320,192,194538,1,0,0:0:0:0::
192,192,194538,1,8,0:0:0:0::
64,192,194691,1,0,0:0:0:0::
192,192,194691,1,0,0:0:0:0::
448,192,194842,1,0,0:0:0:0::
320,192,194842,1,0,0:0:0:0::
64,192,194842,1,8,0:0:0:0::
448,192,194993,1,0,0:0:0:0::
192,192,194993,1,0,0:0:0:0::
64,192,195145,1,8,0:0:0:0::
192,192,195145,1,0,0:0:0:0::
320,192,195145,1,0,0:0:0:0::
448,192,195296,1,0,0:0:0:0::
320,192,195296,1,0,0:0:0:0::
192,192,195372,1,0,0:0:0:0::
64,192,195372,1,0,0:0:0:0::
320,192,195447,1,0,0:0:0:0::
448,192,195524,1,0,0:0:0:0::
64,192,195600,1,0,0:0:0:0::
448,192,195675,1,0,0:0:0:0::
320,192,195751,1,0,0:0:0:0::
192,192,195751,1,0,0:0:0:0::
448,192,195826,1,0,0:0:0:0::
64,192,195826,1,0,0:0:0:0::
192,192,195903,1,0,0:0:0:0::
448,192,195978,1,0,0:0:0:0::
192,192,196054,1,0,0:0:0:0::
64,192,196054,1,0,0:0:0:0::
320,192,196205,1,0,0:0:0:0::
448,192,196205,1,0,0:0:0:0::
192,192,196281,1,0,0:0:0:0::
64,192,196281,1,0,0:0:0:0::
320,192,196357,1,0,0:0:0:0::
448,192,196357,1,0,0:0:0:0::
320,192,196508,1,0,0:0:0:0::
192,192,196508,1,0,0:0:0:0::
448,192,196660,1,0,0:0:0:0::
320,192,196660,1,0,0:0:0:0::
64,192,196660,1,8,0:0:0:0::
192,192,196812,1,0,0:0:0:0::
448,192,196812,1,0,0:0:0:0::
448,192,196963,1,0,0:0:0:0::
192,192,196963,1,0,0:0:0:0::
64,192,197114,1,8,0:0:0:0::
320,192,197114,1,0,0:0:0:0::
192,192,197114,1,0,0:0:0:0::
320,192,197266,1,0,0:0:0:0::
192,192,197266,1,0,0:0:0:0::
192,192,197417,1,0,0:0:0:0::
320,192,197417,1,0,0:0:0:0::
448,192,197570,1,0,0:0:0:0::
64,192,197570,1,8,0:0:0:0::
320,192,197570,1,0,0:0:0:0::
64,192,197721,1,0,0:0:0:0::
192,192,197721,1,0,0:0:0:0::
64,192,197872,1,8,0:0:0:0::
192,192,197872,1,0,0:0:0:0::
448,192,197872,1,0,0:0:0:0::
448,192,198024,1,0,0:0:0:0::
320,192,198024,1,0,0:0:0:0::
320,192,198175,1,0,0:0:0:0::
448,192,198175,1,0,0:0:0:0::
64,192,198175,1,8,0:0:0:0::
320,192,198326,1,0,0:0:0:0::
64,192,198326,1,0,0:0:0:0::
448,192,198478,128,0,198630:0:0:0:0:
192,192,198478,1,8,0:0:0:0::
320,192,198478,1,0,0:0:0:0::
192,192,198630,1,0,0:0:0:0::
64,192,198630,1,0,0:0:0:0::
192,192,198781,1,0,0:0:0:0::
64,192,198781,1,0,0:0:0:0::
320,192,198933,1,0,0:0:0:0::
448,192,198933,1,0,0:0:0:0::
64,192,198933,128,8,199084:0:0:0:0:
320,192,199084,1,0,0:0:0:0::
192,192,199084,1,0,0:0:0:0::
192,192,199236,1,0,0:0:0:0::
320,192,199236,1,0,0:0:0:0::
448,192,199387,1,0,0:0:0:0::
64,192,199387,1,8,0:0:0:0::
192,192,199387,128,0,199538:0:0:0:0:
320,192,199538,1,0,0:0:0:0::
64,192,199538,1,0,0:0:0:0::
448,192,199691,1,0,0:0:0:0::
192,192,199691,1,8,0:0:0:0::
320,192,199691,1,0,0:0:0:0::
192,192,199842,1,0,0:0:0:0::
64,192,199842,1,8,0:0:0:0::
320,192,199842,128,0,199993:0:0:0:0:
448,192,199993,1,0,0:0:0:0::
64,192,199993,1,0,0:0:0:0::
192,192,200145,1,0,0:0:0:0::
320,192,200145,1,0,0:0:0:0::
64,192,200296,1,8,0:0:0:0::
192,192,200296,1,0,0:0:0:0::
448,192,200296,128,0,200447:0:0:0:0:
64,192,200447,1,0,0:0:0:0::
320,192,200447,1,0,0:0:0:0::
64,192,200600,1,0,0:0:0:0::
320,192,200600,1,0,0:0:0:0::
64,192,200751,1,8,0:0:0:0::
448,192,200751,1,0,0:0:0:0::
192,192,200751,128,0,200903:0:0:0:0:
320,192,200903,1,0,0:0:0:0::
448,192,200903,1,0,0:0:0:0::
320,192,201054,1,0,0:0:0:0::
448,192,201054,1,0,0:0:0:0::
320,192,201205,1,0,0:0:0:0::
64,192,201205,128,8,201357:0:0:0:0:
192,192,201205,1,0,0:0:0:0::
192,192,201357,1,0,0:0:0:0::
448,192,201357,1,0,0:0:0:0::
192,192,201508,1,8,0:0:0:0::
448,192,201508,1,0,0:0:0:0::
320,192,201508,1,0,0:0:0:0::
64,192,201660,1,0,0:0:0:0::
320,192,201660,128,0,201812:0:0:0:0:
448,192,201812,1,0,0:0:0:0::
192,192,201812,1,0,0:0:0:0::
64,192,201812,1,8,0:0:0:0::
192,192,201963,1,0,0:0:0:0::
64,192,201963,1,0,0:0:0:0::
320,192,202114,1,0,0:0:0:0::
64,192,202114,1,8,0:0:0:0::
448,192,202114,128,0,202266:0:0:0:0:
192,192,202266,1,0,0:0:0:0::
320,192,202266,1,0,0:0:0:0::
192,192,202417,1,0,0:0:0:0::
320,192,202417,1,0,0:0:0:0::
320,192,202570,1,0,0:0:0:0::
192,192,202570,1,0,0:0:0:0::
64,192,202570,128,8,202721:0:0:0:0:
448,192,202721,1,0,0:0:0:0::
192,192,202721,1,0,0:0:0:0::
192,192,202872,1,0,0:0:0:0::
448,192,202872,1,0,0:0:0:0::
448,192,203024,1,0,0:0:0:0::
192,192,203024,1,8,0:0:0:0::
320,192,203024,128,0,203175:0:0:0:0:
64,192,203175,1,0,0:0:0:0::
448,192,203175,1,0,0:0:0:0::
64,192,203326,1,8,0:0:0:0::
448,192,203326,1,0,0:0:0:0::
320,192,203326,1,0,0:0:0:0::
192,192,203403,1,0,0:0:0:0::
448,192,203478,1,0,0:0:0:0::
320,192,203478,1,0,0:0:0:0::
64,192,203554,1,0,0:0:0:0::
192,192,203554,1,0,0:0:0:0::
448,192,203630,1,0,0:0:0:0::
320,192,203630,1,0,0:0:0:0::
64,192,203781,1,0,0:0:0:0::
448,192,203781,1,0,0:0:0:0::
192,192,203933,1,8,0:0:0:0::
448,192,203933,1,0,0:0:0:0::
320,192,203933,128,0,204084:0:0:0:0:
64,192,204084,1,0,0:0:0:0::
192,192,204084,1,0,0:0:0:0::
64,192,204236,1,0,0:0:0:0::
192,192,204236,1,0,0:0:0:0::
320,192,204387,1,0,0:0:0:0::
64,192,204387,1,8,0:0:0:0::
448,192,204387,1,0,0:0:0:0::
192,192,204538,1,0,0:0:0:0::
320,192,204538,1,0,0:0:0:0::
192,192,204691,1,0,0:0:0:0::
320,192,204691,1,0,0:0:0:0::
64,192,204842,1,8,0:0:0:0::
448,192,204842,1,0,0:0:0:0::
192,192,204842,1,0,0:0:0:0::
64,192,204993,1,0,0:0:0:0::
320,192,204993,1,0,0:0:0:0::
192,192,205145,1,8,0:0:0:0::
448,192,205145,1,0,0:0:0:0::
320,192,205145,1,0,0:0:0:0::
448,192,205296,1,0,0:0:0:0::
320,192,205296,1,0,0:0:0:0::
64,192,205447,1,8,0:0:0:0::
192,192,205447,1,0,0:0:0:0::
320,192,205447,1,0,0:0:0:0::
448,192,205600,1,0,0:0:0:0::
64,192,205600,1,8,0:0:0:0::
192,192,205600,1,0,0:0:0:0::
448,192,205751,1,0,0:0:0:0::
320,192,205751,1,0,0:0:0:0::
192,192,205751,1,8,0:0:0:0::
64,192,205903,1,0,0:0:0:0::
448,192,205903,1,0,0:0:0:0::
448,192,206054,1,0,0:0:0:0::
64,192,206054,1,0,0:0:0:0::
192,192,206205,1,0,0:0:0:0::
320,192,206205,1,0,0:0:0:0::
64,192,206205,1,8,0:0:0:0::
448,192,206357,1,0,0:0:0:0::
320,192,206357,1,0,0:0:0:0::
320,192,206508,1,0,0:0:0:0::
448,192,206508,1,0,0:0:0:0::
192,192,206660,1,0,0:0:0:0::
448,192,206660,1,0,0:0:0:0::
64,192,206660,1,8,0:0:0:0::
64,192,206812,1,0,0:0:0:0::
192,192,206812,1,0,0:0:0:0::
448,192,206963,1,0,0:0:0:0::
320,192,206963,1,0,0:0:0:0::
64,192,206963,1,8,0:0:0:0::
192,192,207114,1,0,0:0:0:0::
320,192,207114,1,0,0:0:0:0::
64,192,207114,1,8,0:0:0:0::
448,192,207266,1,0,0:0:0:0::
320,192,207266,1,0,0:0:0:0::
192,192,207417,1,0,0:0:0:0::
320,192,207417,1,0,0:0:0:0::
64,192,207570,1,8,0:0:0:0::
448,192,207570,1,0,0:0:0:0::
320,192,207570,1,0,0:0:0:0::
192,192,207721,1,0,0:0:0:0::
448,192,207721,1,0,0:0:0:0::
192,192,207872,1,0,0:0:0:0::
448,192,207872,1,0,0:0:0:0::
64,192,208024,1,8,0:0:0:0::
192,192,208024,1,0,0:0:0:0::
320,192,208024,1,0,0:0:0:0::
320,192,208175,1,0,0:0:0:0::
64,192,208175,1,0,0:0:0:0::
64,192,208326,1,0,0:0:0:0::
320,192,208326,1,0,0:0:0:0::
448,192,208478,1,0,0:0:0:0::
320,192,208478,1,0,0:0:0:0::
192,192,208478,1,8,0:0:0:0::
192,192,208630,1,0,0:0:0:0::
320,192,208630,1,0,0:0:0:0::
64,192,208781,1,8,0:0:0:0::
448,192,208781,1,0,0:0:0:0::
320,192,208781,1,0,0:0:0:0::
64,192,208933,1,0,0:0:0:0::
448,192,208933,1,0,0:0:0:0::
64,192,209084,1,8,0:0:0:0::
320,192,209084,1,0,0:0:0:0::
192,192,209084,1,0,0:0:0:0::
192,192,209236,1,8,0:0:0:0::
448,192,209236,1,0,0:0:0:0::
320,192,209236,1,0,0:0:0:0::
64,192,209387,1,8,0:0:0:0::
448,192,209387,1,0,0:0:0:0::
320,192,209387,128,0,209538:0:0:0:0:
192,192,209538,1,0,0:0:0:0::
448,192,209538,1,0,0:0:0:0::
192,192,209691,1,0,0:0:0:0::
448,192,209691,1,0,0:0:0:0::
320,192,209842,1,0,0:0:0:0::
192,192,209842,1,0,0:0:0:0::
64,192,209842,128,8,209993:0:0:0:0:
448,192,209993,1,0,0:0:0:0::
320,192,209993,1,0,0:0:0:0::
320,192,210145,1,0,0:0:0:0::
448,192,210145,1,0,0:0:0:0::
64,192,210296,1,8,0:0:0:0::
192,192,210296,1,0,0:0:0:0::
448,192,210296,1,0,0:0:0:0::
320,192,210372,1,0,0:0:0:0::
192,192,210447,1,0,0:0:0:0::
64,192,210447,1,0,0:0:0:0::
448,192,210524,1,0,0:0:0:0::
320,192,210524,1,0,0:0:0:0::
320,192,210600,1,0,0:0:0:0::
448,192,210600,1,0,0:0:0:0::
192,192,210600,1,8,0:0:0:0::
320,192,210751,1,0,0:0:0:0::
448,192,210751,1,0,0:0:0:0::
64,192,210826,1,0,0:0:0:0::
192,192,210826,1,0,0:0:0:0::
64,192,210903,1,8,0:0:0:0::
192,192,210903,1,0,0:0:0:0::
320,192,210903,1,0,0:0:0:0::
192,192,211054,1,8,0:0:0:0::
448,192,211054,1,0,0:0:0:0::
320,192,211054,1,0,0:0:0:0::
320,192,211205,1,0,0:0:0:0::
64,192,211205,128,0,211584:0:0:0:0:
320,192,211584,128,0,211697:0:0:0:0:
192,192,211697,128,0,211812:0:0:0:0:
448,192,211812,128,0,211963:0:0:0:0:
64,192,211963,128,0,212114:0:0:0:0:
320,192,212114,128,0,212266:0:0:0:0:
448,192,212266,128,0,212417:0:0:0:0:
192,192,212417,128,0,212570:0:0:0:0:
64,192,212570,128,0,212721:0:0:0:0:
320,192,212721,128,0,212872:0:0:0:0:
64,192,212872,1,0,0:0:0:0::
448,192,212872,128,0,213024:0:0:0:0:
64,192,212947,1,0,0:0:0:0::
320,192,213024,128,0,213175:0:0:0:0:
192,192,213024,1,8,0:0:0:0::
192,192,213175,128,0,213326:0:0:0:0:
448,192,213326,128,0,213933:0:0:0:0:
320,192,213478,128,0,214008:0:0:0:0:
192,192,213478,128,0,214084:0:0:0:0:
64,192,213478,128,8,214160:0:0:0:0:
448,192,214008,1,0,0:0:0:0::
320,192,214084,1,0,0:0:0:0::
192,192,214160,1,0,0:0:0:0::
64,192,214236,1,0,0:0:0:0::
448,192,214236,1,0,0:0:0:0::
