osu file format v14

[General]
AudioFilename: audio.ogg
AudioLeadIn: 0
PreviewTime: 18232
Countdown: 0
SampleSet: Normal
StackLeniency: 0.7
Mode: 1
LetterboxInBreaks: 0
WidescreenStoryboard: 1

[Editor]
DistanceSpacing: 1.2
BeatDivisor: 4
GridSize: 4
TimelineZoom: 0.8000001

[Metadata]
Title:Journey
TitleUnicode:Journey
Artist:God's Warrior
ArtistUnicode:God's Warrior
Creator:CallMeLyra
Version:SWAKE's Oni
Source:
Tags:glitch hop dubstepgutter dubstep gutter electronic instrumental gods swing smt single mod tournament HD hidden Grand Finals GF SL SWAKE
BeatmapID:3824780
BeatmapSetID:1789947

[Difficulty]
HPDrainRate:5.5
CircleSize:5
OverallDifficulty:5.5
ApproachRate:5
SliderMultiplier:1.4
SliderTickRate:1

[Events]
//Background and Video events
0,0,"Zone.jpg",0,50
//Break Periods
//Storyboard Layer 0 (Background)
//Storyboard Layer 1 (Fail)
//Storyboard Layer 2 (Pass)
//Storyboard Layer 3 (Foreground)
//Storyboard Layer 4 (Overlay)
//Storyboard Sound Samples

[TimingPoints]
518,571.428571428572,4,1,0,80,1,0
18184,-100,4,1,0,80,0,0
18803,-100,4,1,0,90,0,1
22803,-100,4,1,0,90,0,0
23375,-100,4,1,0,90,0,1
31946,-100,4,1,0,90,0,0
32518,-100,4,1,0,90,0,1
36422,-100,4,1,0,90,0,0
37089,-100,4,1,0,90,0,1
46232,-100,4,1,0,80,0,0
47327,-100,4,1,0,80,0,0
64518,-100,4,1,0,85,0,0
73613,-100,4,1,0,90,0,0
91946,-100,4,1,0,80,0,0
109613,-100,4,1,0,80,0,0
110232,-100,4,1,0,90,0,1
128518,-100,4,1,0,80,0,0
129613,-100,4,1,0,80,0,0
146184,-100,4,1,0,80,0,0
146803,-100,4,1,0,90,0,1
150803,-100,4,1,0,90,0,0
151375,-100,4,1,0,90,0,1
159946,-100,4,1,0,90,0,0
160518,-100,4,1,0,90,0,1
164422,-100,4,1,0,90,0,0
165089,-100,4,1,0,90,0,1
174232,-100,4,1,0,85,0,0

[HitObjects]
274,72,518,5,8,0:0:0:0:
285,168,1660,1,0,0:0:0:0:
451,257,2137,1,0,0:0:0:0:
451,257,2232,1,8,0:0:0:0:
451,257,2518,1,0,0:0:0:0:
451,257,2803,1,0,0:0:0:0:
451,257,3375,1,8,0:0:0:0:
451,257,3660,1,8,0:0:0:0:
451,257,3946,1,0,0:0:0:0:
264,152,4518,1,0,0:0:0:0:
264,152,5089,1,8,0:0:0:0:
221,118,6232,1,0,0:0:0:0:
221,118,6708,1,0,0:0:0:0:
221,118,6803,1,8,0:0:0:0:
253,75,7089,1,0,0:0:0:0:
253,84,7375,1,0,0:0:0:0:
245,80,7565,1,8,0:0:0:0:
245,80,7851,1,8,0:0:0:0:
253,84,8137,1,0,0:0:0:0:
214,80,8422,1,0,0:0:0:0:
214,80,8518,1,0,0:0:0:0:
234,96,8803,1,8,0:0:0:0:
234,98,9089,1,8,0:0:0:0:
234,96,9375,1,0,0:0:0:0:
234,96,9660,1,4,0:0:0:0:
202,175,10137,1,8,0:0:0:0:
300,73,10232,1,0,0:0:0:0:
202,175,10422,1,8,0:0:0:0:
202,175,10708,1,8,0:0:0:0:
202,175,10994,1,0,0:0:0:0:
214,92,11279,1,0,0:0:0:0:
214,92,11375,1,8,0:0:0:0:
214,98,11565,1,8,0:0:0:0:
214,100,11660,1,0,0:0:0:0:
190,88,11851,1,8,0:0:0:0:
225,88,11946,1,0,0:0:0:0:
225,44,12422,1,0,0:0:0:0:
189,90,12518,1,8,0:0:0:0:
415,198,12708,1,8,0:0:0:0:
189,90,12994,1,8,0:0:0:0:
189,90,13279,1,0,0:0:0:0:
293,68,13660,1,8,0:0:0:0:
293,68,13851,1,0,0:0:0:0:
293,68,13946,1,8,0:0:0:0:
287,71,14137,1,8,0:0:0:0:
287,72,14232,1,0,0:0:0:0:
272,72,14518,1,0,0:0:0:0:
272,74,14803,1,0,0:0:0:0:
272,74,15089,1,0,0:0:0:0:
272,72,15375,1,8,0:0:0:0:
283,93,15660,1,8,0:0:0:0:
283,93,15946,1,0,0:0:0:0:
283,93,16232,1,8,0:0:0:0:
283,93,16518,1,8,0:0:0:0:
241,75,16613,1,0,0:0:0:0:
224,156,16708,1,0,0:0:0:0:
224,156,16803,1,8,0:0:0:0:
222,161,17089,1,0,0:0:0:0:
224,156,17184,1,8,0:0:0:0:
224,156,17279,1,8,0:0:0:0:
250,53,17375,1,0,0:0:0:0:
262,76,17660,1,8,0:0:0:0:
225,65,18232,1,8,0:0:0:0:
225,65,18518,1,0,0:0:0:0:
251,153,18803,5,4,0:0:0:0:
279,129,19089,1,0,0:0:0:0:
285,111,19279,1,8,0:0:0:0:
286,108,19375,1,8,0:0:0:0:
254,138,19565,1,8,0:0:0:0:
254,138,19660,1,8,0:0:0:0:
254,138,19851,1,8,0:0:0:0:
254,138,20137,1,0,0:0:0:0:
300,64,20518,1,8,0:0:0:0:
300,64,20708,1,8,0:0:0:0:
300,64,20803,1,0,0:0:0:0:
300,64,20994,1,0,0:0:0:0:
300,64,21089,1,8,0:0:0:0:
252,158,21375,1,0,0:0:0:0:
271,133,21565,1,8,0:0:0:0:
271,133,21660,1,8,0:0:0:0:
271,133,21851,1,8,0:0:0:0:
271,133,21946,1,8,0:0:0:0:
271,70,22137,1,0,0:0:0:0:
271,70,22422,1,0,0:0:0:0:
344,87,22803,1,8,0:0:0:0:
238,81,23375,1,4,0:0:0:0:
189,97,23660,1,0,0:0:0:0:
215,77,23851,1,0,0:0:0:0:
189,97,23946,1,8,0:0:0:0:
189,97,24137,1,8,0:0:0:0:
223,95,24232,1,8,0:0:0:0:
258,82,24422,1,8,0:0:0:0:
258,82,24708,1,0,0:0:0:0:
266,56,25089,1,8,0:0:0:0:
268,59,25279,1,8,0:0:0:0:
268,59,25375,1,0,0:0:0:0:
267,59,25565,1,0,0:0:0:0:
267,60,25660,1,8,0:0:0:0:
270,64,25946,1,0,0:0:0:0:
269,64,26137,1,0,0:0:0:0:
270,64,26232,1,8,0:0:0:0:
269,64,26422,1,8,0:0:0:0:
269,64,26518,1,8,0:0:0:0:
286,83,26708,1,0,0:0:0:0:
286,83,26994,1,8,0:0:0:0:
286,83,27089,1,8,0:0:0:0:
286,83,27279,1,0,0:0:0:0:
309,42,27375,1,8,0:0:0:0:
309,42,27660,1,8,0:0:0:0:
251,153,27946,5,4,0:0:0:0:
279,129,28232,1,0,0:0:0:0:
285,111,28422,1,0,0:0:0:0:
286,108,28518,1,8,0:0:0:0:
254,138,28708,1,8,0:0:0:0:
254,138,28803,1,8,0:0:0:0:
254,138,28994,1,0,0:0:0:0:
254,138,29279,1,0,0:0:0:0:
300,64,29660,1,8,0:0:0:0:
300,64,29851,1,8,0:0:0:0:
300,64,29946,1,0,0:0:0:0:
300,64,30137,1,0,0:0:0:0:
300,64,30232,1,8,0:0:0:0:
252,158,30518,1,0,0:0:0:0:
271,133,30708,1,0,0:0:0:0:
271,133,30803,1,8,0:0:0:0:
271,133,30994,1,8,0:0:0:0:
271,133,31089,1,8,0:0:0:0:
271,70,31279,1,8,0:0:0:0:
271,70,31565,1,0,0:0:0:0:
344,87,31946,1,8,0:0:0:0:
238,81,32518,1,4,0:0:0:0:
189,97,32803,1,0,0:0:0:0:
215,77,32994,1,8,0:0:0:0:
189,97,33089,1,8,0:0:0:0:
189,97,33279,1,8,0:0:0:0:
223,95,33375,1,0,0:0:0:0:
258,82,33565,1,8,0:0:0:0:
258,82,33851,1,0,0:0:0:0:
266,56,34232,1,8,0:0:0:0:
268,59,34422,1,8,0:0:0:0:
268,59,34518,1,0,0:0:0:0:
267,59,34708,1,0,0:0:0:0:
267,60,34803,1,8,0:0:0:0:
270,64,35089,1,0,0:0:0:0:
269,64,35279,1,0,0:0:0:0:
270,64,35375,1,8,0:0:0:0:
269,64,35565,1,8,0:0:0:0:
269,64,35660,1,8,0:0:0:0:
286,83,35851,1,0,0:0:0:0:
208,74,35946,1,0,0:0:0:0:
286,83,36137,1,8,0:0:0:0:
286,83,36232,1,0,0:0:0:0:
286,83,36422,1,0,0:0:0:0:
243,198,37089,1,4,0:0:0:0:
270,89,37375,1,0,0:0:0:0:
233,198,37565,1,8,0:0:0:0:
233,199,37660,1,8,0:0:0:0:
266,73,37756,1,0,0:0:0:0:
317,88,37851,1,0,0:0:0:0:
231,212,37946,1,0,0:0:0:0:
318,133,38137,1,8,0:0:0:0:
318,133,38232,1,0,0:0:0:0:
324,147,38422,1,8,0:0:0:0:
324,147,38518,1,0,0:0:0:0:
428,209,38803,1,8,0:0:0:0:
384,167,38994,1,0,0:0:0:0:
384,167,39089,1,8,0:0:0:0:
384,167,39279,1,8,0:0:0:0:
384,167,39375,1,0,0:0:0:0:
384,167,39660,1,8,0:0:0:0:
384,167,39851,1,0,0:0:0:0:
384,167,39946,1,8,0:0:0:0:
262,58,40041,1,8,0:0:0:0:
240,127,40137,1,8,0:0:0:0:
240,127,40232,1,0,0:0:0:0:
240,127,40422,1,8,0:0:0:0:
240,127,40518,1,0,0:0:0:0:
240,127,40708,1,8,0:0:0:0:
240,127,40803,1,0,0:0:0:0:
240,127,41089,1,8,0:0:0:0:
263,82,41279,1,0,0:0:0:0:
270,69,41375,1,8,0:0:0:0:
255,56,41565,1,8,0:0:0:0:
274,72,41660,1,0,0:0:0:0:
270,89,41946,1,0,0:0:0:0:
233,198,42137,1,0,0:0:0:0:
233,199,42232,1,8,0:0:0:0:
266,73,42327,1,0,0:0:0:0:
317,88,42422,1,8,0:0:0:0:
231,212,42518,1,0,0:0:0:0:
318,133,42708,1,8,0:0:0:0:
318,133,42803,1,0,0:0:0:0:
324,147,42994,1,8,0:0:0:0:
324,147,43089,1,0,0:0:0:0:
428,209,43375,1,8,0:0:0:0:
384,167,43565,1,0,0:0:0:0:
384,167,43660,1,8,0:0:0:0:
384,167,43851,1,8,0:0:0:0:
384,167,43946,1,0,0:0:0:0:
384,167,44232,1,8,0:0:0:0:
384,167,44422,1,0,0:0:0:0:
384,167,44518,1,8,0:0:0:0:
262,58,44613,1,0,0:0:0:0:
240,127,44708,1,0,0:0:0:0:
240,127,44803,1,8,0:0:0:0:
240,127,44994,1,8,0:0:0:0:
240,127,45089,1,0,0:0:0:0:
240,127,45279,1,8,0:0:0:0:
240,127,45375,1,0,0:0:0:0:
240,127,45660,1,8,0:0:0:0:
263,82,45851,1,0,0:0:0:0:
270,69,45946,1,0,0:0:0:0:
274,72,46232,1,8,0:0:0:0:
285,168,47375,1,0,0:0:0:0:
451,257,47851,1,0,0:0:0:0:
451,257,47946,1,8,0:0:0:0:
451,257,48232,1,0,0:0:0:0:
451,257,48518,1,0,0:0:0:0:
451,257,49089,1,8,0:0:0:0:
451,257,49375,1,8,0:0:0:0:
451,257,49660,1,0,0:0:0:0:
264,152,50232,1,0,0:0:0:0:
264,152,50803,1,8,0:0:0:0:
221,118,51946,1,0,0:0:0:0:
221,118,52422,1,0,0:0:0:0:
221,118,52518,1,8,0:0:0:0:
253,76,52803,1,0,0:0:0:0:
253,84,53089,1,0,0:0:0:0:
245,80,53279,1,8,0:0:0:0:
245,80,53565,1,8,0:0:0:0:
253,84,53851,1,0,0:0:0:0:
214,80,54137,1,0,0:0:0:0:
214,80,54232,1,0,0:0:0:0:
234,96,54518,1,8,0:0:0:0:
234,98,54803,1,8,0:0:0:0:
234,96,55089,1,0,0:0:0:0:
234,96,55375,1,4,0:0:0:0:
324,104,55946,1,8,0:0:0:0:
324,104,56518,1,0,0:0:0:0:
324,104,56994,1,0,0:0:0:0:
324,104,57089,1,8,0:0:0:0:
324,104,57375,1,8,0:0:0:0:
324,104,57660,1,0,0:0:0:0:
324,104,58232,1,0,0:0:0:0:
324,104,58803,1,8,0:0:0:0:
324,104,59375,1,8,0:0:0:0:
252,95,59946,1,0,0:0:0:0:
252,95,60708,1,0,0:0:0:0:
229,108,60803,1,0,0:0:0:0:
229,108,60898,1,0,0:0:0:0:
229,108,60994,1,0,0:0:0:0:
228,113,61089,1,8,0:0:0:0:
229,119,61375,1,8,0:0:0:0:
229,119,61660,1,0,0:0:0:0:
229,120,61946,1,8,0:0:0:0:
229,119,62232,1,8,0:0:0:0:
229,119,62518,1,8,0:0:0:0:
229,120,62803,1,8,0:0:0:0:
229,119,63089,1,8,0:0:0:0:
229,119,63375,1,0,0:0:0:0:
229,120,63660,1,8,0:0:0:0:
229,119,63946,1,8,0:0:0:0:
229,119,64232,1,0,0:0:0:0:
229,120,64518,1,12,0:0:0:0:
309,99,64803,1,0,0:0:0:0:
309,99,65089,1,8,0:0:0:0:
309,103,65279,1,0,0:0:0:0:
310,105,65565,1,0,0:0:0:0:
310,105,65660,1,0,0:0:0:0:
246,82,65946,1,8,0:0:0:0:
242,89,66041,1,8,0:0:0:0:
241,92,66137,1,8,0:0:0:0:
246,68,66232,1,8,0:0:0:0:
240,92,66518,1,0,0:0:0:0:
319,74,66803,1,8,0:0:0:0:
313,101,67089,1,0,0:0:0:0:
313,101,67375,1,8,0:0:0:0:
313,101,67565,1,0,0:0:0:0:
312,106,67851,1,8,0:0:0:0:
312,106,67946,1,0,0:0:0:0:
304,110,68232,1,8,0:0:0:0:
303,113,68327,1,8,0:0:0:0:
301,116,68422,1,8,0:0:0:0:
301,116,68518,1,8,0:0:0:0:
239,57,68803,1,0,0:0:0:0:
239,62,69089,1,8,0:0:0:0:
410,160,69375,1,0,0:0:0:0:
404,163,69660,1,8,0:0:0:0:
403,163,69851,1,0,0:0:0:0:
400,164,70137,1,0,0:0:0:0:
400,164,70232,1,0,0:0:0:0:
251,70,70518,1,8,0:0:0:0:
251,70,70613,1,8,0:0:0:0:
251,70,70708,1,8,0:0:0:0:
253,75,70803,1,8,0:0:0:0:
253,75,71089,1,0,0:0:0:0:
253,75,71375,1,0,0:0:0:0:
282,144,71946,1,8,0:0:0:0:
185,200,72232,1,0,0:0:0:0:
282,144,72518,1,8,0:0:0:0:
282,144,72803,1,8,0:0:0:0:
282,144,73089,1,0,0:0:0:0:
282,144,73375,1,8,0:0:0:0:
282,144,73660,1,0,0:0:0:0:
266,55,73946,1,0,0:0:0:0:
255,69,74232,1,8,0:0:0:0:
256,70,74422,1,0,0:0:0:0:
268,98,74708,1,0,0:0:0:0:
268,98,74803,1,0,0:0:0:0:
269,91,75089,1,8,0:0:0:0:
272,97,75184,1,8,0:0:0:0:
274,100,75279,1,0,0:0:0:0:
273,102,75375,1,8,0:0:0:0:
285,49,75470,1,0,0:0:0:0:
273,103,75565,1,0,0:0:0:0:
274,105,75660,1,8,0:0:0:0:
282,144,75946,1,8,0:0:0:0:
266,55,76232,1,0,0:0:0:0:
255,69,76518,1,8,0:0:0:0:
216,64,76708,1,8,0:0:0:0:
256,70,76803,1,8,0:0:0:0:
268,98,76994,1,8,0:0:0:0:
268,98,77089,1,0,0:0:0:0:
269,91,77375,1,0,0:0:0:0:
272,97,77470,1,0,0:0:0:0:
274,100,77565,1,8,0:0:0:0:
273,102,77660,1,8,0:0:0:0:
285,49,77756,1,8,0:0:0:0:
273,103,77851,1,8,0:0:0:0:
274,105,77946,1,0,0:0:0:0:
282,144,78232,1,8,0:0:0:0:
266,55,78518,1,0,0:0:0:0:
255,69,78803,1,8,0:0:0:0:
256,70,78994,1,0,0:0:0:0:
268,98,79279,1,0,0:0:0:0:
268,98,79375,1,0,0:0:0:0:
269,91,79660,1,8,0:0:0:0:
272,97,79756,1,8,0:0:0:0:
274,100,79851,1,0,0:0:0:0:
273,102,79946,1,8,0:0:0:0:
285,49,80041,1,0,0:0:0:0:
273,103,80137,1,0,0:0:0:0:
274,105,80232,1,8,0:0:0:0:
282,144,80518,1,0,0:0:0:0:
255,69,81089,1,8,0:0:0:0:
199,68,81375,1,0,0:0:0:0:
268,98,81660,1,8,0:0:0:0:
269,91,81946,1,0,0:0:0:0:
273,102,82232,1,8,0:0:0:0:
274,105,82518,1,8,0:0:0:0:
271,58,82803,1,0,0:0:0:0:
251,86,83089,1,0,0:0:0:0:
239,113,83375,1,8,0:0:0:0:
232,123,83660,1,8,0:0:0:0:
232,127,83851,1,8,0:0:0:0:
354,133,83946,1,0,0:0:0:0:
221,95,84137,1,8,0:0:0:0:
220,96,84232,1,0,0:0:0:0:
223,118,84518,1,0,0:0:0:0:
224,119,84613,1,0,0:0:0:0:
221,95,84708,1,8,0:0:0:0:
227,116,84803,1,8,0:0:0:0:
227,116,85089,1,8,0:0:0:0:
271,84,85375,1,0,0:0:0:0:
276,96,85660,1,8,0:0:0:0:
276,98,85946,1,8,0:0:0:0:
409,230,86137,1,0,0:0:0:0:
271,84,86232,1,0,0:0:0:0:
268,96,86422,1,8,0:0:0:0:
268,97,86518,1,0,0:0:0:0:
268,109,86803,1,8,0:0:0:0:
317,96,86898,1,0,0:0:0:0:
317,96,86994,1,0,0:0:0:0:
317,96,87089,1,8,0:0:0:0:
271,58,87375,1,0,0:0:0:0:
239,113,87660,1,0,0:0:0:0:
251,86,87946,1,8,0:0:0:0:
232,123,88232,1,8,0:0:0:0:
232,127,88422,1,8,0:0:0:0:
354,133,88518,1,0,0:0:0:0:
221,95,88708,1,8,0:0:0:0:
220,96,88803,1,0,0:0:0:0:
223,118,89089,1,0,0:0:0:0:
224,119,89184,1,0,0:0:0:0:
221,95,89279,1,8,0:0:0:0:
227,116,89375,1,8,0:0:0:0:
227,116,89660,1,0,0:0:0:0:
276,96,90232,1,8,0:0:0:0:
276,98,90518,1,0,0:0:0:0:
271,84,90803,1,8,0:0:0:0:
268,97,91089,1,8,0:0:0:0:
268,109,91375,1,0,0:0:0:0:
317,96,91660,1,8,0:0:0:0:
204,57,91946,1,0,0:0:0:0:
245,122,92232,1,8,0:0:0:0:
241,47,92422,5,0,0:0:0:0:
245,122,92518,1,0,0:0:0:0:
227,28,92613,1,0,0:0:0:0:
245,122,92708,1,0,0:0:0:0:
245,122,92803,1,8,0:0:0:0:
317,146,93089,1,0,0:0:0:0:
282,151,93375,1,0,0:0:0:0:
282,151,93660,1,8,0:0:0:0:
282,151,93946,1,8,0:0:0:0:
282,151,94232,1,0,0:0:0:0:
282,151,94518,1,8,0:0:0:0:
481,295,94708,1,8,0:0:0:0:
282,151,94803,1,0,0:0:0:0:
282,151,94898,1,0,0:0:0:0:
282,151,94994,1,0,0:0:0:0:
276,143,95089,1,8,0:0:0:0:
461,279,95375,1,8,0:0:0:0:
461,279,95660,1,8,0:0:0:0:
461,279,95946,1,0,0:0:0:0:
461,279,96232,1,0,0:0:0:0:
461,279,96518,1,0,0:0:0:0:
461,279,96803,1,8,0:0:0:0:
461,279,96994,1,0,0:0:0:0:
461,279,97089,1,0,0:0:0:0:
461,279,97184,1,0,0:0:0:0:
461,279,97279,1,0,0:0:0:0:
461,279,97375,1,8,0:0:0:0:
301,81,97660,1,0,0:0:0:0:
301,81,97946,1,0,0:0:0:0:
301,81,98232,1,8,0:0:0:0:
301,81,98518,1,8,0:0:0:0:
301,81,98803,1,8,0:0:0:0:
301,86,98898,1,0,0:0:0:0:
304,91,98994,1,0,0:0:0:0:
301,86,99089,1,8,0:0:0:0:
305,91,99375,1,0,0:0:0:0:
305,91,99470,1,8,0:0:0:0:
305,91,99565,1,8,0:0:0:0:
305,91,99660,1,0,0:0:0:0:
292,77,99946,1,8,0:0:0:0:
293,78,100041,1,8,0:0:0:0:
292,78,100137,1,0,0:0:0:0:
293,78,100232,1,8,0:0:0:0:
293,80,100518,1,8,0:0:0:0:
292,77,100803,1,0,0:0:0:0:
202,42,101089,1,4,0:0:0:0:
331,123,101565,1,8,0:0:0:0:
331,123,101946,1,0,0:0:0:0:
331,123,102232,1,8,0:0:0:0:
331,123,102518,1,8,0:0:0:0:
331,123,102803,1,0,0:0:0:0:
264,82,103089,1,0,0:0:0:0:
243,97,103279,1,8,0:0:0:0:
264,82,103375,1,0,0:0:0:0:
55,222,103565,1,8,0:0:0:0:
225,117,103851,1,8,0:0:0:0:
310,117,104232,1,0,0:0:0:0:
310,117,104518,1,8,0:0:0:0:
310,117,104803,1,8,0:0:0:0:
310,117,105089,1,0,0:0:0:0:
310,117,105375,1,8,0:0:0:0:
452,105,105565,1,8,0:0:0:0:
310,117,105660,1,0,0:0:0:0:
351,99,105851,1,8,0:0:0:0:
351,99,106137,1,8,0:0:0:0:
347,103,106518,1,0,0:0:0:0:
347,103,106803,1,8,0:0:0:0:
347,103,107089,1,0,0:0:0:0:
347,103,107375,1,8,0:0:0:0:
347,103,107660,1,8,0:0:0:0:
347,103,107946,1,8,0:0:0:0:
347,103,108041,1,0,0:0:0:0:
347,103,108137,1,0,0:0:0:0:
316,67,108232,1,8,0:0:0:0:
347,103,108518,1,0,0:0:0:0:
347,103,108613,1,8,0:0:0:0:
238,99,108708,1,8,0:0:0:0:
238,99,108803,1,0,0:0:0:0:
347,103,109089,1,8,0:0:0:0:
201,78,109660,1,8,0:0:0:0:
201,78,109946,1,0,0:0:0:0:
294,242,110232,5,4,0:0:0:0:
289,251,110518,1,8,0:0:0:0:
289,251,110708,1,8,0:0:0:0:
290,106,110803,1,8,0:0:0:0:
290,106,110898,1,0,0:0:0:0:
286,126,110994,1,0,0:0:0:0:
286,113,111089,1,8,0:0:0:0:
279,135,111375,1,0,0:0:0:0:
240,115,111565,5,8,0:0:0:0:
266,154,111660,1,0,0:0:0:0:
229,128,111946,1,8,0:0:0:0:
229,128,112137,1,0,0:0:0:0:
229,128,112232,1,0,0:0:0:0:
300,88,112422,1,8,0:0:0:0:
300,88,112518,1,0,0:0:0:0:
293,100,112803,1,8,0:0:0:0:
290,101,112994,1,0,0:0:0:0:
264,52,113089,1,8,0:0:0:0:
286,100,113184,1,8,0:0:0:0:
264,52,113279,1,8,0:0:0:0:
235,78,113375,1,0,0:0:0:0:
245,111,113660,1,8,0:0:0:0:
246,117,113851,1,0,0:0:0:0:
245,111,113946,1,8,0:0:0:0:
246,121,114232,1,0,0:0:0:0:
289,73,114422,1,8,0:0:0:0:
289,73,114518,1,0,0:0:0:0:
294,242,114803,5,12,0:0:0:0:
289,251,115089,1,8,0:0:0:0:
289,251,115279,1,0,0:0:0:0:
290,106,115375,1,8,0:0:0:0:
290,106,115470,1,0,0:0:0:0:
286,126,115565,1,0,0:0:0:0:
286,113,115660,1,8,0:0:0:0:
279,135,115946,1,8,0:0:0:0:
240,115,116137,5,8,0:0:0:0:
266,154,116232,1,0,0:0:0:0:
229,128,116518,1,8,0:0:0:0:
229,128,116708,1,0,0:0:0:0:
229,128,116803,1,0,0:0:0:0:
300,88,117089,1,8,0:0:0:0:
184,67,117184,1,0,0:0:0:0:
184,67,117279,1,0,0:0:0:0:
293,100,117375,1,8,0:0:0:0:
264,52,117660,1,8,0:0:0:0:
286,100,117756,1,8,0:0:0:0:
264,52,117851,1,8,0:0:0:0:
235,78,117946,1,0,0:0:0:0:
245,111,118232,1,0,0:0:0:0:
226,74,118327,1,8,0:0:0:0:
246,117,118422,1,8,0:0:0:0:
245,111,118518,1,0,0:0:0:0:
246,121,118803,1,8,0:0:0:0:
207,101,118994,1,8,0:0:0:0:
289,73,119089,1,0,0:0:0:0:
180,124,119375,1,4,0:0:0:0:
310,273,119851,1,0,0:0:0:0:
289,73,119946,1,8,0:0:0:0:
271,118,120232,1,0,0:0:0:0:
341,204,120518,1,8,0:0:0:0:
258,161,120708,1,0,0:0:0:0:
258,161,120803,1,0,0:0:0:0:
186,84,121089,1,8,0:0:0:0:
235,62,121375,1,8,0:0:0:0:
237,103,121565,1,8,0:0:0:0:
252,99,121660,1,0,0:0:0:0:
299,85,121851,1,8,0:0:0:0:
309,136,122137,1,8,0:0:0:0:
401,103,122232,1,8,0:0:0:0:
391,223,122422,1,8,0:0:0:0:
271,118,122518,1,0,0:0:0:0:
341,204,122803,1,8,0:0:0:0:
258,161,122994,1,0,0:0:0:0:
258,161,123089,1,0,0:0:0:0:
186,84,123375,1,8,0:0:0:0:
264,67,123565,1,0,0:0:0:0:
235,62,123660,1,8,0:0:0:0:
252,99,123946,1,4,0:0:0:0:
206,118,124137,1,8,0:0:0:0:
206,118,124422,1,8,0:0:0:0:
364,139,124518,1,8,0:0:0:0:
271,118,124803,1,0,0:0:0:0:
341,204,125089,1,8,0:0:0:0:
258,161,125279,1,0,0:0:0:0:
258,161,125375,1,0,0:0:0:0:
186,84,125660,1,8,0:0:0:0:
264,67,125851,1,8,0:0:0:0:
235,62,125946,1,8,0:0:0:0:
237,103,126137,1,8,0:0:0:0:
252,99,126232,1,8,0:0:0:0:
251,78,126327,1,0,0:0:0:0:
243,65,126422,1,0,0:0:0:0:
250,81,126518,1,8,0:0:0:0:
242,70,126803,1,8,0:0:0:0:
233,75,126898,1,8,0:0:0:0:
241,71,126994,1,8,0:0:0:0:
238,74,127089,1,0,0:0:0:0:
233,75,127375,1,0,0:0:0:0:
232,76,127470,1,8,0:0:0:0:
231,77,127565,1,8,0:0:0:0:
231,77,127660,1,0,0:0:0:0:
230,62,127946,1,8,0:0:0:0:
230,63,128232,1,0,0:0:0:0:
274,72,128518,5,8,0:0:0:0:
285,168,129660,1,0,0:0:0:0:
451,257,130137,1,0,0:0:0:0:
451,257,130232,1,8,0:0:0:0:
451,257,130518,1,0,0:0:0:0:
451,257,130803,1,0,0:0:0:0:
451,257,131375,1,8,0:0:0:0:
451,257,131660,1,8,0:0:0:0:
451,257,131946,1,0,0:0:0:0:
264,152,132518,1,0,0:0:0:0:
264,152,133089,1,8,0:0:0:0:
221,118,134232,1,0,0:0:0:0:
221,118,134708,1,0,0:0:0:0:
221,118,134803,1,8,0:0:0:0:
253,76,135089,1,0,0:0:0:0:
253,84,135375,1,0,0:0:0:0:
245,80,135565,1,8,0:0:0:0:
245,80,135851,1,8,0:0:0:0:
253,84,136137,1,0,0:0:0:0:
214,80,136422,1,0,0:0:0:0:
214,80,136518,1,0,0:0:0:0:
234,96,136803,1,8,0:0:0:0:
234,98,137089,1,8,0:0:0:0:
234,96,137375,1,0,0:0:0:0:
234,96,137660,1,4,0:0:0:0:
202,175,138137,1,8,0:0:0:0:
300,73,138232,1,0,0:0:0:0:
202,175,138422,1,8,0:0:0:0:
202,175,138708,1,8,0:0:0:0:
202,175,138994,1,0,0:0:0:0:
214,92,139279,1,0,0:0:0:0:
214,92,139375,1,8,0:0:0:0:
214,98,139565,1,8,0:0:0:0:
214,100,139660,1,0,0:0:0:0:
190,88,139851,1,8,0:0:0:0:
225,88,139946,1,0,0:0:0:0:
225,44,140422,1,0,0:0:0:0:
189,90,140518,1,8,0:0:0:0:
415,198,140708,1,8,0:0:0:0:
189,90,140994,1,8,0:0:0:0:
189,90,141279,1,0,0:0:0:0:
293,68,141660,1,8,0:0:0:0:
293,68,141851,1,0,0:0:0:0:
293,68,141946,1,8,0:0:0:0:
287,71,142137,1,8,0:0:0:0:
287,72,142232,1,0,0:0:0:0:
272,72,142518,1,0,0:0:0:0:
272,74,142803,1,0,0:0:0:0:
272,74,143089,1,0,0:0:0:0:
272,72,143375,1,8,0:0:0:0:
283,93,143660,1,8,0:0:0:0:
283,93,143946,1,0,0:0:0:0:
283,93,144232,1,8,0:0:0:0:
283,93,144518,1,8,0:0:0:0:
241,75,144613,1,0,0:0:0:0:
224,156,144708,1,0,0:0:0:0:
224,156,144803,1,8,0:0:0:0:
222,161,145089,1,0,0:0:0:0:
224,156,145184,1,8,0:0:0:0:
224,156,145279,1,8,0:0:0:0:
250,53,145375,1,0,0:0:0:0:
262,76,145660,5,8,0:0:0:0:
166,228,146232,1,8,0:0:0:0:
148,206,146518,1,0,0:0:0:0:
251,153,146803,5,4,0:0:0:0:
279,129,147089,1,0,0:0:0:0:
285,111,147279,1,8,0:0:0:0:
286,108,147375,1,8,0:0:0:0:
254,138,147565,1,8,0:0:0:0:
254,138,147660,1,8,0:0:0:0:
254,138,147851,1,8,0:0:0:0:
254,138,148137,1,0,0:0:0:0:
300,64,148518,1,8,0:0:0:0:
300,64,148708,1,8,0:0:0:0:
300,64,148803,1,0,0:0:0:0:
300,64,148994,1,0,0:0:0:0:
300,64,149089,1,8,0:0:0:0:
252,158,149375,1,0,0:0:0:0:
271,133,149565,1,8,0:0:0:0:
271,133,149660,1,8,0:0:0:0:
271,133,149851,1,8,0:0:0:0:
271,133,149946,1,8,0:0:0:0:
271,70,150137,1,0,0:0:0:0:
271,70,150422,1,0,0:0:0:0:
344,87,150803,1,8,0:0:0:0:
238,81,151375,1,4,0:0:0:0:
189,97,151660,1,0,0:0:0:0:
215,77,151851,1,0,0:0:0:0:
189,97,151946,1,8,0:0:0:0:
189,97,152137,1,8,0:0:0:0:
223,95,152232,1,8,0:0:0:0:
258,82,152422,1,8,0:0:0:0:
258,82,152708,1,0,0:0:0:0:
266,56,153089,1,8,0:0:0:0:
268,59,153279,1,8,0:0:0:0:
268,59,153375,1,0,0:0:0:0:
267,59,153565,1,0,0:0:0:0:
267,60,153660,1,8,0:0:0:0:
270,64,153946,1,0,0:0:0:0:
269,64,154137,1,0,0:0:0:0:
270,64,154232,1,8,0:0:0:0:
269,64,154422,1,8,0:0:0:0:
269,64,154518,1,8,0:0:0:0:
286,83,154708,1,0,0:0:0:0:
286,83,154994,1,8,0:0:0:0:
286,83,155089,1,8,0:0:0:0:
286,83,155279,1,0,0:0:0:0:
309,42,155375,1,8,0:0:0:0:
309,42,155660,1,8,0:0:0:0:
251,153,155946,5,4,0:0:0:0:
279,129,156232,1,0,0:0:0:0:
285,111,156422,1,0,0:0:0:0:
286,108,156518,1,8,0:0:0:0:
254,138,156708,1,8,0:0:0:0:
254,138,156803,1,8,0:0:0:0:
254,138,156994,1,0,0:0:0:0:
254,138,157279,1,0,0:0:0:0:
300,64,157660,1,8,0:0:0:0:
300,64,157851,1,8,0:0:0:0:
300,64,157946,1,0,0:0:0:0:
300,64,158137,1,0,0:0:0:0:
300,64,158232,1,8,0:0:0:0:
252,158,158518,1,0,0:0:0:0:
271,133,158708,1,0,0:0:0:0:
271,133,158803,1,8,0:0:0:0:
271,133,158994,1,8,0:0:0:0:
271,133,159089,1,8,0:0:0:0:
271,70,159279,1,8,0:0:0:0:
271,70,159565,1,0,0:0:0:0:
344,87,159946,1,8,0:0:0:0:
238,81,160518,1,4,0:0:0:0:
189,97,160803,1,0,0:0:0:0:
215,77,160994,1,8,0:0:0:0:
189,97,161089,1,8,0:0:0:0:
189,97,161279,1,8,0:0:0:0:
223,95,161375,1,0,0:0:0:0:
258,82,161565,1,8,0:0:0:0:
258,82,161851,1,0,0:0:0:0:
266,56,162232,1,8,0:0:0:0:
268,59,162422,1,8,0:0:0:0:
268,59,162518,1,0,0:0:0:0:
267,59,162708,1,0,0:0:0:0:
267,60,162803,1,8,0:0:0:0:
270,64,163089,1,0,0:0:0:0:
269,64,163279,1,0,0:0:0:0:
270,64,163375,1,8,0:0:0:0:
269,64,163565,1,8,0:0:0:0:
269,64,163660,1,8,0:0:0:0:
286,83,163851,1,0,0:0:0:0:
208,74,163946,1,0,0:0:0:0:
286,83,164137,1,8,0:0:0:0:
286,83,164232,1,0,0:0:0:0:
286,83,164422,1,0,0:0:0:0:
243,198,165089,1,4,0:0:0:0:
270,89,165375,1,0,0:0:0:0:
233,198,165565,1,8,0:0:0:0:
233,199,165660,1,8,0:0:0:0:
266,73,165756,1,0,0:0:0:0:
317,88,165851,1,0,0:0:0:0:
231,212,165946,1,0,0:0:0:0:
318,133,166137,1,8,0:0:0:0:
318,133,166232,1,0,0:0:0:0:
324,147,166422,1,8,0:0:0:0:
324,147,166518,1,0,0:0:0:0:
428,209,166803,1,8,0:0:0:0:
384,167,166994,1,0,0:0:0:0:
384,167,167089,1,8,0:0:0:0:
384,167,167279,1,8,0:0:0:0:
384,167,167375,1,0,0:0:0:0:
384,167,167660,1,8,0:0:0:0:
384,167,167851,1,0,0:0:0:0:
384,167,167946,1,8,0:0:0:0:
262,58,168041,1,8,0:0:0:0:
240,127,168137,1,8,0:0:0:0:
240,127,168232,1,0,0:0:0:0:
240,127,168422,1,8,0:0:0:0:
240,127,168518,1,0,0:0:0:0:
240,127,168708,1,8,0:0:0:0:
240,127,168803,1,0,0:0:0:0:
240,127,169089,1,8,0:0:0:0:
263,82,169279,1,0,0:0:0:0:
270,69,169375,1,8,0:0:0:0:
255,56,169565,1,8,0:0:0:0:
274,72,169660,1,0,0:0:0:0:
270,89,169946,1,0,0:0:0:0:
233,198,170137,1,0,0:0:0:0:
233,199,170232,1,8,0:0:0:0:
266,73,170327,1,0,0:0:0:0:
317,88,170422,1,8,0:0:0:0:
231,212,170518,1,0,0:0:0:0:
318,133,170708,1,8,0:0:0:0:
318,133,170803,1,0,0:0:0:0:
324,147,170994,1,8,0:0:0:0:
324,147,171089,1,0,0:0:0:0:
428,209,171375,1,8,0:0:0:0:
384,167,171565,1,0,0:0:0:0:
384,167,171660,1,8,0:0:0:0:
384,167,171851,1,8,0:0:0:0:
384,167,171946,1,0,0:0:0:0:
384,167,172232,1,8,0:0:0:0:
384,167,172422,1,0,0:0:0:0:
384,167,172518,1,8,0:0:0:0:
262,58,172613,1,0,0:0:0:0:
240,127,172708,1,0,0:0:0:0:
240,127,172803,1,8,0:0:0:0:
240,127,172994,1,8,0:0:0:0:
240,127,173089,1,0,0:0:0:0:
240,127,173279,1,8,0:0:0:0:
240,127,173375,1,0,0:0:0:0:
240,127,173660,1,8,0:0:0:0:
263,82,173851,1,0,0:0:0:0:
270,69,173946,1,0,0:0:0:0:
238,81,174232,1,0,0:0:0:0:
189,97,174518,1,0,0:0:0:0:
215,77,174708,1,0,0:0:0:0:
189,97,174994,1,8,0:0:0:0:
258,82,175279,1,8,0:0:0:0:
258,82,175565,1,0,0:0:0:0:
266,56,175946,1,8,0:0:0:0:
268,59,176137,1,8,0:0:0:0:
268,59,176232,1,0,0:0:0:0:
267,59,176422,1,0,0:0:0:0:
267,60,176518,1,8,0:0:0:0:
270,64,176803,1,0,0:0:0:0:
269,64,176994,1,8,0:0:0:0:
269,64,177279,1,8,0:0:0:0:
286,83,177565,1,0,0:0:0:0:
286,83,177851,1,8,0:0:0:0:
286,83,178137,1,0,0:0:0:0:
309,42,178232,1,8,0:0:0:0:
209,158,178422,1,8,0:0:0:0:
309,42,178518,1,8,0:0:0:0:
207,128,178708,1,8,0:0:0:0:
251,153,178803,5,0,0:0:0:0:
279,129,179089,1,0,0:0:0:0:
285,111,179279,1,8,0:0:0:0:
254,138,179565,1,8,0:0:0:0:
254,138,179851,1,0,0:0:0:0:
254,138,180137,1,8,0:0:0:0:
300,64,180518,1,8,0:0:0:0:
300,64,180708,1,8,0:0:0:0:
300,64,180803,1,0,0:0:0:0:
300,64,180994,1,0,0:0:0:0:
300,64,181089,1,0,0:0:0:0:
252,158,181375,1,0,0:0:0:0:
271,133,181565,1,0,0:0:0:0:
271,133,181851,1,8,0:0:0:0:
271,70,182137,1,8,0:0:0:0:
271,70,182422,1,0,0:0:0:0:
344,87,182803,1,8,0:0:0:0:
247,123,182994,1,0,0:0:0:0:
247,123,183089,1,0,0:0:0:0:
243,146,183375,1,0,0:0:0:0:
