osu file format v14

[General]
AudioFilename: audio.mp3
AudioLeadIn: 0
PreviewTime: 50683
Countdown: 0
SampleSet: Soft
StackLeniency: 0.6
Mode: 0
LetterboxInBreaks: 0
WidescreenStoryboard: 0

[Editor]
DistanceSpacing: 1.9
BeatDivisor: 4
GridSize: 4
TimelineZoom: 3.9

[Metadata]
Title:Genie
TitleUnicode:Genie
Artist:Goblins from Mars
ArtistUnicode:Goblins from Mars
Creator:DeRandom Otaku
Version:Normal
Source:
Tags:gfm gfmarmy house alumetri
BeatmapID:1748151
BeatmapSetID:834481

[Difficulty]
HPDrainRate:4
CircleSize:3.5
OverallDifficulty:4
ApproachRate:4.3
SliderMultiplier:1.2
SliderTickRate:1

[Events]
//Background and Video events
0,0,"BG.jpg",0,0
//Break Periods
2,82758,88775
//Storyboard Layer 0 (Background)
//Storyboard Layer 1 (Fail)
//Storyboard Layer 2 (Pass)
//Storyboard Layer 3 (Foreground)
//Storyboard Sound Samples

[TimingPoints]
1933,468.75,4,2,0,40,1,0
1933,-100,4,2,0,40,0,0
2401,-100,4,2,0,15,0,0
2636,-100,4,2,0,30,0,0
3808,-100,4,2,0,40,0,0
4276,-100,4,2,0,35,0,0
5214,-100,4,2,0,40,0,0
7558,-100,4,2,0,42,0,0
8261,-100,4,2,0,43,0,0
9433,-100,4,2,0,45,0,0
11308,-100,4,2,0,48,0,0
13183,-100,4,2,0,50,0,0
15058,-100,4,2,0,52,0,0
16229,-100,4,2,0,30,0,0
16347,-100,4,2,0,42,0,0
18808,-100,4,2,0,30,0,0
19745,-100,4,2,0,35,0,0
19979,-100,4,2,0,38,0,0
20214,-100,4,2,0,40,0,0
20448,-100,4,2,0,44,0,0
20683,-100,4,2,0,60,0,0
24374,-100,4,2,0,5,0,0
24433,-100,4,2,0,60,0,0
31874,-100,4,2,0,5,0,0
31933,-100,4,2,0,60,0,0
35683,-100,4,2,0,65,0,0
43183,-100,4,2,0,65,0,0
48808,-100,4,2,0,70,0,0
50097,-100,4,2,0,70,0,0
50565,-100,4,2,0,10,0,0
50683,-100,4,2,0,78,0,1
51151,-100,4,2,0,78,0,0
51620,-100,4,2,0,78,0,1
52089,-100,4,2,0,78,0,0
52558,-100,4,2,0,85,0,1
58183,-100,4,2,0,85,0,1
58651,-100,4,2,0,85,0,0
59120,-100,4,2,0,85,0,1
59589,-100,4,2,0,85,0,0
60058,-100,4,2,0,85,0,1
63808,-100,4,2,0,75,0,0
65214,-100,4,2,0,75,0,0
65683,-100,4,2,0,75,0,0
67558,-100,4,2,0,85,0,1
73183,-100,4,2,0,85,0,1
73651,-100,4,2,0,85,0,0
74120,-100,4,2,0,85,0,1
74589,-100,4,2,0,85,0,0
75058,-100,4,2,0,85,0,1
80390,-100,4,2,0,5,0,1
80448,-100,4,2,0,65,0,0
90058,-100,4,2,0,50,0,0
90526,-100,4,2,0,25,0,0
90761,-100,4,2,0,44,0,0
105058,-100,4,2,0,5,0,0

[Colours]
Combo1 : 150,75,75
Combo2 : 128,128,255
Combo3 : 224,201,39
Combo4 : 128,255,0

[HitObjects]
413,234,1933,6,0,P|495:169|393:119,2,240,2|0|8,1:2|0:0|0:3,0:0:0:0:
361,175,4042,1,8,0:3:0:0:
361,175,4276,1,8,0:3:0:0:
257,287,4745,2,0,P|207:277|145:271,2,90,2|0|0,0:0|0:0|0:0,0:0:0:0:
302,350,5683,6,0,P|299:275|312:158,1,180,2|0,1:2|0:0,0:0:0:0:
331,96,6620,2,0,P|279:68|212:88,1,120,2|0,0:0|0:0,0:0:0:0:
67,107,7558,2,0,P|66:57|83:11,2,90,2|0|0,0:0|0:0|0:0,0:0:0:0:
89,181,8495,2,0,P|133:177|172:156,2,90,2|0|0,0:0|0:0|0:0,0:0:0:0:
10,182,9433,5,2,1:2:0:0:
182,339,10136,1,0,0:0:0:0:
182,339,10370,2,0,P|239:319|298:331,1,120,0|0,0:0|0:0,0:0:0:0:
449,360,11308,2,0,L|445:290,2,60,8|8|8,0:3|0:3|0:3,0:0:0:0:
367,229,12245,2,0,L|360:118,2,90,2|0|0,0:0|0:0|0:0,0:0:0:0:
367,307,13183,5,2,1:2:0:0:
301,84,13886,1,0,0:0:0:0:
301,84,14120,2,0,B|250:55|250:55|167:78,1,120,0|0,0:0|0:0,0:0:0:0:
52,144,15058,2,0,P|45:95|47:31,2,90,2|0|0,0:0|0:0|0:0,0:0:0:0:
100,204,15995,2,0,P|107:253|105:317,2,90,2|0|0,0:0|0:0|0:0,0:0:0:0:
256,192,16933,12,0,18808,0:0:0:0:
167,78,20683,6,0,L|305:82,1,120,6|2,0:0|0:0,0:0:0:0:
436,126,21620,2,0,P|436:87|443:20,2,90,2|2|0,0:0|0:0|0:0,0:0:0:0:
489,183,22558,2,0,P|449:171|358:171,1,120,2|2,0:0|0:0,0:0:0:0:
215,180,23495,2,0,L|221:83,2,90,2|2|2,0:0|0:0|0:3,0:0:0:0:
211,258,24433,6,0,B|142:275|163:235|80:260,1,120,2|2,0:0|0:0,0:0:0:0:
37,110,25370,2,0,P|46:62|48:0,2,90,2|2|0,0:0|0:0|0:0,0:0:0:0:
92,164,26308,2,0,P|123:155|158:155,2,60,2|0|2,0:0|0:0|0:0,0:0:0:0:
32,308,27245,2,0,P|81:335|155:313,1,120,2|2,0:0|0:3,0:0:0:0:
240,202,28183,6,0,P|297:189|349:217,1,120,2|2,0:0|0:0,0:0:0:0:
443,341,29120,2,0,P|410:359|349:358,2,90,2|2|0,0:0|0:0|0:0,0:0:0:0:
482,273,30058,2,0,P|479:221|444:152,1,120,2|2,0:0|0:0,0:0:0:0:
382,19,30995,2,0,P|424:19|474:38,2,90,2|2|2,0:0|0:0|0:3,0:0:0:0:
344,90,31933,6,0,L|215:78,1,120,2|2,0:0|0:0,0:0:0:0:
70,106,32870,2,0,P|82:69|90:10,2,90,2|2|0,0:0|0:0|0:0,0:0:0:0:
66,184,33808,2,0,P|30:177|3:178,2,60,2|0|2,0:0|0:0|0:0,0:0:0:0:
137,322,34745,2,0,P|178:307|230:306,1,90,2|2,0:0|0:0,0:0:0:0:
299,324,35331,1,2,0:0:0:0:
413,297,35683,6,0,L|407:199,1,90,8|8,0:0|0:0,0:0:0:0:
293,179,36386,2,0,L|287:81,1,90,8|8,0:0|0:0,0:0:0:0:
187,28,37089,2,0,P|148:27|117:38,1,60,8|8,0:0|0:0,0:0:0:0:
56,64,37558,6,0,P|71:109|69:177,1,90,8|8,0:0|0:0,0:0:0:0:
177,203,38261,2,0,P|162:248|164:316,1,90,8|8,0:0|0:0,0:0:0:0:
249,366,38964,2,0,P|278:360|317:360,1,60,8|8,0:0|0:0,0:0:0:0:
386,358,39433,6,0,P|395:320|395:264,1,90,8|8,0:0|0:0,0:0:0:0:
500,216,40136,2,0,P|491:178|491:122,1,90,8|8,0:0|0:0,0:0:0:0:
423,31,40839,2,0,L|363:37,1,60,8|8,0:0|0:0,0:0:0:0:
285,25,41308,6,0,P|274:74|278:113,1,90,8|8,0:0|0:0,0:0:0:0:
319,222,42011,2,0,P|270:211|231:215,1,90,8|8,0:0|0:0,0:0:0:0:
116,242,42714,2,0,P|112:215|115:176,1,60,8|8,0:0|0:0,0:0:0:0:
107,104,43183,6,0,L|201:111,1,90,8|8,0:0|0:0,0:0:0:0:
279,27,43886,2,0,L|319:111,1,90,8|8,0:0|0:0,0:0:0:0:
357,218,44589,2,0,P|386:208|423:205,1,60,8|8,0:0|0:0,0:0:0:0:
483,167,45058,6,0,P|475:218|473:272,1,90,8|8,0:0|0:0,0:0:0:0:
442,369,45761,2,0,P|408:339|371:313,1,90,8|8,0:0|0:0,0:0:0:0:
264,265,46464,2,0,P|272:296|269:339,1,60,8|8,0:0|0:0,0:0:0:0:
256,192,46933,12,4,48808,0:3:0:0:
256,192,50214,5,2,0:3:0:0:
256,33,50683,6,0,B|315:33|315:33|325:26|325:26|393:26,1,120,0|8,1:0|0:0,0:0:0:0:
484,132,51620,2,0,B|435:132|435:132|425:139|425:139|366:139,1,120,0|8,1:0|0:0,0:0:0:0:
211,119,52558,6,0,P|221:144|228:191,1,60,4|0,1:2|0:0,0:0:0:0:
171,230,53026,2,0,P|161:255|154:302,1,60,8|0,0:0|0:0,0:0:0:0:
209,342,53495,2,0,P|252:327|303:328,2,90,0|0|0,1:0|0:0|0:0,0:0:0:0:
139,378,54433,5,0,1:0:0:0:
29,267,54901,2,0,P|28:231|32:192,1,60,8|0,0:0|0:0,0:0:0:0:
85,151,55370,2,0,P|127:162|173:149,2,90,0|0|0,1:0|0:0|0:0,0:0:0:0:
29,95,56308,5,0,1:0:0:0:
170,29,56776,2,0,L|234:33,1,60,8|0,0:0|0:0,0:0:0:0:
298,69,57245,2,0,B|284:105|284:105|295:161,2,90,0|0|0,1:0|0:0|0:0,0:0:0:0:
366,31,58183,6,0,B|458:31|458:31|481:58,1,120,0|8,1:0|0:0,0:0:0:0:
476,208,59120,2,0,B|384:208|384:208|361:181,1,120,0|8,1:0|0:0,0:0:0:0:
228,112,60058,6,2,P|189:116|168:117,1,60,6|2,1:2|0:0,0:0:0:0:
91,104,60526,2,0,P|95:143|96:164,1,60,8|0,0:0|0:0,0:0:0:0:
58,232,60995,2,0,P|99:221|149:232,2,90,0|0|0,1:0|0:0|0:0,0:0:0:0:
2,287,61933,5,0,1:0:0:0:
144,350,62401,2,0,P|172:350|207:337,1,60,8|0,0:0|0:0,0:0:0:0:
262,289,62870,2,0,P|257:242|262:195,2,90,0|0|0,1:0|0:0|0:0,0:0:0:0:
291,361,63808,6,0,B|353:338|346:378|423:353,2,120,8|8|8,0:0|0:0|0:0,0:0:0:0:
153,287,65214,1,2,0:3:0:0:
169,131,65683,6,0,P|121:135|61:153,2,90,0|0|0,1:0|1:0|1:0,0:0:0:0:
234,172,66620,2,0,P|282:176|342:194,2,90,0|0|0,1:0|1:0|1:0,0:0:0:0:
163,209,67558,5,4,1:2:0:0:
246,77,68026,2,0,P|280:70|309:72,1,60,8|0,0:0|0:0,0:0:0:0:
383,77,68495,2,0,B|371:114|371:114|372:181,2,90,0|0|0,1:0|0:0|0:0,0:0:0:0:
438,22,69433,5,0,1:0:0:0:
478,172,69901,2,0,L|472:249,1,60,8|0,0:0|0:0,0:0:0:0:
438,301,70370,2,0,P|390:282|342:278,2,90,0|0|0,1:0|0:0|0:0,0:0:0:0:
493,356,71308,5,0,1:0:0:0:
337,365,71776,2,0,P|303:353|279:327,1,60,8|0,0:0|0:0,0:0:0:0:
276,259,72245,2,0,P|231:255|163:252,2,90,0|0|0,1:0|0:0|0:0,0:0:0:0:
352,277,73183,6,0,B|361:221|361:221|356:217|356:217|366:145,1,120,0|8,1:0|0:0,0:0:0:0:
254,49,74120,2,0,B|245:105|245:105|250:109|250:109|240:181,1,120,0|8,1:0|0:0,0:0:0:0:
108,248,75058,6,0,P|102:211|102:172,1,60,4|0,1:2|0:0,0:0:0:0:
142,122,75526,2,0,P|110:111|77:117,1,60,8|0,0:0|0:0,0:0:0:0:
20,158,75995,2,0,P|29:111|18:53,2,90,0|0|0,1:0|0:0|0:0,0:0:0:0:
20,236,76933,5,0,1:0:0:0:
126,349,77401,2,0,P|152:349|186:342,1,60,8|0,0:0|0:0,0:0:0:0:
235,282,77870,2,0,L|334:285,2,90,0|0|0,1:0|0:0|0:0,0:0:0:0:
179,226,78808,5,0,1:0:0:0:
20,236,79276,2,0,P|26:264|29:298,1,60,8|0,0:0|0:0,0:0:0:0:
16,372,79745,2,0,P|58:342|126:333,1,120,0|2,1:0|0:3,0:0:0:0:
201,345,80448,1,2,0:0:0:0:
256,192,80683,12,0,82558,0:0:0:0:
168,29,90058,6,0,B|120:127|201:117|149:211,1,180,2|0,1:2|0:0,0:0:0:0:
89,245,90995,2,0,B|147:232|147:232|198:274,1,120,0|0,0:0|0:0,0:0:0:0:
330,345,91933,2,0,L|399:338,2,60,8|8|8,0:3|0:3|0:3,0:0:0:0:
193,270,92870,2,0,P|195:226|217:161,2,90,0|0|0,0:0|0:0|0:0,0:0:0:0:
206,347,93808,5,2,1:2:0:0:
280,123,94511,1,0,0:0:0:0:
280,123,94745,2,0,P|239:97|165:100,1,120,0|0,0:0|0:0,0:0:0:0:
19,143,95683,2,0,L|21:74,2,60,8|8|8,0:3|0:3|0:3,0:0:0:0:
99,276,96620,2,0,L|101:374,2,90,0|0|0,0:0|0:0|0:0,0:0:0:0:
94,197,97558,5,2,1:2:0:0:
279,53,98261,1,0,0:0:0:0:
279,53,98495,2,0,P|330:78|399:60,1,120,0|0,0:0|0:0,0:0:0:0:
481,192,99433,2,0,P|477:223|477:258,2,60,8|8|8,0:3|0:3|0:3,0:0:0:0:
342,263,100370,2,0,P|349:317|349:379,2,90,0|0|0,0:0|0:0|0:0,0:0:0:0:
316,189,101308,5,2,1:2:0:0:
142,346,102011,1,0,0:0:0:0:
142,346,102245,2,0,P|82:340|45:281,1,120,0|0,0:0|0:0,0:0:0:0:
78,142,103183,2,0,L|9:146,2,60,8|8|8,0:3|0:3|0:3,0:0:0:0:
233,152,104120,2,0,P|231:108|237:40,2,90,0|0|0,0:0|0:0|0:0,0:0:0:0:
256,192,105058,12,0,106698,0:0:0:0:
