osu file format v14

[General]
AudioFilename: audio.mp3
AudioLeadIn: 0
PreviewTime: 67830
Countdown: 1
SampleSet: Normal
StackLeniency: 0.7
Mode: 1
LetterboxInBreaks: 0
WidescreenStoryboard: 0

[Editor]
DistanceSpacing: 1
BeatDivisor: 4
GridSize: 32
TimelineZoom: 2.6

[Metadata]
Title:Expecto Patronum (Goblins From Mars Trap Remix)
TitleUnicode:Expecto Patronum (Goblins From Mars Trap Remix)
Artist:Goblins from Mars
ArtistUnicode:Goblins from Mars
Creator:TimmyAkmed
Version:Special Oni
Source:Harry Potter
Tags:gimmick low sv
BeatmapID:2026833
BeatmapSetID:968676

[Difficulty]
HPDrainRate:6
CircleSize:5
OverallDifficulty:7
ApproachRate:5
SliderMultiplier:1.4
SliderTickRate:1

[Events]
//Background and Video events
0,0,"hoguwarto.jpg",0,80
//Break Periods
//Storyboard Layer 0 (Background)
//Storyboard Layer 1 (Fail)
//Storyboard Layer 2 (Pass)
//Storyboard Layer 3 (Foreground)
//Storyboard Sound Samples

[TimingPoints]
787,521.739130434783,4,1,0,100,1,0
8352,-83.3333333333333,4,1,0,100,0,0
8482,-71.4285714285714,4,1,0,100,0,0
8613,-62.5,4,1,0,100,0,0
8743,-55.5555555555556,4,1,0,100,0,0
8873,-50,4,1,0,100,0,0
9004,-45.4545454545455,4,1,0,100,0,0
9134,-41.6666666666667,4,1,0,100,0,0
9395,-33.3333333333333,4,1,0,100,0,0
9656,-50,4,1,0,100,0,0
15656,-100,4,1,0,100,0,0
15917,-90.9090909090909,4,1,0,100,0,0
16047,-83.3333333333333,4,1,0,100,0,0
16178,-76.9230769230769,4,1,0,100,0,0
16439,-71.4285714285714,4,1,0,100,0,0
16569,-66.6666666666667,4,1,0,100,0,0
16700,-62.5,4,1,0,100,0,0
16960,-58.8235294117647,4,1,0,100,0,0
17221,-55.5555555555556,4,1,0,100,0,0
17352,-52.6315789473684,4,1,0,100,0,0
17482,-50,4,1,0,100,0,0
17613,-47.6190476190476,4,1,0,100,0,0
17743,-40,4,1,0,100,0,0
18004,-66.6666666666667,4,1,0,100,0,0
24004,-55.5555555555556,4,1,0,100,0,0
24265,-47.6190476190476,4,1,0,100,0,0
24395,-41.6666666666667,4,1,0,100,0,0
24526,-37.037037037037,4,1,0,100,0,0
24787,-55.5555555555556,4,1,0,100,0,0
25047,-47.6190476190476,4,1,0,100,0,0
25178,-41.6666666666667,4,1,0,100,0,0
25308,-37.037037037037,4,1,0,100,0,0
25439,-35.7142857142857,4,1,0,100,0,0
25569,-33.3333333333333,4,1,0,100,0,0
26091,-100,4,1,0,100,0,0
40700,-133.333333333333,4,1,0,100,0,0
42787,-125,4,1,0,100,0,0
43308,-117.647058823529,4,1,0,100,0,0
43830,-111.111111111111,4,1,0,100,0,0
44352,-105.263157894737,4,1,0,100,0,0
44873,-100,4,1,0,100,0,0
45395,-90.9090909090909,4,1,0,100,0,0
45917,-83.3333333333333,4,1,0,100,0,0
46439,-76.9230769230769,4,1,0,100,0,0
46960,-71.4285714285714,4,1,0,100,0,0
47221,-66.6666666666667,4,1,0,100,0,0
47482,-62.5,4,1,0,100,0,0
47743,-58.8235294117647,4,1,0,100,0,0
48004,-50,4,1,0,100,0,0
49047,-33.3333333333333,4,1,0,100,0,0
49243,-100,4,1,0,100,0,0
49569,-33.3333333333333,4,1,0,100,0,0
49765,-100,4,1,0,100,0,0
50091,-33.3333333333333,4,1,0,100,0,0
50287,-100,4,1,0,100,0,0
50613,-33.3333333333333,4,1,0,100,0,0
50808,-100,4,1,0,100,0,0
51135,-33.3333333333333,4,1,0,100,0,1
51265,-66.6666666666667,4,1,0,100,0,1
58960,-33.3333333333333,4,1,0,100,0,1
59482,-25,4,1,0,100,0,1
59743,-40,4,1,0,100,0,1
59873,-50,4,1,0,100,0,1
60004,-66.6666666666667,4,1,0,100,0,1
65743,-100,4,1,0,100,0,0
66265,-133.333333333333,4,1,0,100,0,0
67830,-133.333333333333,4,1,0,100,0,1
67960,-100,4,1,0,100,0,1
82439,-66.6666666666667,4,1,0,100,0,1
82700,-71.4285714285714,4,1,0,100,0,1
83221,-76.9230769230769,4,1,0,100,0,1
83352,-83.3333333333333,4,1,0,100,0,1
84526,-33.3333333333333,4,1,0,100,0,0
84917,-50,4,1,0,100,0,0
85308,-66.6666666666667,4,1,0,100,0,0
85830,-100,4,1,0,100,0,0
86352,-133.333333333333,4,1,0,100,0,0
86613,-125,4,1,0,100,0,0
95221,-100,4,1,0,100,0,0
101221,-133.333333333333,4,1,0,100,0,0
101482,-142.857142857143,4,1,0,100,0,0
101743,-153.846153846154,4,1,0,100,0,0
102004,-166.666666666667,4,1,0,100,0,0
102265,-200,4,1,0,100,0,0
103308,-33.3333333333333,4,1,0,100,0,0
103569,-100,4,1,0,100,0,0
117917,-40,4,1,0,100,0,0
118308,-44.4444444444445,4,1,0,100,0,0
118700,-50,4,1,0,100,0,0
119221,-66.6666666666667,4,1,0,100,0,0
119743,-80,4,1,0,100,0,0
120004,-66.6666666666667,4,1,0,100,0,0
120526,-50,4,1,0,100,0,0
121047,-44.4444444444445,4,1,0,100,0,0
121569,-40,4,1,0,100,0,0
122091,-36.3636363636364,4,1,0,100,0,0
122613,-33.3333333333333,4,1,0,100,0,0
123134,-32.258064516129,4,1,0,100,0,0
123656,-31.25,4,1,0,100,0,0
124178,-29.4117647058824,4,1,0,100,0,0
125221,-27.7777777777778,4,1,0,100,0,0
126265,-25,4,1,0,100,0,0
126460,-100,4,1,0,100,0,0
126787,-33.3333333333333,4,1,0,100,0,0
126982,-100,4,1,0,100,0,0
127308,-33.3333333333333,4,1,0,100,0,0
127504,-100,4,1,0,100,0,0
127830,-33.3333333333333,4,1,0,100,0,0
127960,-36.3636363636364,4,1,0,100,0,0
128091,-40,4,1,0,100,0,0
128221,-44.4444444444445,4,1,0,100,0,0
128352,-133.333333333333,4,1,0,100,0,1
136178,-33.3333333333333,4,1,0,100,0,1
136700,-25,4,1,0,100,0,1
137091,-133.333333333333,4,1,0,100,0,1
142961,-100,4,1,0,100,0,0
144265,-33.3333333333333,4,1,0,100,0,0
144787,-200,4,1,0,100,0,0
145047,-200,4,1,0,100,0,1
159656,-133.333333333333,4,1,0,100,0,0
159917,-333.333333333333,4,1,0,100,0,0
161482,-666.666666666667,4,1,0,100,0,0

[HitObjects]
352,256,787,5,8,0:0:0:0:
352,288,1048,1,0,0:0:0:0:
384,288,1569,1,8,0:0:0:0:
384,288,1700,1,0,0:0:0:0:
384,288,2091,1,0,0:0:0:0:
64,192,2743,1,8,0:0:0:0:
160,160,3135,1,0,0:0:0:0:
224,160,4178,1,8,0:0:0:0:
160,160,5222,1,8,0:0:0:0:
320,224,5743,1,8,0:0:0:0:
320,224,5874,1,0,0:0:0:0:
320,224,6265,1,0,0:0:0:0:
128,192,6787,1,0,0:0:0:0:
320,224,7048,1,8,0:0:0:0:
128,128,7309,1,4,0:0:0:0:
160,224,8352,1,0,0:0:0:0:
160,224,8482,1,8,0:0:0:0:
160,224,8613,1,0,0:0:0:0:
160,224,8743,1,0,0:0:0:0:
160,224,8874,1,8,0:0:0:0:
160,224,9004,1,0,0:0:0:0:
160,224,9135,1,8,0:0:0:0:
160,128,9396,1,4,0:0:0:0:
128,96,9656,1,8,0:0:0:0:
128,96,9787,1,0,0:0:0:0:
128,96,9917,1,8,0:0:0:0:
128,96,10048,1,8,0:0:0:0:
160,128,10178,1,0,0:0:0:0:
160,128,10439,1,8,0:0:0:0:
64,160,10700,1,0,0:0:0:0:
64,128,10765,1,0,0:0:0:0:
96,128,10830,1,0,0:0:0:0:
64,128,10961,1,8,0:0:0:0:
192,128,11222,1,8,0:0:0:0:
192,128,11482,1,0,0:0:0:0:
192,128,11743,1,8,0:0:0:0:
192,128,11874,1,0,0:0:0:0:
192,128,12004,1,8,0:0:0:0:
192,128,12265,1,0,0:0:0:0:
192,128,12526,1,8,0:0:0:0:
192,128,12787,1,0,0:0:0:0:
192,128,13048,1,8,0:0:0:0:
192,128,13178,1,0,0:0:0:0:
192,128,13309,1,0,0:0:0:0:
192,128,13439,1,0,0:0:0:0:
192,128,13569,1,8,0:0:0:0:
384,288,13830,1,8,0:0:0:0:
352,288,13961,1,0,0:0:0:0:
352,288,14091,1,8,0:0:0:0:
352,288,14352,1,0,0:0:0:0:
352,288,14613,1,8,0:0:0:0:
192,160,14874,1,0,0:0:0:0:
288,128,14939,1,0,0:0:0:0:
288,128,15004,1,0,0:0:0:0:
320,96,15135,1,8,0:0:0:0:
192,256,15396,1,8,0:0:0:0:
320,64,15656,1,0,0:0:0:0:
128,96,15917,1,0,0:0:0:0:
64,160,16048,1,0,0:0:0:0:
256,192,16178,1,8,0:0:0:0:
256,192,16439,1,0,0:0:0:0:
256,192,16569,1,8,0:0:0:0:
256,192,16700,1,8,0:0:0:0:
192,160,16961,1,0,0:0:0:0:
192,160,17222,1,8,0:0:0:0:
192,160,17352,1,0,0:0:0:0:
192,160,17482,1,8,0:0:0:0:
192,160,17613,1,0,0:0:0:0:
192,160,17743,1,4,0:0:0:0:
192,160,18004,1,8,0:0:0:0:
160,192,18135,1,0,0:0:0:0:
160,192,18396,1,0,0:0:0:0:
160,192,18526,1,8,0:0:0:0:
160,192,18787,1,8,0:0:0:0:
224,192,19048,1,0,0:0:0:0:
224,96,19113,1,0,0:0:0:0:
448,64,19178,1,0,0:0:0:0:
224,96,19309,1,8,0:0:0:0:
224,96,19569,1,8,0:0:0:0:
256,64,19830,1,0,0:0:0:0:
256,64,20222,1,0,0:0:0:0:
256,64,20352,1,8,0:0:0:0:
256,64,20613,1,0,0:0:0:0:
128,128,20874,1,8,0:0:0:0:
128,96,21004,1,8,0:0:0:0:
128,96,21135,1,0,0:0:0:0:
128,96,21396,1,8,0:0:0:0:
128,96,21526,1,0,0:0:0:0:
128,96,21656,1,0,0:0:0:0:
128,96,21787,1,0,0:0:0:0:
128,96,21917,1,8,0:0:0:0:
128,96,22178,1,8,0:0:0:0:
128,96,22309,1,0,0:0:0:0:
224,192,22569,1,0,0:0:0:0:
128,96,22700,1,8,0:0:0:0:
160,128,22961,1,8,0:0:0:0:
352,64,23222,1,0,0:0:0:0:
352,64,23287,1,0,0:0:0:0:
352,64,23352,1,0,0:0:0:0:
352,64,23482,1,8,0:0:0:0:
352,64,23743,1,8,0:0:0:0:
352,32,24004,1,0,0:0:0:0:
352,192,24265,1,8,0:0:0:0:
320,160,24396,1,0,0:0:0:0:
320,160,24526,1,8,0:0:0:0:
320,160,24787,1,0,0:0:0:0:
320,160,25048,1,0,0:0:0:0:
320,160,25178,1,8,0:0:0:0:
320,160,25309,1,0,0:0:0:0:
320,160,25439,1,8,0:0:0:0:
320,160,25569,1,0,0:0:0:0:
288,128,25635,1,0,0:0:0:0:
320,160,25700,1,0,0:0:0:0:
288,128,25765,1,0,0:0:0:0:
320,160,25830,1,0,0:0:0:0:
288,128,25874,1,0,0:0:0:0:
224,224,25917,1,0,0:0:0:0:
224,224,25961,1,0,0:0:0:0:
224,224,26004,1,0,0:0:0:0:
224,224,26048,1,0,0:0:0:0:
224,224,26091,1,8,0:0:0:0:
160,224,26352,1,8,0:0:0:0:
160,224,26482,1,0,0:0:0:0:
160,224,26613,1,8,0:0:0:0:
160,192,26743,1,8,0:0:0:0:
160,192,26874,1,0,0:0:0:0:
160,224,27135,1,8,0:0:0:0:
160,224,27396,1,0,0:0:0:0:
160,224,27526,1,0,0:0:0:0:
160,224,27656,1,8,0:0:0:0:
160,224,27787,1,0,0:0:0:0:
96,192,27917,1,8,0:0:0:0:
160,192,28048,1,8,0:0:0:0:
96,192,28178,1,0,0:0:0:0:
224,224,28309,1,8,0:0:0:0:
320,288,28439,1,8,0:0:0:0:
320,288,28569,1,0,0:0:0:0:
320,288,28700,1,8,0:0:0:0:
320,288,28961,1,0,0:0:0:0:
320,288,29091,1,0,0:0:0:0:
320,288,29222,1,8,0:0:0:0:
320,288,29482,1,0,0:0:0:0:
320,288,29613,1,8,0:0:0:0:
256,192,29743,1,8,0:0:0:0:
256,192,29809,1,8,0:0:0:0:
256,192,29874,1,0,0:0:0:0:
128,192,30004,1,0,0:0:0:0:
256,128,30135,1,0,0:0:0:0:
256,128,30265,1,8,0:0:0:0:
224,288,30526,1,8,0:0:0:0:
224,288,30656,1,0,0:0:0:0:
224,288,30787,1,8,0:0:0:0:
416,320,31048,1,0,0:0:0:0:
416,320,31309,1,8,0:0:0:0:
416,320,31439,1,8,0:0:0:0:
416,320,31569,1,0,0:0:0:0:
288,160,31635,1,0,0:0:0:0:
288,160,31700,1,0,0:0:0:0:
288,160,31830,1,8,0:0:0:0:
288,128,32091,1,8,0:0:0:0:
192,160,32352,1,0,0:0:0:0:
192,160,32613,1,0,0:0:0:0:
192,160,32743,1,0,0:0:0:0:
192,160,32874,1,8,0:0:0:0:
256,160,33135,1,8,0:0:0:0:
256,160,33396,1,0,0:0:0:0:
256,160,33526,1,0,0:0:0:0:
448,288,33656,1,8,0:0:0:0:
448,256,33787,1,8,0:0:0:0:
352,128,33852,1,8,0:0:0:0:
448,256,33917,1,8,0:0:0:0:
448,256,34048,1,0,0:0:0:0:
160,128,34113,1,0,0:0:0:0:
448,256,34178,1,0,0:0:0:0:
448,256,34309,1,0,0:0:0:0:
448,256,34439,1,8,0:0:0:0:
192,224,34700,1,8,0:0:0:0:
192,160,34765,1,8,0:0:0:0:
192,224,34830,1,0,0:0:0:0:
192,224,34961,1,8,0:0:0:0:
192,224,35091,1,8,0:0:0:0:
192,224,35222,1,0,0:0:0:0:
224,192,35352,1,8,0:0:0:0:
256,224,35417,1,8,0:0:0:0:
192,224,35482,1,8,0:0:0:0:
192,224,35743,1,0,0:0:0:0:
192,224,35874,1,8,0:0:0:0:
192,224,36004,1,8,0:0:0:0:
192,224,36135,1,0,0:0:0:0:
192,224,36265,1,8,0:0:0:0:
192,224,36396,1,8,0:0:0:0:
192,224,36526,1,0,0:0:0:0:
192,224,36787,1,8,0:0:0:0:
192,224,36917,1,0,0:0:0:0:
192,224,37048,1,8,0:0:0:0:
160,256,37178,1,8,0:0:0:0:
192,224,37309,1,0,0:0:0:0:
384,288,37439,1,8,0:0:0:0:
384,288,37569,1,8,0:0:0:0:
384,288,37635,1,8,0:0:0:0:
384,288,37700,1,0,0:0:0:0:
384,288,37830,1,0,0:0:0:0:
384,288,38091,1,8,0:0:0:0:
384,288,38156,1,8,0:0:0:0:
384,288,38222,1,8,0:0:0:0:
384,288,38352,1,0,0:0:0:0:
384,288,38482,1,0,0:0:0:0:
384,288,38613,1,0,0:0:0:0:
192,160,38678,1,0,0:0:0:0:
384,288,38743,1,8,0:0:0:0:
384,288,38809,1,0,0:0:0:0:
384,288,38874,1,8,0:0:0:0:
384,288,39004,1,0,0:0:0:0:
384,288,39135,1,8,0:0:0:0:
352,288,39396,1,0,0:0:0:0:
352,288,39461,1,8,0:0:0:0:
352,288,39526,1,8,0:0:0:0:
352,288,39656,1,8,0:0:0:0:
352,288,39787,1,8,0:0:0:0:
352,288,39917,1,0,0:0:0:0:
352,288,39982,1,0,0:0:0:0:
352,288,40048,1,0,0:0:0:0:
352,288,40178,1,8,0:0:0:0:
352,288,40439,1,8,0:0:0:0:
352,288,40569,1,8,0:0:0:0:
352,288,40700,1,0,0:0:0:0:
448,320,41091,1,0,0:0:0:0:
448,320,41482,1,0,0:0:0:0:
448,320,42004,1,0,0:0:0:0:
448,320,42526,1,0,0:0:0:0:
448,320,42787,1,8,0:0:0:0:
128,192,43309,1,8,0:0:0:0:
128,192,43830,1,8,0:0:0:0:
64,160,44352,1,8,0:0:0:0:
96,128,44874,1,8,0:0:0:0:
96,128,45135,1,0,0:0:0:0:
96,128,45396,1,8,0:0:0:0:
96,96,45656,1,0,0:0:0:0:
96,96,45917,1,8,0:0:0:0:
96,96,46178,1,0,0:0:0:0:
96,96,46439,1,8,0:0:0:0:
96,96,46700,1,0,0:0:0:0:
96,96,46961,1,8,0:0:0:0:
256,160,47091,1,0,0:0:0:0:
256,160,47222,1,8,0:0:0:0:
256,160,47352,1,0,0:0:0:0:
256,160,47482,1,8,0:0:0:0:
256,160,47613,1,0,0:0:0:0:
256,160,47743,1,8,0:0:0:0:
256,160,47874,1,0,0:0:0:0:
256,160,48004,1,8,0:0:0:0:
320,32,48069,1,0,0:0:0:0:
320,32,48135,1,0,0:0:0:0:
320,32,48200,1,8,0:0:0:0:
320,32,48265,1,0,0:0:0:0:
320,32,48330,1,0,0:0:0:0:
320,32,48396,1,8,0:0:0:0:
224,96,48461,1,0,0:0:0:0:
224,96,48526,1,0,0:0:0:0:
224,96,48591,1,8,0:0:0:0:
224,96,48656,1,0,0:0:0:0:
224,96,48722,1,0,0:0:0:0:
224,96,48787,1,8,0:0:0:0:
224,96,48852,1,0,0:0:0:0:
224,96,48917,1,0,0:0:0:0:
224,96,48982,1,8,0:0:0:0:
224,96,49048,1,4,0:0:0:0:
256,288,49243,1,8,0:0:0:0:
156,65,49373,1,8,0:0:0:0:
288,256,49569,1,4,0:0:0:0:
288,256,49765,1,8,0:0:0:0:
288,256,49896,1,8,0:0:0:0:
288,256,50091,1,4,0:0:0:0:
192,192,50287,1,8,0:0:0:0:
192,192,50417,1,8,0:0:0:0:
288,256,50613,1,4,0:0:0:0:
256,192,50809,1,8,0:0:0:0:
256,192,50939,1,8,0:0:0:0:
416,320,51135,1,4,0:0:0:0:
96,192,51265,1,8,0:0:0:0:
96,192,51396,1,8,0:0:0:0:
96,192,51526,1,0,0:0:0:0:
96,192,51591,1,0,0:0:0:0:
96,192,51656,1,8,0:0:0:0:
96,192,51787,1,8,0:0:0:0:
96,192,51917,1,0,0:0:0:0:
96,192,52178,1,8,0:0:0:0:
96,192,52309,1,8,0:0:0:0:
96,192,52439,1,0,0:0:0:0:
32,160,52504,1,0,0:0:0:0:
96,192,52569,1,8,0:0:0:0:
96,192,52700,1,8,0:0:0:0:
96,192,52830,1,0,0:0:0:0:
128,192,52961,1,8,0:0:0:0:
128,192,53222,1,0,0:0:0:0:
128,192,53287,1,8,0:0:0:0:
128,192,53352,1,8,0:0:0:0:
128,192,53482,1,8,0:0:0:0:
128,192,53548,1,8,0:0:0:0:
128,192,53613,1,0,0:0:0:0:
128,192,53743,1,8,0:0:0:0:
128,192,54004,1,0,0:0:0:0:
128,192,54135,1,8,0:0:0:0:
128,192,54265,1,8,0:0:0:0:
224,224,54330,1,8,0:0:0:0:
96,160,54396,1,8,0:0:0:0:
96,160,54526,1,0,0:0:0:0:
96,160,54656,1,8,0:0:0:0:
96,160,54787,1,8,0:0:0:0:
96,160,54917,1,0,0:0:0:0:
96,160,54982,1,8,0:0:0:0:
96,160,55048,1,0,0:0:0:0:
96,160,55178,1,0,0:0:0:0:
96,160,55309,1,0,0:0:0:0:
96,160,55374,1,8,0:0:0:0:
96,160,55439,1,8,0:0:0:0:
96,160,55569,1,8,0:0:0:0:
96,160,55700,1,0,0:0:0:0:
96,160,55830,1,8,0:0:0:0:
96,160,55961,1,8,0:0:0:0:
192,224,56026,1,8,0:0:0:0:
96,160,56091,1,0,0:0:0:0:
96,128,56222,1,8,0:0:0:0:
96,128,56352,1,8,0:0:0:0:
96,128,56613,1,0,0:0:0:0:
96,128,56743,1,8,0:0:0:0:
96,128,56874,1,0,0:0:0:0:
96,128,57004,1,0,0:0:0:0:
96,128,57135,1,8,0:0:0:0:
256,192,57200,1,8,0:0:0:0:
96,128,57265,1,8,0:0:0:0:
96,128,57396,1,0,0:0:0:0:
64,128,57656,1,8,0:0:0:0:
64,128,57787,1,0,0:0:0:0:
64,128,57917,1,0,0:0:0:0:
128,128,58048,1,8,0:0:0:0:
128,128,58178,1,0,0:0:0:0:
128,128,58243,1,8,0:0:0:0:
128,128,58309,1,8,0:0:0:0:
128,128,58439,1,8,0:0:0:0:
128,160,58504,1,0,0:0:0:0:
320,256,58700,1,0,0:0:0:0:
160,160,58765,1,8,0:0:0:0:
160,160,58830,1,0,0:0:0:0:
160,160,58961,1,12,0:0:0:0:
192,224,59091,1,4,0:0:0:0:
224,224,59222,1,4,0:0:0:0:
224,224,59352,1,4,0:0:0:0:
224,224,59482,1,12,0:0:0:0:
254,145,59743,1,8,0:0:0:0:
128,192,59874,1,0,0:0:0:0:
160,160,60004,1,8,0:0:0:0:
160,160,60135,1,8,0:0:0:0:
160,160,60265,1,0,0:0:0:0:
160,160,60330,1,8,0:0:0:0:
128,160,60396,1,8,0:0:0:0:
160,160,60526,1,8,0:0:0:0:
160,160,60656,1,8,0:0:0:0:
160,160,60787,1,0,0:0:0:0:
160,160,61048,1,8,0:0:0:0:
160,160,61178,1,0,0:0:0:0:
160,160,61243,1,8,0:0:0:0:
160,160,61309,1,8,0:0:0:0:
160,160,61439,1,8,0:0:0:0:
160,160,61569,1,0,0:0:0:0:
160,160,61700,1,8,0:0:0:0:
160,160,61765,1,8,0:0:0:0:
160,160,61830,1,8,0:0:0:0:
160,160,61961,1,0,0:0:0:0:
160,160,62091,1,8,0:0:0:0:
160,160,62222,1,8,0:0:0:0:
160,160,62352,1,0,0:0:0:0:
160,160,62417,1,8,0:0:0:0:
160,160,62482,1,8,0:0:0:0:
160,160,62613,1,0,0:0:0:0:
160,160,62678,1,0,0:0:0:0:
160,160,62743,1,8,0:0:0:0:
160,160,62874,1,0,0:0:0:0:
160,160,63004,1,8,0:0:0:0:
160,160,63135,1,8,0:0:0:0:
160,160,63265,1,0,0:0:0:0:
160,160,63330,1,8,0:0:0:0:
160,160,63396,1,0,0:0:0:0:
160,160,63526,1,0,0:0:0:0:
160,160,63656,1,0,0:0:0:0:
160,160,63722,1,8,0:0:0:0:
160,160,63787,1,8,0:0:0:0:
160,160,63917,1,8,0:0:0:0:
160,160,63982,1,8,0:0:0:0:
160,160,64048,1,0,0:0:0:0:
160,160,64178,1,8,0:0:0:0:
160,160,64309,1,0,0:0:0:0:
160,160,64439,1,0,0:0:0:0:
160,160,64504,1,8,0:0:0:0:
160,160,64569,1,8,0:0:0:0:
160,160,64700,1,8,0:0:0:0:
160,160,64961,1,0,0:0:0:0:
160,160,65091,1,8,0:0:0:0:
160,160,65222,1,0,0:0:0:0:
160,160,65352,1,0,0:0:0:0:
160,160,65417,1,8,0:0:0:0:
160,160,65482,1,8,0:0:0:0:
160,160,65613,1,8,0:0:0:0:
160,160,65743,1,0,0:0:0:0:
256,256,65874,1,0,0:0:0:0:
256,256,66004,1,0,0:0:0:0:
256,256,66135,1,0,0:0:0:0:
256,256,66265,1,0,0:0:0:0:
256,256,66330,1,0,0:0:0:0:
256,256,66396,1,0,0:0:0:0:
256,256,66461,1,0,0:0:0:0:
256,256,66526,1,0,0:0:0:0:
128,192,66569,1,0,0:0:0:0:
192,224,66613,1,0,0:0:0:0:
192,224,66656,1,0,0:0:0:0:
192,224,66700,1,0,0:0:0:0:
192,224,66743,1,0,0:0:0:0:
256,256,66787,1,8,0:0:0:0:
288,160,67048,1,8,0:0:0:0:
288,160,67309,1,8,0:0:0:0:
288,160,67569,1,0,0:0:0:0:
288,160,67635,1,8,0:0:0:0:
288,160,67700,1,8,0:0:0:0:
288,160,67765,1,8,0:0:0:0:
288,160,67830,1,0,0:0:0:0:
384,288,67961,1,8,0:0:0:0:
384,288,68026,1,8,0:0:0:0:
384,288,68091,1,8,0:0:0:0:
384,288,68222,1,0,0:0:0:0:
384,288,68352,1,8,0:0:0:0:
384,288,68482,1,8,0:0:0:0:
384,288,68613,1,0,0:0:0:0:
384,288,68678,1,8,0:0:0:0:
384,288,68743,1,8,0:0:0:0:
352,256,68874,1,8,0:0:0:0:
352,256,69004,1,8,0:0:0:0:
352,256,69069,1,8,0:0:0:0:
352,256,69135,1,0,0:0:0:0:
352,256,69265,1,8,0:0:0:0:
352,256,69396,1,8,0:0:0:0:
352,256,69526,1,0,0:0:0:0:
352,256,69656,1,8,0:0:0:0:
352,256,69917,1,0,0:0:0:0:
352,256,70048,1,8,0:0:0:0:
352,256,70113,1,8,0:0:0:0:
352,256,70178,1,8,0:0:0:0:
352,256,70309,1,0,0:0:0:0:
352,256,70439,1,8,0:0:0:0:
352,256,70569,1,8,0:0:0:0:
160,192,70700,1,0,0:0:0:0:
160,224,70765,1,8,0:0:0:0:
160,224,70830,1,8,0:0:0:0:
192,224,70961,1,8,0:0:0:0:
192,224,71091,1,8,0:0:0:0:
192,224,71156,1,8,0:0:0:0:
192,224,71222,1,0,0:0:0:0:
192,224,71352,1,8,0:0:0:0:
192,224,71482,1,8,0:0:0:0:
192,224,71613,1,0,0:0:0:0:
192,224,71678,1,8,0:0:0:0:
192,224,71743,1,0,0:0:0:0:
192,224,71874,1,0,0:0:0:0:
192,224,72004,1,0,0:0:0:0:
192,224,72069,1,8,0:0:0:0:
192,224,72135,1,8,0:0:0:0:
192,224,72265,1,8,0:0:0:0:
192,224,72396,1,0,0:0:0:0:
149,143,72656,1,8,0:0:0:0:
192,224,72787,1,0,0:0:0:0:
192,224,72852,1,8,0:0:0:0:
192,224,72917,1,8,0:0:0:0:
192,224,73048,1,8,0:0:0:0:
192,224,73178,1,0,0:0:0:0:
192,224,73243,1,8,0:0:0:0:
192,224,73309,1,0,0:0:0:0:
192,224,73439,1,8,0:0:0:0:
192,224,73569,1,8,0:0:0:0:
192,224,73700,1,0,0:0:0:0:
192,224,73765,1,8,0:0:0:0:
192,224,73830,1,0,0:0:0:0:
192,224,73961,1,8,0:0:0:0:
192,224,74091,1,0,0:0:0:0:
192,224,74221,1,0,0:0:0:0:
192,224,74287,1,8,0:0:0:0:
192,224,74352,1,8,0:0:0:0:
192,224,74482,1,8,0:0:0:0:
192,224,74548,1,8,0:0:0:0:
192,224,74613,1,8,0:0:0:0:
192,224,74743,1,8,0:0:0:0:
192,224,74874,1,0,0:0:0:0:
192,224,75135,1,8,0:0:0:0:
192,192,75265,1,8,0:0:0:0:
192,192,75330,1,8,0:0:0:0:
192,192,75396,1,0,0:0:0:0:
192,192,75526,1,8,0:0:0:0:
192,192,75656,1,8,0:0:0:0:
192,192,75787,1,0,0:0:0:0:
192,192,75917,1,8,0:0:0:0:
192,192,76048,1,0,0:0:0:0:
192,192,76113,1,8,0:0:0:0:
192,192,76178,1,0,0:0:0:0:
192,192,76309,1,8,0:0:0:0:
192,192,76374,1,8,0:0:0:0:
192,192,76439,1,8,0:0:0:0:
192,160,76569,1,0,0:0:0:0:
192,160,76700,1,8,0:0:0:0:
192,160,76830,1,8,0:0:0:0:
192,160,76961,1,0,0:0:0:0:
192,160,77026,1,8,0:0:0:0:
192,160,77091,1,8,0:0:0:0:
192,160,77222,1,8,0:0:0:0:
192,160,77352,1,8,0:0:0:0:
192,160,77417,1,8,0:0:0:0:
192,160,77482,1,0,0:0:0:0:
192,160,77613,1,8,0:0:0:0:
192,160,77743,1,0,0:0:0:0:
192,160,77874,1,0,0:0:0:0:
192,160,77939,1,0,0:0:0:0:
192,160,78004,1,8,0:0:0:0:
192,160,78135,1,8,0:0:0:0:
192,160,78265,1,0,0:0:0:0:
96,224,78330,1,8,0:0:0:0:
96,224,78396,1,8,0:0:0:0:
96,224,78526,1,8,0:0:0:0:
96,224,78656,1,0,0:0:0:0:
96,224,78787,1,8,0:0:0:0:
96,224,79048,1,0,0:0:0:0:
96,224,79178,1,8,0:0:0:0:
96,224,79309,1,8,0:0:0:0:
96,224,79374,1,8,0:0:0:0:
96,224,79439,1,0,0:0:0:0:
96,224,79569,1,0,0:0:0:0:
96,224,79700,1,8,0:0:0:0:
96,224,79830,1,8,0:0:0:0:
96,224,79961,1,0,0:0:0:0:
96,224,80091,1,0,0:0:0:0:
96,224,80222,1,8,0:0:0:0:
96,224,80352,1,0,0:0:0:0:
96,224,80417,1,8,0:0:0:0:
96,224,80482,1,8,0:0:0:0:
96,224,80613,1,8,0:0:0:0:
96,224,80678,1,8,0:0:0:0:
96,224,80743,1,0,0:0:0:0:
96,224,80874,1,8,0:0:0:0:
96,224,81135,1,0,0:0:0:0:
96,224,81265,1,8,0:0:0:0:
96,224,81330,1,8,0:0:0:0:
96,224,81396,1,8,0:0:0:0:
96,224,81526,1,8,0:0:0:0:
96,224,81656,1,0,0:0:0:0:
96,224,81787,1,8,0:0:0:0:
96,224,81917,1,0,0:0:0:0:
96,224,82048,1,0,0:0:0:0:
96,224,82113,1,8,0:0:0:0:
96,224,82178,1,8,0:0:0:0:
96,224,82309,1,8,0:0:0:0:
96,224,82439,1,0,0:0:0:0:
352,288,82700,1,8,0:0:0:0:
352,288,82830,1,0,0:0:0:0:
352,288,82961,1,8,0:0:0:0:
352,288,83222,1,0,0:0:0:0:
352,288,83352,1,8,0:0:0:0:
352,288,83613,1,8,0:0:0:0:
352,288,83678,1,8,0:0:0:0:
352,288,83743,1,0,0:0:0:0:
352,288,83874,1,8,0:0:0:0:
352,288,84004,1,8,0:0:0:0:
352,288,84135,1,0,0:0:0:0:
352,288,84265,1,0,0:0:0:0:
352,288,84396,1,0,0:0:0:0:
352,288,84526,1,4,0:0:0:0:
96,160,84917,1,0,0:0:0:0:
96,160,85309,1,0,0:0:0:0:
96,160,85830,1,0,0:0:0:0:
96,160,86352,1,0,0:0:0:0:
96,160,86613,1,8,0:0:0:0:
96,160,87135,1,8,0:0:0:0:
128,160,87265,1,0,0:0:0:0:
128,160,87656,1,0,0:0:0:0:
128,160,88309,1,8,0:0:0:0:
32,160,88700,1,0,0:0:0:0:
64,160,89743,1,8,0:0:0:0:
64,160,90787,1,0,0:0:0:0:
64,128,91309,1,8,0:0:0:0:
64,128,91439,1,0,0:0:0:0:
64,160,91830,1,0,0:0:0:0:
64,160,92613,1,8,0:0:0:0:
192,160,92874,1,0,0:0:0:0:
160,192,94700,1,0,0:0:0:0:
32,160,94961,1,8,0:0:0:0:
288,128,95222,1,8,0:0:0:0:
288,128,95482,1,0,0:0:0:0:
288,128,95613,1,0,0:0:0:0:
288,128,95743,1,8,0:0:0:0:
288,128,96004,1,8,0:0:0:0:
288,128,96135,1,8,0:0:0:0:
352,64,96200,1,8,0:0:0:0:
352,64,96265,1,8,0:0:0:0:
416,256,96396,1,8,0:0:0:0:
288,128,96787,1,8,0:0:0:0:
288,128,97048,1,0,0:0:0:0:
288,128,97113,1,0,0:0:0:0:
288,128,97178,1,8,0:0:0:0:
288,128,97309,1,8,0:0:0:0:
288,128,97830,1,8,0:0:0:0:
288,128,98091,1,0,0:0:0:0:
288,128,98156,1,0,0:0:0:0:
288,128,98222,1,8,0:0:0:0:
288,128,98352,1,8,0:0:0:0:
288,128,98482,1,8,0:0:0:0:
288,128,98743,1,8,0:0:0:0:
288,128,98809,1,8,0:0:0:0:
288,128,98874,1,8,0:0:0:0:
288,128,99135,1,8,0:0:0:0:
288,128,99200,1,8,0:0:0:0:
288,128,99265,1,0,0:0:0:0:
288,128,99396,1,0,0:0:0:0:
288,128,99787,1,8,0:0:0:0:
288,128,99917,1,0,0:0:0:0:
288,128,100178,1,0,0:0:0:0:
288,128,100309,1,8,0:0:0:0:
288,128,100374,1,8,0:0:0:0:
288,128,100439,1,0,0:0:0:0:
288,128,100569,1,8,0:0:0:0:
288,128,100961,1,0,0:0:0:0:
288,128,101222,1,8,0:0:0:0:
128,128,101482,1,8,0:0:0:0:
288,128,101548,1,0,0:0:0:0:
128,128,101743,1,8,0:0:0:0:
128,128,102004,1,8,0:0:0:0:
128,128,102265,1,0,0:0:0:0:
448,256,103309,1,4,0:0:0:0:
192,224,103570,1,8,0:0:0:0:
192,224,103635,1,8,0:0:0:0:
192,224,103700,1,0,0:0:0:0:
192,224,103831,1,8,0:0:0:0:
192,224,103961,1,8,0:0:0:0:
192,224,104092,1,0,0:0:0:0:
192,224,104157,1,8,0:0:0:0:
192,224,104222,1,8,0:0:0:0:
192,224,104352,1,8,0:0:0:0:
192,224,104483,1,8,0:0:0:0:
192,224,104613,1,0,0:0:0:0:
192,224,104679,1,0,0:0:0:0:
192,224,104744,1,8,0:0:0:0:
192,224,104874,1,8,0:0:0:0:
192,224,105005,1,0,0:0:0:0:
192,224,105135,1,8,0:0:0:0:
192,224,105266,1,8,0:0:0:0:
192,224,105396,1,0,0:0:0:0:
192,224,105657,1,8,0:0:0:0:
192,224,105787,1,0,0:0:0:0:
192,224,105918,1,8,0:0:0:0:
192,224,106179,1,0,0:0:0:0:
384,288,106244,1,8,0:0:0:0:
384,288,106309,1,8,0:0:0:0:
384,288,106439,1,8,0:0:0:0:
384,288,106505,1,8,0:0:0:0:
384,288,106570,1,0,0:0:0:0:
384,288,106700,1,0,0:0:0:0:
384,288,106831,1,8,0:0:0:0:
384,288,106961,1,8,0:0:0:0:
384,288,107026,1,8,0:0:0:0:
384,288,107092,1,8,0:0:0:0:
384,288,107222,1,0,0:0:0:0:
384,288,107352,1,0,0:0:0:0:
384,288,107483,1,0,0:0:0:0:
384,288,107548,1,8,0:0:0:0:
384,288,107613,1,8,0:0:0:0:
384,288,107679,1,0,0:0:0:0:
384,288,107744,1,8,0:0:0:0:
384,288,107874,1,0,0:0:0:0:
384,288,108005,1,8,0:0:0:0:
352,288,108135,1,8,0:0:0:0:
352,288,108266,1,0,0:0:0:0:
352,288,108331,1,8,0:0:0:0:
352,288,108396,1,8,0:0:0:0:
352,288,108526,1,8,0:0:0:0:
352,288,108657,1,8,0:0:0:0:
352,288,108787,1,0,0:0:0:0:
352,288,108852,1,0,0:0:0:0:
352,288,108918,1,0,0:0:0:0:
352,288,109048,1,8,0:0:0:0:
352,288,109179,1,0,0:0:0:0:
352,288,109309,1,8,0:0:0:0:
352,288,109439,1,8,0:0:0:0:
352,288,109570,1,0,0:0:0:0:
160,192,109830,1,8,0:0:0:0:
160,160,109961,1,0,0:0:0:0:
160,192,110091,1,8,0:0:0:0:
160,192,110222,1,8,0:0:0:0:
160,192,110352,1,0,0:0:0:0:
224,192,110417,1,8,0:0:0:0:
224,192,110482,1,8,0:0:0:0:
224,192,110613,1,8,0:0:0:0:
224,192,110743,1,8,0:0:0:0:
224,192,110809,1,8,0:0:0:0:
224,192,110874,1,0,0:0:0:0:
224,192,111004,1,8,0:0:0:0:
224,192,111135,1,0,0:0:0:0:
224,192,111265,1,0,0:0:0:0:
224,192,111396,1,0,0:0:0:0:
224,192,111526,1,0,0:0:0:0:
224,192,111656,1,8,0:0:0:0:
128,192,111787,1,8,0:0:0:0:
128,192,111852,1,8,0:0:0:0:
128,192,111917,1,8,0:0:0:0:
128,192,112048,1,0,0:0:0:0:
192,128,112178,1,8,0:0:0:0:
192,128,112439,1,0,0:0:0:0:
192,96,112504,1,8,0:0:0:0:
192,96,112569,1,8,0:0:0:0:
192,128,112700,1,8,0:0:0:0:
160,96,112830,1,8,0:0:0:0:
160,96,112961,1,0,0:0:0:0:
192,128,113026,1,8,0:0:0:0:
192,128,113091,1,8,0:0:0:0:
192,128,113222,1,8,0:0:0:0:
160,160,113352,1,0,0:0:0:0:
32,160,113482,1,8,0:0:0:0:
128,192,113743,1,0,0:0:0:0:
160,160,113874,1,8,0:0:0:0:
160,160,113939,1,8,0:0:0:0:
160,160,114004,1,8,0:0:0:0:
160,160,114135,1,0,0:0:0:0:
160,160,114265,1,8,0:0:0:0:
160,160,114526,1,0,0:0:0:0:
160,160,114591,1,8,0:0:0:0:
160,160,114656,1,8,0:0:0:0:
160,160,114787,1,8,0:0:0:0:
160,160,114852,1,8,0:0:0:0:
160,160,114917,1,0,0:0:0:0:
160,160,115048,1,0,0:0:0:0:
128,160,115178,1,0,0:0:0:0:
128,160,115309,1,8,0:0:0:0:
128,160,115374,1,8,0:0:0:0:
128,160,115439,1,0,0:0:0:0:
128,160,115569,1,0,0:0:0:0:
128,160,115700,1,0,0:0:0:0:
128,160,115830,1,8,0:0:0:0:
128,160,115896,1,8,0:0:0:0:
128,160,115961,1,8,0:0:0:0:
128,160,116091,1,8,0:0:0:0:
128,160,116156,1,8,0:0:0:0:
128,160,116222,1,0,0:0:0:0:
128,160,116352,1,8,0:0:0:0:
128,160,116482,1,8,0:0:0:0:
128,160,116613,1,0,0:0:0:0:
64,192,116678,1,8,0:0:0:0:
128,256,116743,1,8,0:0:0:0:
128,256,116874,1,0,0:0:0:0:
192,160,117135,1,0,0:0:0:0:
192,160,117200,1,8,0:0:0:0:
192,160,117265,1,8,0:0:0:0:
192,160,117396,1,8,0:0:0:0:
192,160,117526,1,0,0:0:0:0:
192,160,117656,1,8,0:0:0:0:
192,160,117787,1,8,0:0:0:0:
288,192,117917,1,4,0:0:0:0:
416,288,118309,1,0,0:0:0:0:
416,288,118700,1,0,0:0:0:0:
416,288,119222,1,0,0:0:0:0:
416,288,119743,1,0,0:0:0:0:
416,288,120004,1,8,0:0:0:0:
192,224,120526,1,8,0:0:0:0:
192,256,121048,1,8,0:0:0:0:
160,224,121569,1,8,0:0:0:0:
160,224,122091,1,8,0:0:0:0:
160,224,122352,1,8,0:0:0:0:
160,224,122613,1,8,0:0:0:0:
160,224,122874,1,8,0:0:0:0:
160,224,123135,1,8,0:0:0:0:
160,224,123396,1,8,0:0:0:0:
160,224,123656,1,8,0:0:0:0:
160,224,123917,1,8,0:0:0:0:
160,224,124178,1,8,0:0:0:0:
160,224,124309,1,8,0:0:0:0:
160,224,124439,1,8,0:0:0:0:
160,224,124569,1,8,0:0:0:0:
160,224,124700,1,8,0:0:0:0:
160,224,124830,1,8,0:0:0:0:
160,224,124961,1,8,0:0:0:0:
160,224,125091,1,8,0:0:0:0:
160,224,125222,1,8,0:0:0:0:
160,224,125287,1,8,0:0:0:0:
160,224,125352,1,8,0:0:0:0:
160,224,125417,1,8,0:0:0:0:
160,224,125482,1,8,0:0:0:0:
160,224,125548,1,8,0:0:0:0:
160,224,125613,1,8,0:0:0:0:
160,224,125678,1,8,0:0:0:0:
160,224,125743,1,8,0:0:0:0:
160,224,125809,1,8,0:0:0:0:
160,224,125874,1,8,0:0:0:0:
160,224,125939,1,8,0:0:0:0:
160,224,126004,1,8,0:0:0:0:
160,224,126069,1,8,0:0:0:0:
160,224,126135,1,8,0:0:0:0:
160,224,126200,1,8,0:0:0:0:
160,224,126265,1,4,0:0:0:0:
160,192,126461,1,8,0:0:0:0:
160,192,126591,1,8,0:0:0:0:
160,192,126787,1,4,0:0:0:0:
160,192,126982,1,8,0:0:0:0:
160,192,127113,1,8,0:0:0:0:
160,192,127309,1,4,0:0:0:0:
160,192,127504,1,8,0:0:0:0:
160,192,127635,1,8,0:0:0:0:
160,192,127830,1,4,0:0:0:0:
64,192,127961,1,8,0:0:0:0:
64,192,128091,1,8,0:0:0:0:
64,192,128222,1,8,0:0:0:0:
416,320,128352,1,4,0:0:0:0:
96,192,128482,1,8,0:0:0:0:
96,192,128613,1,8,0:0:0:0:
96,192,128743,1,0,0:0:0:0:
96,192,128808,1,0,0:0:0:0:
96,192,128873,1,8,0:0:0:0:
96,192,129004,1,8,0:0:0:0:
96,192,129134,1,0,0:0:0:0:
96,192,129395,1,8,0:0:0:0:
96,192,129526,1,8,0:0:0:0:
96,192,129656,1,0,0:0:0:0:
32,160,129721,1,0,0:0:0:0:
96,192,129786,1,8,0:0:0:0:
96,192,129917,1,8,0:0:0:0:
96,192,130047,1,0,0:0:0:0:
128,192,130178,1,8,0:0:0:0:
128,192,130439,1,0,0:0:0:0:
128,192,130504,1,8,0:0:0:0:
128,192,130569,1,8,0:0:0:0:
128,192,130699,1,8,0:0:0:0:
128,192,130765,1,8,0:0:0:0:
128,192,130830,1,0,0:0:0:0:
128,192,130960,1,8,0:0:0:0:
128,192,131221,1,0,0:0:0:0:
128,192,131352,1,8,0:0:0:0:
128,192,131482,1,8,0:0:0:0:
224,224,131547,1,8,0:0:0:0:
96,160,131613,1,8,0:0:0:0:
96,160,131743,1,0,0:0:0:0:
96,160,131873,1,8,0:0:0:0:
96,160,132004,1,8,0:0:0:0:
96,160,132134,1,0,0:0:0:0:
96,160,132199,1,8,0:0:0:0:
96,160,132265,1,0,0:0:0:0:
96,160,132395,1,0,0:0:0:0:
96,160,132526,1,0,0:0:0:0:
96,160,132591,1,8,0:0:0:0:
96,160,132656,1,8,0:0:0:0:
96,160,132786,1,8,0:0:0:0:
96,160,132917,1,0,0:0:0:0:
96,160,133047,1,8,0:0:0:0:
96,160,133178,1,8,0:0:0:0:
192,224,133243,1,8,0:0:0:0:
96,160,133308,1,0,0:0:0:0:
96,128,133439,1,8,0:0:0:0:
96,128,133569,1,8,0:0:0:0:
96,128,133830,1,0,0:0:0:0:
96,128,133960,1,8,0:0:0:0:
96,128,134091,1,0,0:0:0:0:
96,128,134221,1,0,0:0:0:0:
96,128,134352,1,8,0:0:0:0:
256,192,134417,1,8,0:0:0:0:
96,128,134482,1,8,0:0:0:0:
96,128,134613,1,0,0:0:0:0:
64,128,134873,1,8,0:0:0:0:
64,128,135004,1,0,0:0:0:0:
64,128,135134,1,0,0:0:0:0:
128,128,135265,1,8,0:0:0:0:
128,128,135395,1,0,0:0:0:0:
128,128,135460,1,8,0:0:0:0:
128,128,135526,1,8,0:0:0:0:
128,128,135656,1,8,0:0:0:0:
128,160,135721,1,0,0:0:0:0:
320,256,135917,1,0,0:0:0:0:
160,160,135982,1,8,0:0:0:0:
160,160,136047,1,0,0:0:0:0:
160,160,136178,1,12,0:0:0:0:
192,224,136308,1,4,0:0:0:0:
224,224,136439,1,4,0:0:0:0:
224,224,136569,1,4,0:0:0:0:
224,224,136699,1,12,0:0:0:0:
128,192,137091,1,0,0:0:0:0:
160,160,137221,1,8,0:0:0:0:
160,160,137352,1,8,0:0:0:0:
160,160,137482,1,0,0:0:0:0:
160,160,137547,1,8,0:0:0:0:
128,160,137613,1,8,0:0:0:0:
160,160,137743,1,8,0:0:0:0:
160,160,137873,1,8,0:0:0:0:
160,160,138004,1,0,0:0:0:0:
160,160,138265,1,8,0:0:0:0:
160,160,138395,1,0,0:0:0:0:
160,160,138460,1,8,0:0:0:0:
160,160,138526,1,8,0:0:0:0:
160,160,138656,1,8,0:0:0:0:
160,160,138786,1,0,0:0:0:0:
160,160,138917,1,8,0:0:0:0:
160,160,138982,1,8,0:0:0:0:
160,160,139047,1,8,0:0:0:0:
160,160,139178,1,0,0:0:0:0:
160,160,139308,1,8,0:0:0:0:
160,160,139439,1,8,0:0:0:0:
160,160,139569,1,0,0:0:0:0:
160,160,139634,1,8,0:0:0:0:
160,160,139699,1,8,0:0:0:0:
160,160,139830,1,0,0:0:0:0:
160,160,139895,1,0,0:0:0:0:
160,160,139960,1,8,0:0:0:0:
160,160,140091,1,0,0:0:0:0:
160,160,140221,1,8,0:0:0:0:
160,160,140352,1,8,0:0:0:0:
160,160,140482,1,0,0:0:0:0:
160,160,140547,1,8,0:0:0:0:
160,160,140613,1,0,0:0:0:0:
160,160,140743,1,0,0:0:0:0:
160,160,140873,1,0,0:0:0:0:
160,160,140939,1,8,0:0:0:0:
160,160,141004,1,8,0:0:0:0:
160,160,141134,1,8,0:0:0:0:
160,160,141199,1,8,0:0:0:0:
160,160,141265,1,0,0:0:0:0:
160,160,141395,1,8,0:0:0:0:
160,160,141526,1,0,0:0:0:0:
160,160,141656,1,0,0:0:0:0:
160,160,141721,1,8,0:0:0:0:
160,160,141786,1,8,0:0:0:0:
160,160,141917,1,8,0:0:0:0:
160,160,142178,1,0,0:0:0:0:
160,160,142308,1,8,0:0:0:0:
160,160,142439,1,0,0:0:0:0:
160,160,142569,1,0,0:0:0:0:
160,160,142634,1,8,0:0:0:0:
160,160,142699,1,8,0:0:0:0:
160,160,142830,1,8,0:0:0:0:
160,160,142960,1,0,0:0:0:0:
256,256,143091,1,0,0:0:0:0:
256,256,143221,1,0,0:0:0:0:
256,256,143352,1,0,0:0:0:0:
256,256,143482,1,0,0:0:0:0:
256,256,143547,1,0,0:0:0:0:
256,256,143613,1,0,0:0:0:0:
256,256,143678,1,0,0:0:0:0:
256,256,143743,1,0,0:0:0:0:
128,192,143786,1,0,0:0:0:0:
192,224,143830,1,0,0:0:0:0:
192,224,143873,1,0,0:0:0:0:
192,224,143917,1,0,0:0:0:0:
192,224,143960,1,0,0:0:0:0:
256,256,144004,1,8,0:0:0:0:
288,160,144265,1,8,0:0:0:0:
288,160,144526,1,8,0:0:0:0:
288,160,144787,1,0,0:0:0:0:
288,160,144852,1,8,0:0:0:0:
288,160,144917,1,8,0:0:0:0:
288,160,144982,1,8,0:0:0:0:
288,160,145047,1,0,0:0:0:0:
384,288,145178,1,8,0:0:0:0:
384,288,145243,1,8,0:0:0:0:
384,288,145308,1,8,0:0:0:0:
384,288,145439,1,0,0:0:0:0:
384,288,145569,1,8,0:0:0:0:
384,288,145699,1,8,0:0:0:0:
384,288,145830,1,0,0:0:0:0:
384,288,145895,1,8,0:0:0:0:
384,288,145960,1,8,0:0:0:0:
352,256,146091,1,8,0:0:0:0:
352,256,146221,1,8,0:0:0:0:
352,256,146286,1,8,0:0:0:0:
352,256,146352,1,0,0:0:0:0:
352,256,146482,1,8,0:0:0:0:
352,256,146613,1,8,0:0:0:0:
352,256,146743,1,0,0:0:0:0:
352,256,146873,1,8,0:0:0:0:
352,256,147134,1,0,0:0:0:0:
352,256,147265,1,8,0:0:0:0:
352,256,147330,1,8,0:0:0:0:
352,256,147395,1,8,0:0:0:0:
352,256,147526,1,0,0:0:0:0:
352,256,147656,1,8,0:0:0:0:
352,256,147786,1,8,0:0:0:0:
160,192,147917,1,0,0:0:0:0:
160,224,147982,1,8,0:0:0:0:
160,224,148047,1,8,0:0:0:0:
192,224,148178,1,8,0:0:0:0:
192,224,148308,1,8,0:0:0:0:
192,224,148373,1,8,0:0:0:0:
192,224,148439,1,0,0:0:0:0:
192,224,148569,1,8,0:0:0:0:
192,224,148699,1,8,0:0:0:0:
192,224,148830,1,0,0:0:0:0:
192,224,148895,1,8,0:0:0:0:
192,224,148960,1,0,0:0:0:0:
192,224,149091,1,0,0:0:0:0:
192,224,149221,1,0,0:0:0:0:
192,224,149286,1,8,0:0:0:0:
192,224,149352,1,8,0:0:0:0:
192,224,149482,1,8,0:0:0:0:
192,224,149613,1,0,0:0:0:0:
192,224,149743,1,8,0:0:0:0:
192,224,150004,1,0,0:0:0:0:
192,224,150069,1,8,0:0:0:0:
192,224,150134,1,8,0:0:0:0:
192,224,150265,1,8,0:0:0:0:
192,224,150395,1,8,0:0:0:0:
192,224,150460,1,8,0:0:0:0:
192,224,150526,1,0,0:0:0:0:
192,224,150656,1,8,0:0:0:0:
192,224,150786,1,8,0:0:0:0:
192,224,150917,1,0,0:0:0:0:
192,224,150982,1,8,0:0:0:0:
192,224,151047,1,8,0:0:0:0:
192,224,151178,1,8,0:0:0:0:
192,224,151308,1,0,0:0:0:0:
192,224,151439,1,8,0:0:0:0:
192,224,151504,1,8,0:0:0:0:
192,224,151569,1,8,0:0:0:0:
192,224,151699,1,0,0:0:0:0:
192,224,151765,1,8,0:0:0:0:
192,224,151830,1,8,0:0:0:0:
192,224,151960,1,8,0:0:0:0:
192,224,152091,1,0,0:0:0:0:
192,224,152352,1,8,0:0:0:0:
192,192,152482,1,8,0:0:0:0:
192,192,152547,1,8,0:0:0:0:
192,192,152613,1,0,0:0:0:0:
192,192,152743,1,8,0:0:0:0:
192,192,152873,1,8,0:0:0:0:
192,192,153004,1,0,0:0:0:0:
192,192,153134,1,8,0:0:0:0:
192,192,153265,1,0,0:0:0:0:
192,192,153330,1,8,0:0:0:0:
192,192,153395,1,0,0:0:0:0:
192,192,153526,1,8,0:0:0:0:
192,192,153591,1,8,0:0:0:0:
192,192,153656,1,8,0:0:0:0:
192,160,153786,1,0,0:0:0:0:
192,160,153917,1,8,0:0:0:0:
192,160,154047,1,8,0:0:0:0:
192,160,154178,1,0,0:0:0:0:
192,160,154243,1,8,0:0:0:0:
192,160,154308,1,8,0:0:0:0:
192,160,154439,1,8,0:0:0:0:
192,160,154569,1,8,0:0:0:0:
192,160,154634,1,8,0:0:0:0:
192,160,154699,1,0,0:0:0:0:
192,160,154830,1,8,0:0:0:0:
192,160,154960,1,0,0:0:0:0:
192,160,155091,1,0,0:0:0:0:
192,160,155156,1,0,0:0:0:0:
192,160,155221,1,8,0:0:0:0:
192,160,155352,1,8,0:0:0:0:
192,160,155482,1,0,0:0:0:0:
96,224,155547,1,8,0:0:0:0:
96,224,155613,1,8,0:0:0:0:
96,224,155743,1,8,0:0:0:0:
96,224,155873,1,0,0:0:0:0:
96,224,156004,1,8,0:0:0:0:
96,224,156265,1,0,0:0:0:0:
96,224,156395,1,8,0:0:0:0:
96,224,156526,1,8,0:0:0:0:
96,224,156591,1,8,0:0:0:0:
96,224,156656,1,0,0:0:0:0:
96,224,156786,1,0,0:0:0:0:
96,224,156917,1,8,0:0:0:0:
96,224,157047,1,8,0:0:0:0:
96,224,157178,1,0,0:0:0:0:
96,224,157308,1,0,0:0:0:0:
96,224,157439,1,8,0:0:0:0:
96,224,157569,1,0,0:0:0:0:
96,224,157634,1,8,0:0:0:0:
96,224,157699,1,8,0:0:0:0:
96,224,157830,1,8,0:0:0:0:
96,224,157895,1,8,0:0:0:0:
96,224,157960,1,0,0:0:0:0:
96,224,158091,1,8,0:0:0:0:
96,224,158352,1,0,0:0:0:0:
96,224,158482,1,8,0:0:0:0:
96,224,158547,1,8,0:0:0:0:
96,224,158613,1,8,0:0:0:0:
96,224,158743,1,8,0:0:0:0:
96,224,158873,1,0,0:0:0:0:
96,224,159004,1,8,0:0:0:0:
96,224,159134,1,0,0:0:0:0:
96,224,159265,1,0,0:0:0:0:
96,224,159330,1,8,0:0:0:0:
96,224,159395,1,8,0:0:0:0:
96,224,159526,1,8,0:0:0:0:
96,224,159656,1,0,0:0:0:0:
352,288,159917,1,8,0:0:0:0:
352,288,160047,1,0,0:0:0:0:
352,288,160178,1,8,0:0:0:0:
192,224,160439,1,8,0:0:0:0:
192,224,160830,1,8,0:0:0:0:
192,224,160896,1,8,0:0:0:0:
192,224,160961,1,8,0:0:0:0:
192,224,161091,1,8,0:0:0:0:
416,320,161482,1,8,0:0:0:0:
