osu file format v14

[General]
AudioFilename: audio.mp3
AudioLeadIn: 0
PreviewTime: 73030
Countdown: 0
SampleSet: Normal
StackLeniency: 0.7
Mode: 1
LetterboxInBreaks: 0
WidescreenStoryboard: 0

[Editor]
Bookmarks: 10891,21269,26458,36837,42026,47215,52404,57594,62783,67972,78350,83540
DistanceSpacing: 0.2
BeatDivisor: 4
GridSize: 32
TimelineZoom: 4.200004

[Metadata]
Title:Enough
TitleUnicode:Enough
Artist:Goblins from Mars
ArtistUnicode:Goblins from Mars
Creator:Scarlet Remilia
Version:Oni
Source:
Tags:trap gfm gfmarmy electronic instrumental
BeatmapID:2537918
BeatmapSetID:1219963

[Difficulty]
HPDrainRate:5
CircleSize:5
OverallDifficulty:5.5
ApproachRate:5
SliderMultiplier:1.4
SliderTickRate:1

[Events]
//Background and Video events
0,0,"eae.jpg",0,-130
//Break Periods
//Storyboard Layer 0 (Background)
//Storyboard Layer 1 (Fail)
//Storyboard Layer 2 (Pass)
//Storyboard Layer 3 (Foreground)
//Storyboard Layer 4 (Overlay)
//Storyboard Sound Samples

[TimingPoints]
625,324.324324324324,4,1,0,60,1,0
625,-125,4,1,0,60,0,0
10922,-111.111111111111,4,1,0,70,0,0
18381,-106.382978723404,4,1,0,70,0,0
18706,-98.0392156862745,4,1,0,39,0,0
18868,-96.1538461538461,4,1,0,46,0,0
19030,-94.3396226415094,4,1,0,53,0,0
19192,-92.5925925925926,4,1,0,60,0,0
19354,-90.9090909090909,4,1,0,67,0,0
19516,-89.2857142857143,4,1,0,75,0,0
19679,-87.719298245614,4,1,0,75,0,0
19841,-86.2068965517241,4,1,0,75,0,0
20043,-84.0336134453781,4,1,0,75,0,0
20124,-83.3333333333333,4,1,0,75,0,0
20206,-82.6446280991736,4,1,0,75,0,0
20287,-81.9672131147541,4,1,0,75,0,0
20368,-81.3008130081301,4,1,0,75,0,0
20530,-80.6451612903226,4,1,0,75,0,0
20611,-80,4,1,0,75,0,0
20692,-79.3650793650794,4,1,0,75,0,0
20814,-90.9090909090909,4,1,0,67,0,0
21381,-83.3333333333333,4,1,0,80,0,1
31070,-83.3333333333333,4,1,0,80,0,1
31152,-82.6446280991736,4,1,0,80,0,1
31233,-81.9672131147541,4,1,0,80,0,1
31314,-81.3008130081301,4,1,0,80,0,1
31395,-80.6451612903226,4,1,0,80,0,1
31557,-79.3650793650794,4,1,0,80,0,1
31638,-78.7401574803149,4,1,0,80,0,1
31760,-78.125,4,1,0,80,0,0
31841,-100,4,1,0,27,0,0
34273,-100,4,1,0,37,0,0
36868,-100,4,1,0,44,0,0
39462,-100,4,1,0,50,0,0
42057,-100,4,1,0,70,0,0
47084,-96.1538461538461,4,1,0,70,0,0
49881,-96.1538461538461,4,1,0,22,0,0
49962,-95.2380952380952,4,1,0,27,0,0
50043,-94.3396226415094,4,1,0,32,0,0
50124,-93.4579439252336,4,1,0,37,0,0
50206,-92.5925925925926,4,1,0,42,0,0
50368,-90.9090909090909,4,1,0,47,0,0
50530,-89.2857142857143,4,1,0,52,0,0
50611,-88.4955752212389,4,1,0,57,0,0
50692,-87.719298245614,4,1,0,62,0,0
50773,-86.9565217391304,4,1,0,67,0,0
50854,-86.2068965517241,4,1,0,70,0,0
51016,-84.7457627118644,4,1,0,70,0,0
51097,-83.3333333333333,4,1,0,70,0,0
51219,-90.9090909090909,4,1,0,70,0,0
52516,-83.3333333333333,4,1,0,80,0,1
73273,-83.3333333333333,4,1,0,80,0,0
73354,-86.9565217391304,4,1,0,70,0,0
75462,-87.719298245614,4,1,0,70,0,0
75624,-88.4955752212389,4,1,0,70,0,0
75787,-89.2857142857143,4,1,0,60,0,0
75949,-90.0900900900901,4,1,0,60,0,0
78057,-90.9090909090909,4,1,0,60,0,0
78219,-91.743119266055,4,1,0,60,0,0
78381,-92.5925925925926,4,1,0,50,0,0
78543,-93.4579439252336,4,1,0,50,0,0
80652,-94.3396226415094,4,1,0,50,0,0
80814,-95.2380952380952,4,1,0,50,0,0
80976,-96.1538461538461,4,1,0,40,0,0
81138,-97.0873786407767,4,1,0,40,0,0

[HitObjects]
262,255,625,5,0,0:0:0:0:
262,280,949,1,8,0:0:0:0:
280,256,1111,1,8,0:0:0:0:
277,256,1273,1,0,0:0:0:0:
265,266,1597,1,0,0:0:0:0:
265,266,1922,1,0,0:0:0:0:
265,266,2246,1,8,0:0:0:0:
265,266,2570,1,8,0:0:0:0:
265,266,2895,1,8,0:0:0:0:
265,266,3219,1,0,0:0:0:0:
265,266,3543,1,8,0:0:0:0:
265,266,3706,1,8,0:0:0:0:
265,266,3868,1,0,0:0:0:0:
265,266,4192,1,0,0:0:0:0:
283,247,4516,1,0,0:0:0:0:
252,250,4841,1,8,0:0:0:0:
259,250,5165,1,8,0:0:0:0:
252,250,5489,1,8,0:0:0:0:
267,222,5814,1,0,0:0:0:0:
267,222,6138,1,8,0:0:0:0:
267,222,6300,1,0,0:0:0:0:
267,222,6462,1,8,0:0:0:0:
267,202,6787,1,0,0:0:0:0:
268,202,7111,1,0,0:0:0:0:
271,206,7435,1,8,0:0:0:0:
257,182,7760,1,8,0:0:0:0:
257,181,8084,1,0,0:0:0:0:
263,195,8246,1,8,0:0:0:0:
257,182,8408,1,0,0:0:0:0:
252,198,8733,1,8,0:0:0:0:
252,198,8895,1,0,0:0:0:0:
252,198,9057,1,8,0:0:0:0:
252,198,9381,1,0,0:0:0:0:
231,174,9706,1,0,0:0:0:0:
229,193,10030,1,8,0:0:0:0:
234,191,10354,1,8,0:0:0:0:
263,199,11003,5,8,0:0:0:0:
233,276,11327,1,8,0:0:0:0:
258,238,11489,1,8,0:0:0:0:
258,238,11652,1,0,0:0:0:0:
278,229,11976,1,8,0:0:0:0:
286,210,12300,1,0,0:0:0:0:
206,95,12462,1,8,0:0:0:0:
286,211,12624,1,8,0:0:0:0:
250,145,12787,1,0,0:0:0:0:
282,179,12949,1,8,0:0:0:0:
268,190,13273,1,0,0:0:0:0:
239,134,13435,1,0,0:0:0:0:
278,151,13597,1,8,0:0:0:0:
271,144,13922,1,8,0:0:0:0:
273,138,14084,1,8,0:0:0:0:
273,138,14246,1,0,0:0:0:0:
273,138,14570,1,8,0:0:0:0:
265,133,14895,1,0,0:0:0:0:
258,133,15057,1,8,0:0:0:0:
258,133,15219,1,8,0:0:0:0:
258,139,15543,1,8,0:0:0:0:
258,133,15597,1,8,0:0:0:0:
265,133,15868,1,8,0:0:0:0:
260,120,15922,1,8,0:0:0:0:
301,222,16192,1,0,0:0:0:0:
233,195,16516,1,8,0:0:0:0:
233,195,16679,1,8,0:0:0:0:
233,195,16841,1,0,0:0:0:0:
263,197,17165,1,8,0:0:0:0:
263,197,17489,1,0,0:0:0:0:
234,158,17652,1,8,0:0:0:0:
253,195,17814,1,8,0:0:0:0:
253,195,17976,1,0,0:0:0:0:
253,195,18138,1,8,0:0:0:0:
253,195,18462,1,0,0:0:0:0:
253,195,18787,1,8,0:0:0:0:
253,185,18949,1,8,0:0:0:0:
253,185,19111,1,8,0:0:0:0:
253,185,19273,1,0,0:0:0:0:
254,185,19435,1,8,0:0:0:0:
235,143,19597,1,8,0:0:0:0:
235,143,19760,1,8,0:0:0:0:
235,143,19922,1,0,0:0:0:0:
224,163,20084,1,8,0:0:0:0:
224,163,20165,1,8,0:0:0:0:
236,160,20246,1,0,0:0:0:0:
236,161,20327,1,0,0:0:0:0:
216,122,20408,1,8,0:0:0:0:
216,122,20570,1,8,0:0:0:0:
235,186,20652,1,8,0:0:0:0:
216,122,20733,1,0,0:0:0:0:
227,254,21381,1,4,0:0:0:0:
242,121,21624,1,0,0:0:0:0:
239,144,21706,1,8,0:0:0:0:
255,97,21868,1,0,0:0:0:0:
255,97,22030,1,8,0:0:0:0:
234,115,22354,1,0,0:0:0:0:
246,188,22516,1,8,0:0:0:0:
246,188,22597,1,8,0:0:0:0:
246,188,22679,1,0,0:0:0:0:
251,175,22841,1,8,0:0:0:0:
228,190,23003,1,0,0:0:0:0:
247,122,23327,1,8,0:0:0:0:
239,137,23570,1,8,0:0:0:0:
218,126,23652,1,0,0:0:0:0:
233,135,23814,1,8,0:0:0:0:
241,133,23976,1,4,0:0:0:0:
247,122,24138,1,0,0:0:0:0:
247,122,24219,1,0,0:0:0:0:
204,94,24300,1,0,0:0:0:0:
204,94,24462,1,0,0:0:0:0:
247,122,24624,1,8,0:0:0:0:
258,146,24949,1,0,0:0:0:0:
236,178,25111,1,8,0:0:0:0:
236,178,25192,1,8,0:0:0:0:
236,178,25273,1,0,0:0:0:0:
236,178,25435,1,8,0:0:0:0:
236,178,25597,1,0,0:0:0:0:
236,178,25922,1,8,0:0:0:0:
236,178,26165,1,8,0:0:0:0:
236,178,26246,1,0,0:0:0:0:
236,178,26408,1,8,0:0:0:0:
227,254,26570,1,4,0:0:0:0:
242,121,26814,1,0,0:0:0:0:
239,144,26895,1,8,0:0:0:0:
255,97,27057,1,0,0:0:0:0:
255,97,27219,1,8,0:0:0:0:
234,115,27543,1,0,0:0:0:0:
246,188,27706,1,8,0:0:0:0:
246,188,27787,1,0,0:0:0:0:
246,188,27868,1,0,0:0:0:0:
251,175,28030,1,8,0:0:0:0:
228,190,28192,1,0,0:0:0:0:
247,122,28516,1,8,0:0:0:0:
239,137,28760,1,0,0:0:0:0:
218,126,28841,1,8,0:0:0:0:
233,135,29003,1,8,0:0:0:0:
241,133,29165,1,4,0:0:0:0:
247,122,29327,1,0,0:0:0:0:
247,122,29408,1,0,0:0:0:0:
204,94,29489,1,8,0:0:0:0:
204,94,29652,1,0,0:0:0:0:
247,122,29814,1,8,0:0:0:0:
258,146,30138,1,0,0:0:0:0:
236,178,30300,1,8,0:0:0:0:
236,178,30381,1,0,0:0:0:0:
236,178,30462,1,8,0:0:0:0:
236,178,30624,1,0,0:0:0:0:
236,178,30787,1,0,0:0:0:0:
242,132,30949,1,0,0:0:0:0:
236,178,31111,1,8,0:0:0:0:
241,142,31192,1,8,0:0:0:0:
225,89,31273,1,0,0:0:0:0:
225,89,31354,1,0,0:0:0:0:
236,178,31435,1,8,0:0:0:0:
216,89,31597,1,8,0:0:0:0:
258,174,31679,1,8,0:0:0:0:
217,89,31760,1,0,0:0:0:0:
256,192,32246,1,8,0:0:0:0:
256,192,32408,1,0,0:0:0:0:
256,192,32733,1,8,0:0:0:0:
256,192,33057,1,0,0:0:0:0:
256,192,33381,1,8,0:0:0:0:
256,192,33706,1,8,0:0:0:0:
256,192,34030,1,0,0:0:0:0:
256,192,34354,1,0,0:0:0:0:
256,192,34841,1,8,0:0:0:0:
256,192,35003,1,0,0:0:0:0:
256,192,35327,1,8,0:0:0:0:
256,192,35652,1,0,0:0:0:0:
256,192,35814,1,8,0:0:0:0:
256,192,35976,1,0,0:0:0:0:
256,192,36300,1,8,0:0:0:0:
256,192,36624,1,8,0:0:0:0:
245,249,36949,5,4,0:0:0:0:
241,140,37435,1,8,0:0:0:0:
241,140,37597,1,0,0:0:0:0:
256,192,37922,1,8,0:0:0:0:
256,192,38246,1,0,0:0:0:0:
256,192,38570,1,8,0:0:0:0:
256,192,38733,1,0,0:0:0:0:
256,192,38895,1,8,0:0:0:0:
256,192,39219,1,8,0:0:0:0:
298,164,39543,1,0,0:0:0:0:
256,192,39868,1,8,0:0:0:0:
256,192,40030,1,8,0:0:0:0:
256,192,40192,1,8,0:0:0:0:
256,192,40516,1,8,0:0:0:0:
256,192,40841,1,8,0:0:0:0:
256,192,41003,1,8,0:0:0:0:
256,192,41165,1,8,0:0:0:0:
256,192,41489,1,8,0:0:0:0:
267,197,42138,1,8,0:0:0:0:
268,183,42462,1,0,0:0:0:0:
271,209,42624,1,8,0:0:0:0:
271,215,42787,1,8,0:0:0:0:
255,201,43111,1,8,0:0:0:0:
255,201,43435,1,0,0:0:0:0:
255,201,43597,1,8,0:0:0:0:
255,201,43760,1,8,0:0:0:0:
255,201,44084,1,0,0:0:0:0:
315,184,44327,1,8,0:0:0:0:
255,201,44408,1,8,0:0:0:0:
315,184,44570,1,8,0:0:0:0:
255,201,44733,1,0,0:0:0:0:
255,118,45057,1,0,0:0:0:0:
285,131,45219,1,8,0:0:0:0:
244,111,45381,1,0,0:0:0:0:
255,118,45706,1,8,0:0:0:0:
255,118,46030,1,0,0:0:0:0:
230,133,46192,1,8,0:0:0:0:
230,133,46354,1,8,0:0:0:0:
238,139,46679,1,8,0:0:0:0:
240,111,46733,1,8,0:0:0:0:
381,91,47003,1,8,0:0:0:0:
238,139,47057,1,8,0:0:0:0:
236,138,47246,1,8,0:0:0:0:
235,138,47327,1,0,0:0:0:0:
242,117,47489,1,8,0:0:0:0:
242,117,47652,1,0,0:0:0:0:
242,117,47814,1,8,0:0:0:0:
242,117,47976,1,0,0:0:0:0:
242,117,48138,1,8,0:0:0:0:
242,117,48300,1,8,0:0:0:0:
231,104,48381,1,8,0:0:0:0:
230,103,48462,1,8,0:0:0:0:
234,102,48624,1,0,0:0:0:0:
234,102,48787,1,8,0:0:0:0:
234,102,48949,1,0,0:0:0:0:
234,102,49111,1,8,0:0:0:0:
230,103,49273,1,0,0:0:0:0:
234,102,49435,1,8,0:0:0:0:
234,102,49597,1,8,0:0:0:0:
265,148,49679,1,8,0:0:0:0:
239,155,49760,1,8,0:0:0:0:
234,102,49922,1,8,0:0:0:0:
230,103,50003,1,8,0:0:0:0:
230,103,50084,1,0,0:0:0:0:
234,102,50165,1,0,0:0:0:0:
234,102,50246,1,8,0:0:0:0:
246,131,50408,1,0,0:0:0:0:
250,128,50570,1,8,0:0:0:0:
243,123,50652,1,8,0:0:0:0:
244,124,50733,1,8,0:0:0:0:
244,124,50814,1,8,0:0:0:0:
245,125,50895,1,0,0:0:0:0:
220,139,51057,1,8,0:0:0:0:
253,140,51138,1,0,0:0:0:0:
267,174,51543,1,0,0:0:0:0:
268,178,51706,1,0,0:0:0:0:
241,152,51868,1,8,0:0:0:0:
234,156,52516,1,12,0:0:0:0:
275,189,52679,1,0,0:0:0:0:
234,156,52760,1,0,0:0:0:0:
239,159,52841,1,8,0:0:0:0:
246,148,53003,1,0,0:0:0:0:
246,148,53165,1,8,0:0:0:0:
223,135,53489,1,0,0:0:0:0:
220,152,53652,1,8,0:0:0:0:
223,156,53733,1,8,0:0:0:0:
224,156,53814,1,0,0:0:0:0:
270,133,53976,1,8,0:0:0:0:
241,69,54138,1,0,0:0:0:0:
241,76,54462,1,8,0:0:0:0:
286,137,54706,1,0,0:0:0:0:
286,137,54787,1,8,0:0:0:0:
286,137,54949,1,0,0:0:0:0:
256,149,55111,1,12,0:0:0:0:
230,166,55273,1,0,0:0:0:0:
230,166,55354,1,0,0:0:0:0:
230,166,55435,1,8,0:0:0:0:
230,166,55597,1,0,0:0:0:0:
230,166,55760,1,8,0:0:0:0:
230,166,56084,1,8,0:0:0:0:
206,123,56246,1,8,0:0:0:0:
210,110,56327,1,8,0:0:0:0:
210,110,56408,1,0,0:0:0:0:
195,131,56570,1,8,0:0:0:0:
197,136,56733,1,0,0:0:0:0:
197,137,57057,1,8,0:0:0:0:
197,137,57300,1,0,0:0:0:0:
197,137,57381,1,8,0:0:0:0:
197,136,57543,1,0,0:0:0:0:
234,156,57706,1,12,0:0:0:0:
275,189,57868,1,0,0:0:0:0:
234,156,57949,1,0,0:0:0:0:
239,159,58030,1,8,0:0:0:0:
246,148,58192,1,0,0:0:0:0:
246,148,58354,1,8,0:0:0:0:
223,135,58679,1,0,0:0:0:0:
220,152,58841,1,8,0:0:0:0:
223,156,58922,1,8,0:0:0:0:
224,156,59003,1,0,0:0:0:0:
270,133,59165,1,8,0:0:0:0:
241,69,59327,1,0,0:0:0:0:
241,76,59652,1,8,0:0:0:0:
286,137,59895,1,0,0:0:0:0:
286,137,59976,1,8,0:0:0:0:
286,137,60138,1,0,0:0:0:0:
268,294,60300,1,4,0:0:0:0:
246,140,60462,1,0,0:0:0:0:
242,103,60543,1,0,0:0:0:0:
269,206,60624,1,8,0:0:0:0:
249,203,60787,1,0,0:0:0:0:
242,149,60949,1,8,0:0:0:0:
242,149,61030,1,8,0:0:0:0:
242,149,61111,1,0,0:0:0:0:
242,149,61192,1,0,0:0:0:0:
242,154,61273,1,8,0:0:0:0:
224,89,61597,1,8,0:0:0:0:
229,117,61679,1,8,0:0:0:0:
233,104,61760,1,0,0:0:0:0:
237,116,61841,1,0,0:0:0:0:
233,102,61922,1,8,0:0:0:0:
233,118,62084,1,0,0:0:0:0:
233,104,62246,1,8,0:0:0:0:
233,126,62327,1,8,0:0:0:0:
239,126,62408,1,0,0:0:0:0:
238,138,62489,1,0,0:0:0:0:
238,138,62570,1,0,0:0:0:0:
238,139,62733,1,0,0:0:0:0:
234,156,62895,1,12,0:0:0:0:
275,189,63057,1,0,0:0:0:0:
234,156,63138,1,0,0:0:0:0:
239,159,63219,1,8,0:0:0:0:
246,148,63381,1,0,0:0:0:0:
246,148,63543,1,8,0:0:0:0:
223,135,63868,1,0,0:0:0:0:
220,152,64030,1,8,0:0:0:0:
223,156,64111,1,8,0:0:0:0:
224,156,64192,1,0,0:0:0:0:
270,133,64354,1,8,0:0:0:0:
241,69,64516,1,0,0:0:0:0:
241,76,64841,1,8,0:0:0:0:
286,137,65084,1,0,0:0:0:0:
286,137,65165,1,8,0:0:0:0:
286,137,65327,1,0,0:0:0:0:
256,149,65489,1,12,0:0:0:0:
230,166,65652,1,0,0:0:0:0:
230,166,65733,1,0,0:0:0:0:
230,166,65814,1,8,0:0:0:0:
230,166,65976,1,0,0:0:0:0:
230,166,66138,1,8,0:0:0:0:
230,166,66462,1,8,0:0:0:0:
206,123,66624,1,8,0:0:0:0:
210,110,66706,1,8,0:0:0:0:
210,110,66787,1,0,0:0:0:0:
195,131,66949,1,8,0:0:0:0:
197,136,67111,1,0,0:0:0:0:
197,137,67435,1,8,0:0:0:0:
197,137,67679,1,0,0:0:0:0:
197,137,67760,1,8,0:0:0:0:
197,136,67922,1,0,0:0:0:0:
234,156,68084,1,12,0:0:0:0:
275,189,68246,1,0,0:0:0:0:
234,156,68327,1,0,0:0:0:0:
239,159,68408,1,8,0:0:0:0:
246,148,68570,1,0,0:0:0:0:
246,148,68733,1,8,0:0:0:0:
223,135,69057,1,0,0:0:0:0:
220,152,69219,1,8,0:0:0:0:
223,156,69300,1,8,0:0:0:0:
224,156,69381,1,0,0:0:0:0:
270,133,69543,1,8,0:0:0:0:
241,69,69706,1,0,0:0:0:0:
241,76,70030,1,8,0:0:0:0:
286,137,70192,1,0,0:0:0:0:
286,137,70273,1,0,0:0:0:0:
286,137,70354,1,8,0:0:0:0:
286,137,70516,1,0,0:0:0:0:
268,294,70679,1,4,0:0:0:0:
246,140,70841,1,0,0:0:0:0:
242,103,70922,1,0,0:0:0:0:
269,206,71003,1,8,0:0:0:0:
249,203,71165,1,0,0:0:0:0:
242,149,71327,1,8,0:0:0:0:
242,149,71408,1,8,0:0:0:0:
242,149,71489,1,0,0:0:0:0:
242,149,71570,1,0,0:0:0:0:
242,154,71652,1,8,0:0:0:0:
224,89,71976,1,8,0:0:0:0:
229,117,72057,1,8,0:0:0:0:
233,104,72138,1,0,0:0:0:0:
255,137,72219,1,0,0:0:0:0:
233,102,72300,1,8,0:0:0:0:
233,118,72462,1,0,0:0:0:0:
233,104,72624,1,8,0:0:0:0:
233,126,72706,1,8,0:0:0:0:
239,126,72787,1,0,0:0:0:0:
238,138,72949,1,8,0:0:0:0:
238,139,73111,1,8,0:0:0:0:
291,173,73273,1,4,0:0:0:0:
260,144,73760,1,0,0:0:0:0:
261,153,73922,1,8,0:0:0:0:
265,150,74246,1,0,0:0:0:0:
245,115,74570,1,0,0:0:0:0:
241,140,74733,1,8,0:0:0:0:
241,140,74895,1,0,0:0:0:0:
241,140,75219,1,8,0:0:0:0:
241,140,75543,1,0,0:0:0:0:
241,140,75706,1,0,0:0:0:0:
241,140,75868,1,12,0:0:0:0:
242,128,76030,1,0,0:0:0:0:
258,127,76354,1,0,0:0:0:0:
227,114,76516,1,8,0:0:0:0:
241,140,76841,1,0,0:0:0:0:
237,135,77165,1,0,0:0:0:0:
231,132,77327,1,8,0:0:0:0:
231,132,77489,1,0,0:0:0:0:
248,148,77814,1,8,0:0:0:0:
229,138,78138,1,8,0:0:0:0:
245,117,78300,1,8,0:0:0:0:
242,117,78462,1,4,0:0:0:0:
242,126,78949,1,0,0:0:0:0:
242,126,79111,1,8,0:0:0:0:
241,127,79435,1,0,0:0:0:0:
248,129,79760,1,0,0:0:0:0:
248,129,79922,1,8,0:0:0:0:
184,94,80084,1,0,0:0:0:0:
242,149,80408,1,8,0:0:0:0:
234,148,80733,1,8,0:0:0:0:
216,134,80895,1,8,0:0:0:0:
219,129,81057,1,4,0:0:0:0:
231,132,81381,1,0,0:0:0:0:
242,137,81543,1,0,0:0:0:0:
231,132,81706,1,8,0:0:0:0:
232,151,81787,1,8,0:0:0:0:
229,132,81868,1,0,0:0:0:0:
247,130,81949,1,0,0:0:0:0:
229,132,82030,1,8,0:0:0:0:
251,110,82354,1,0,0:0:0:0:
251,110,82435,1,0,0:0:0:0:
251,110,82516,1,8,0:0:0:0:
236,148,82597,1,8,0:0:0:0:
245,133,82679,1,0,0:0:0:0:
147,99,83003,1,8,0:0:0:0:
247,121,83652,1,4,0:0:0:0:
