osu file format v14

[General]
AudioFilename: audio.mp3
AudioLeadIn: 0
PreviewTime: 73030
Countdown: 0
SampleSet: Normal
StackLeniency: 0.7
Mode: 1
LetterboxInBreaks: 0
WidescreenStoryboard: 1

[Editor]
Bookmarks: 5702,8408,10891,16080,21269,26458,31648,36837,42026,47215,52404,57594,62783,67972,73161,78350,83540
DistanceSpacing: 0.2
BeatDivisor: 4
GridSize: 4
TimelineZoom: 3.900004

[Metadata]
Title:Enough
TitleUnicode:Enough
Artist:Goblins from Mars
ArtistUnicode:Goblins from Mars
Creator:Scarlet Remilia
Version:Kantan
Source:
Tags:trap gfm gfmarmy electronic instrumental
BeatmapID:2537916
BeatmapSetID:1219963

[Difficulty]
HPDrainRate:8
CircleSize:5
OverallDifficulty:3.5
ApproachRate:5
SliderMultiplier:1.4
SliderTickRate:1

[Events]
//Background and Video events
0,0,"eae.jpg",0,-130
//Break Periods
2,31960,35749
//Storyboard Layer 0 (Background)
//Storyboard Layer 1 (Fail)
//Storyboard Layer 2 (Pass)
//Storyboard Layer 3 (Foreground)
//Storyboard Layer 4 (Overlay)
//Storyboard Sound Samples

[TimingPoints]
625,324.324324324324,4,1,0,60,1,0
625,-125,4,1,0,60,0,0
10922,-125,4,1,0,70,0,0
18706,-125,4,1,0,39,0,0
19354,-125,4,1,0,53,0,0
20003,-125,4,1,0,70,0,0
21381,-111.111111111111,4,1,0,80,0,1
31760,-125,4,1,0,80,0,0
36868,-125,4,1,0,44,0,0
39462,-125,4,1,0,50,0,0
42057,-125,4,1,0,70,0,0
49922,-125,4,1,0,12,0,0
50003,-125,4,1,0,17,0,0
50084,-125,4,1,0,22,0,0
50165,-125,4,1,0,27,0,0
50246,-125,4,1,0,32,0,0
50327,-125,4,1,0,37,0,0
50408,-125,4,1,0,42,0,0
50489,-125,4,1,0,47,0,0
50570,-125,4,1,0,52,0,0
50652,-125,4,1,0,57,0,0
50733,-125,4,1,0,62,0,0
50814,-125,4,1,0,67,0,0
50895,-125,4,1,0,70,0,0
52516,-111.111111111111,4,1,0,80,0,1
73273,-111.111111111111,4,1,0,80,0,0
73354,-111.111111111111,4,1,0,70,0,0
75787,-116.279069767442,4,1,0,60,0,0
78381,-119.047619047619,4,1,0,50,0,0
80976,-121.951219512195,4,1,0,40,0,0

[HitObjects]
262,255,625,5,0,0:0:0:0:
265,266,1597,1,0,0:0:0:0:
265,266,2246,1,8,0:0:0:0:
265,266,2895,1,8,0:0:0:0:
265,266,3219,1,0,0:0:0:0:
275,180,4192,1,0,0:0:0:0:
252,250,4841,1,8,0:0:0:0:
252,250,5489,1,8,0:0:0:0:
262,255,5814,5,0,0:0:0:0:
262,280,6462,1,8,0:0:0:0:
271,206,7435,1,0,0:0:0:0:
286,176,7760,1,8,0:0:0:0:
257,182,8408,1,0,0:0:0:0:
292,112,9057,1,8,0:0:0:0:
252,250,10030,1,0,0:0:0:0:
256,106,10354,1,8,0:0:0:0:
263,199,11003,5,8,0:0:0:0:
278,229,11976,1,8,0:0:0:0:
219,73,12624,1,8,0:0:0:0:
282,179,12949,1,8,0:0:0:0:
278,151,13597,1,8,0:0:0:0:
273,138,14570,1,8,0:0:0:0:
258,133,15219,1,8,0:0:0:0:
262,174,15543,1,8,0:0:0:0:
259,208,15868,1,0,0:0:0:0:
301,222,16192,1,8,0:0:0:0:
263,197,17165,1,8,0:0:0:0:
245,79,17489,1,0,0:0:0:0:
253,195,17814,1,8,0:0:0:0:
245,140,18138,1,8,0:0:0:0:
253,195,18787,1,8,0:0:0:0:
254,185,19435,1,0,0:0:0:0:
224,163,20084,1,8,0:0:0:0:
216,122,20408,1,8,0:0:0:0:
309,64,20733,1,0,0:0:0:0:
227,254,21381,1,4,0:0:0:0:
234,115,22354,1,0,0:0:0:0:
268,188,22841,1,8,0:0:0:0:
247,122,23327,1,8,0:0:0:0:
233,135,23976,1,4,0:0:0:0:
247,122,24624,1,8,0:0:0:0:
258,146,24949,1,0,0:0:0:0:
237,104,25435,1,8,0:0:0:0:
236,178,25922,1,8,0:0:0:0:
227,254,26570,1,4,0:0:0:0:
234,115,27543,1,0,0:0:0:0:
251,175,28030,1,8,0:0:0:0:
247,122,28516,1,8,0:0:0:0:
241,133,29165,1,4,0:0:0:0:
247,122,29814,1,8,0:0:0:0:
258,146,30138,1,0,0:0:0:0:
236,178,30462,1,8,0:0:0:0:
236,178,30787,1,0,0:0:0:0:
325,92,31111,1,8,0:0:0:0:
217,89,31760,1,0,0:0:0:0:
245,249,36949,5,4,0:0:0:0:
298,164,39543,1,0,0:0:0:0:
267,197,42138,1,8,0:0:0:0:
271,209,42787,1,8,0:0:0:0:
255,201,43111,1,8,0:0:0:0:
255,201,43760,1,8,0:0:0:0:
315,184,44084,1,8,0:0:0:0:
255,201,44733,1,0,0:0:0:0:
285,131,45381,1,8,0:0:0:0:
255,118,45706,1,8,0:0:0:0:
238,139,46679,1,8,0:0:0:0:
238,139,47003,1,8,0:0:0:0:
235,138,47327,1,0,0:0:0:0:
242,117,47976,1,0,0:0:0:0:
234,102,48624,1,0,0:0:0:0:
234,102,48949,1,0,0:0:0:0:
230,103,49273,1,8,0:0:0:0:
234,102,49597,1,8,0:0:0:0:
275,108,49922,2,0,L|257:136,15,28
241,152,51868,1,8,0:0:0:0:
227,254,52516,1,12,0:0:0:0:
234,115,53489,1,0,0:0:0:0:
251,175,53976,1,8,0:0:0:0:
247,122,54462,1,8,0:0:0:0:
286,137,54787,1,0,0:0:0:0:
241,133,55111,1,12,0:0:0:0:
217,71,55760,1,8,0:0:0:0:
258,146,56084,1,0,0:0:0:0:
208,43,56570,1,8,0:0:0:0:
236,178,57057,1,8,0:0:0:0:
234,156,57706,1,12,0:0:0:0:
246,188,58679,1,0,0:0:0:0:
270,133,59165,1,8,0:0:0:0:
247,122,59652,1,8,0:0:0:0:
218,126,59976,1,8,0:0:0:0:
241,133,60300,1,4,0:0:0:0:
249,203,60949,1,8,0:0:0:0:
258,146,61273,1,0,0:0:0:0:
236,178,61597,1,8,0:0:0:0:
233,102,61922,1,0,0:0:0:0:
304,211,62246,1,0,0:0:0:0:
227,254,62895,1,12,0:0:0:0:
234,115,63868,1,0,0:0:0:0:
251,175,64354,1,8,0:0:0:0:
247,122,64841,1,8,0:0:0:0:
286,137,65165,1,0,0:0:0:0:
241,133,65489,1,12,0:0:0:0:
217,71,66138,1,8,0:0:0:0:
258,146,66462,1,0,0:0:0:0:
208,43,66949,5,8,0:0:0:0:
236,178,67435,1,8,0:0:0:0:
234,156,68084,5,12,0:0:0:0:
223,135,69057,1,0,0:0:0:0:
241,69,69543,1,8,0:0:0:0:
241,76,70030,1,8,0:0:0:0:
286,137,70354,1,8,0:0:0:0:
268,294,70679,1,4,0:0:0:0:
241,39,71327,1,8,0:0:0:0:
252,134,71652,1,0,0:0:0:0:
224,89,71976,1,8,0:0:0:0:
233,102,72300,1,0,0:0:0:0:
233,104,72624,1,8,0:0:0:0:
291,173,73273,1,4,0:0:0:0:
265,150,74246,1,0,0:0:0:0:
241,140,74733,1,8,0:0:0:0:
241,140,75219,1,8,0:0:0:0:
241,140,75868,1,12,0:0:0:0:
227,114,76516,1,8,0:0:0:0:
241,140,76841,1,0,0:0:0:0:
231,132,77327,1,8,0:0:0:0:
248,148,77814,1,8,0:0:0:0:
242,117,78462,1,4,0:0:0:0:
241,127,79435,1,0,0:0:0:0:
248,129,79922,1,8,0:0:0:0:
242,149,80408,1,8,0:0:0:0:
234,148,80733,1,0,0:0:0:0:
219,129,81057,1,4,0:0:0:0:
231,132,81706,1,8,0:0:0:0:
229,132,82030,1,0,0:0:0:0:
247,122,83003,1,8,0:0:0:0:
247,121,83652,1,4,0:0:0:0:
