osu file format v14

[General]
AudioFilename: audio.mp3
AudioLeadIn: 0
PreviewTime: 21269
Countdown: 0
SampleSet: Normal
StackLeniency: 0.3
Mode: 0
LetterboxInBreaks: 0
WidescreenStoryboard: 1

[Editor]
DistanceSpacing: 1.1
BeatDivisor: 2
GridSize: 4
TimelineZoom: 1.7

[Metadata]
Title:Enough
TitleUnicode:Enough
Artist:Goblins from Mars
ArtistUnicode:Goblins from Mars
Creator:FN TPS
Version:Normal
Source:
Tags:
BeatmapID:1773451
BeatmapSetID:841909

[Difficulty]
HPDrainRate:3.5
CircleSize:3.5
OverallDifficulty:5
ApproachRate:8
SliderMultiplier:1.33
SliderTickRate:1

[Events]
//Background and Video events
//Break Periods
2,31848,36087
2,37037,38681
//Storyboard Layer 0 (Background)
//Storyboard Layer 1 (Fail)
//Storyboard Layer 2 (Pass)
//Storyboard Layer 3 (Foreground)
//Storyboard Sound Samples

[TimingPoints]
513,324.324324324324,4,1,0,100,1,0

[Colours]
Combo1 : 74,134,255
Combo2 : 158,138,229
Combo3 : 253,255,255
Combo4 : 106,234,124

[HitObjects]
256,192,513,12,0,1810,0:0:0:0:
256,192,3107,12,0,5053,0:0:0:0:
256,192,5702,12,0,8296,0:0:0:0:
279,342,10891,6,0,L|479:324,1,199.5
485,250,11540,2,0,L|333:262,1,133
239,168,12188,2,0,L|223:28,1,133
78,53,12837,2,0,L|93:185,1,133
117,329,13485,6,0,P|192:321|307:364,1,199.5
359,312,14134,2,0,P|302:275|215:249,1,133
163,129,14783,2,0,P|200:81|289:70,2,133
439,32,16080,6,0,B|466:99|466:99|479:225,1,199.5
409,249,16729,2,0,L|394:105,1,133
250,98,17377,2,0,L|236:230,1,133
91,254,18026,2,0,L|104:121,1,133
250,98,18675,6,0,B|373:109|373:109|403:87|403:87|388:38,1,199.5
321,30,19323,2,0,L|185:18,1,133
42,5,19972,1,0,0:0:0:0:
42,5,20134,1,0,0:0:0:0:
42,5,20296,2,0,L|37:144,1,133
219,367,21269,5,0,0:0:0:0:
145,365,21431,2,0,P|190:299|283:330,1,133
309,311,21918,2,0,B|350:303|350:303|430:214,2,133
189,225,22891,2,0,P|150:168|144:95,1,133
246,2,23540,1,0,0:0:0:0:
372,75,23864,6,0,P|395:105|399:155,1,66.5
474,129,24188,2,0,P|465:165|430:201,1,66.5
377,202,24512,2,0,P|301:185|236:193,1,133
189,236,24999,1,0,0:0:0:0:
148,296,25161,2,0,L|156:365,2,66.5
48,188,25810,2,0,B|36:90|36:90|14:42,1,133
166,36,26458,5,0,0:0:0:0:
223,81,26621,2,0,P|300:79|332:25,1,133
401,26,27107,2,0,B|491:54|491:54|511:101,2,133
328,153,28080,2,0,P|319:217|354:292,1,133
461,366,28729,1,0,0:0:0:0:
343,279,29053,5,0,0:0:0:0:
278,313,29215,2,0,L|139:307,1,133
131,234,29702,2,0,L|263:239,1,133
286,95,30350,1,0,0:0:0:0:
286,95,30512,1,0,0:0:0:0:
286,95,30675,2,0,L|153:89,2,133
432,104,31648,5,0,0:0:0:0:
256,192,36837,5,0,0:0:0:0:
292,101,39431,5,0,0:0:0:0:
354,233,39756,5,0,0:0:0:0:
354,233,39918,1,0,0:0:0:0:
354,233,40080,1,0,0:0:0:0:
221,295,40404,5,0,0:0:0:0:
159,162,40729,5,0,0:0:0:0:
159,162,40891,1,0,0:0:0:0:
159,162,41053,1,0,0:0:0:0:
292,101,41377,5,0,0:0:0:0:
61,281,42026,6,0,P|134:310|208:303,1,133
255,283,42512,1,0,0:0:0:0:
323,308,42675,2,0,P|389:307|449:280,1,133
480,214,43161,1,0,0:0:0:0:
480,214,43323,1,0,0:0:0:0:
411,84,43648,2,0,P|336:89|329:91,1,66.5
280,120,43972,1,0,0:0:0:0:
138,157,44296,2,0,L|122:76,1,66.5
111,19,44621,1,0,0:0:0:0:
22,135,44945,5,0,0:0:0:0:
22,135,45107,1,0,0:0:0:0:
18,207,45269,2,0,P|28:304|44:353,1,133
98,379,45756,1,0,0:0:0:0:
98,379,45918,1,0,0:0:0:0:
224,306,46242,1,0,0:0:0:0:
224,306,46404,1,0,0:0:0:0:
297,310,46567,2,0,L|455:320,1,133
502,327,47053,1,0,0:0:0:0:
502,327,47215,6,0,L|508:181,3,133
511,120,48350,1,0,0:0:0:0:
444,90,48512,2,0,L|303:42,3,133
247,24,49648,1,0,0:0:0:0:
256,192,49810,12,0,51026,0:0:0:0:
407,12,52404,6,0,P|444:48|447:129,1,133
407,186,52891,1,0,0:0:0:0:
335,169,53053,2,0,P|292:120|293:55,1,133
224,28,53540,1,0,0:0:0:0:
149,28,53702,6,0,L|74:45,1,66.5
60,111,54026,2,0,L|211:136,1,133
238,271,54675,2,0,P|250:319|251:348,1,66.5
319,361,54999,6,0,L|390:370,1,66.5
410,300,55323,2,0,L|477:269,1,66.5
474,198,55648,2,0,L|510:55,1,133
365,30,56296,5,0,0:0:0:0:
365,30,56458,1,0,0:0:0:0:
299,62,56621,2,0,P|239:75|150:33,1,133
42,118,57269,2,0,L|34:191,1,66.5
28,257,57594,6,0,P|66:317|128:339,1,133
186,304,58080,1,0,0:0:0:0:
258,295,58242,2,0,P|300:245|306:180,1,133
291,108,58729,1,0,0:0:0:0:
330,46,58891,2,0,P|378:37|406:35,1,66.5
435,96,59215,2,0,P|493:133|510:204,1,133
504,338,59864,2,0,L|430:343,1,66.5
364,346,60188,6,0,P|361:301|354:265,1,66.5
284,288,60512,2,0,P|289:320|291:353,1,66.5
218,357,60837,2,0,L|71:366,1,133
32,229,61485,2,0,L|164:220,1,133
199,78,62134,2,0,L|69:86,2,99.75
272,74,62783,5,0,0:0:0:0:
411,118,63107,1,0,0:0:0:0:
411,118,63269,1,0,0:0:0:0:
411,118,63431,2,0,P|435:182|433:255,1,133
399,310,63918,1,0,0:0:0:0:
326,321,64080,6,0,L|258:323,1,66.5
189,302,64404,2,0,L|35:305,1,133
28,160,65053,2,0,P|26:108|29:89,1,66.5
78,41,65377,5,0,0:0:0:0:
78,41,65540,1,0,0:0:0:0:
150,46,65702,1,0,0:0:0:0:
150,46,65864,1,0,0:0:0:0:
218,70,66026,2,0,P|298:73|367:61,1,133
418,39,66512,1,0,0:0:0:0:
490,24,66675,2,0,P|498:64|500:98,1,66.5
497,162,66999,2,0,P|492:221|502:313,2,133
434,123,67810,1,0,0:0:0:0:
378,171,67972,5,0,0:0:0:0:
312,301,68296,1,0,0:0:0:0:
239,307,68458,1,0,0:0:0:0:
165,313,68621,2,0,P|91:286|74:219,1,133
68,166,69107,1,0,0:0:0:0:
82,94,69269,6,0,P|113:76|146:68,1,66.5
206,104,69594,2,0,P|271:103|338:155,1,133
422,28,70242,2,0,P|462:11|489:11,1,66.5
510,79,70567,5,0,0:0:0:0:
510,79,70729,1,0,0:0:0:0:
507,152,70891,1,0,0:0:0:0:
507,152,71053,1,0,0:0:0:0:
501,224,71215,2,0,L|496:374,1,133
350,351,71864,2,0,L|354:218,1,133
211,248,72512,2,0,L|294:252,2,66.5
137,246,72999,1,0,0:0:0:0:
63,244,73161,5,0,0:0:0:0:
111,106,73485,1,0,0:0:0:0:
111,106,73648,1,0,0:0:0:0:
111,106,73810,1,0,0:0:0:0:
250,61,74134,1,0,0:0:0:0:
395,76,74458,1,0,0:0:0:0:
395,76,74621,1,0,0:0:0:0:
395,76,74783,1,0,0:0:0:0:
486,190,75107,2,0,L|500:326,1,133
445,371,75594,1,0,0:0:0:0:
445,371,75756,6,0,L|369:365,1,66.5
305,360,76080,2,0,L|229:354,1,66.5
165,350,76404,5,0,0:0:0:0:
95,221,76729,1,0,0:0:0:0:
142,82,77053,1,0,0:0:0:0:
142,82,77215,1,0,0:0:0:0:
142,82,77377,1,0,0:0:0:0:
277,27,77702,1,0,0:0:0:0:
420,54,78026,1,0,0:0:0:0:
420,54,78188,1,0,0:0:0:0:
420,54,78350,5,0,0:0:0:0:
499,177,78675,2,0,P|502:217|498:262,1,66.5
485,314,78999,1,0,0:0:0:0:
350,371,79323,1,0,0:0:0:0:
204,352,79648,1,0,0:0:0:0:
204,352,79810,1,0,0:0:0:0:
204,352,79972,1,0,0:0:0:0:
117,233,80296,1,0,0:0:0:0:
142,88,80621,1,0,0:0:0:0:
142,88,80783,1,0,0:0:0:0:
142,88,80945,6,0,P|211:56|271:61,1,133
330,94,81431,1,0,0:0:0:0:
401,78,81594,2,0,L|493:61,2,66.5
318,198,82242,2,0,L|226:181,2,66.5
418,304,82891,1,0,0:0:0:0:
129,354,83540,6,0,L|194:366,1,66.5
