osu file format v14

[General]
AudioFilename: audio.mp3
AudioLeadIn: 0
PreviewTime: 21269
Countdown: 0
SampleSet: Normal
StackLeniency: 0.3
Mode: 0
LetterboxInBreaks: 0
WidescreenStoryboard: 0

[Editor]
DistanceSpacing: 0.8
BeatDivisor: 4
GridSize: 4
TimelineZoom: 1.7

[Metadata]
Title:Enough
TitleUnicode:Enough
Artist:Goblins from Mars
ArtistUnicode:Goblins from Mars
Creator:FN TPS
Version:Hard
Source:
Tags:
BeatmapID:1771307
BeatmapSetID:841909

[Difficulty]
HPDrainRate:5
CircleSize:4
OverallDifficulty:6
ApproachRate:8
SliderMultiplier:1.66
SliderTickRate:1

[Events]
//Background and Video events
//Break Periods
2,31848,36087
2,37037,38681
//Storyboard Layer 0 (Background)
//Storyboard Layer 1 (Fail)
//Storyboard Layer 2 (Pass)
//Storyboard Layer 3 (Foreground)
//Storyboard Sound Samples

[TimingPoints]
513,324.324324324324,4,1,0,100,1,0
513,-133.333333333333,4,1,0,100,0,0
10891,-200,4,1,0,100,0,0
21269,-66.6666666666667,4,1,0,100,0,0
21918,-100,4,1,0,100,0,0
25810,-133.333333333333,4,1,0,100,0,0
26458,-66.6666666666667,4,1,0,100,0,0
27107,-133.333333333333,4,1,0,100,0,0
47215,-166.666666666667,4,1,0,100,0,0
50458,-100,4,1,0,100,0,0
50783,-66.6666666666667,4,1,0,100,0,0
52404,-83.3333333333333,4,1,0,100,0,0
73161,-133.333333333333,4,1,0,100,0,0
78350,-158.730158730159,4,1,0,100,0,0
80945,-250,4,1,0,100,0,0

[Colours]
Combo1 : 74,134,255
Combo2 : 158,138,229
Combo3 : 253,255,255
Combo4 : 106,234,124

[HitObjects]
206,308,513,6,0,P|276:303|291:237,1,124.500004749298
295,259,999,2,0,P|310:320|321:334,1,62.2500023746491
481,311,1485,1,0,0:0:0:0:
471,320,1810,1,0,0:0:0:0:
413,262,2134,1,0,0:0:0:0:
403,271,2458,1,0,0:0:0:0:
393,280,2783,1,0,0:0:0:0:
471,192,3107,6,0,P|457:139|411:69,1,124.500004749298
420,79,3594,2,0,L|488:57,1,62.2500023746491
326,22,4080,1,0,0:0:0:0:
332,32,4404,1,0,0:0:0:0:
257,62,4729,1,0,0:0:0:0:
251,71,5053,1,0,0:0:0:0:
245,80,5377,1,0,0:0:0:0:
124,19,5702,6,0,P|88:11|54:14,1,62.2500023746491
148,88,6026,2,0,P|184:96|218:93,1,62.2500023746491
125,158,6350,1,0,0:0:0:0:
128,168,6675,1,0,0:0:0:0:
131,178,6999,1,0,0:0:0:0:
112,247,7323,2,0,P|75:244|42:253,1,62.2500023746491
146,311,7647,2,0,P|182:313|215:304,1,62.2500023746491
122,380,7972,2,0,P|85:382|52:373,1,62.2500023746491
207,308,8296,6,0,L|344:327,1,124.500004749298
330,325,8783,2,0,P|355:292|356:262,1,62.2500023746491
425,135,9269,2,0,P|427:188|478:242,1,124.500004749298
509,57,9918,2,0,P|453:81|425:135,1,124.500004749298
40,296,10891,6,0,B|64:284|82:256|110:245,1,83
133,317,11377,1,0,0:0:0:0:
193,363,11540,2,0,P|207:322|198:279,1,83
326,318,12188,2,0,P|362:338|390:377,3,83
501,349,13485,5,0,0:0:0:0:
470,212,13810,2,0,P|471:180|476:160,1,41.5
426,112,14134,2,0,B|413:129|406:142|406:142|358:134,2,83
288,121,15107,1,0,0:0:0:0:
198,21,15431,2,0,L|192:66,1,41.5
126,0,15756,2,0,L|120:45,1,41.5
54,71,16080,6,0,L|63:160,1,83
70,227,16567,1,0,0:0:0:0:
139,258,16729,2,0,P|114:290|69:303,1,83
206,140,17377,2,0,L|266:84,3,83
349,210,18675,6,0,P|369:231|376:256,1,41.5
445,264,18999,2,0,P|433:290|413:306,1,41.5
439,155,19323,2,0,L|448:101,1,41.5
362,86,19648,2,0,L|353:32,1,41.5
263,41,19972,2,0,L|230:50,7,20.75
283,35,20621,1,0,0:0:0:0:
48,23,21269,6,0,L|60:149,1,124.500004749298
200,264,21756,1,0,0:0:0:0:
271,289,21918,2,0,P|277:226|188:192,2,166
48,317,22891,1,0,0:0:0:0:
117,290,23053,1,0,0:0:0:0:
189,306,23215,1,0,0:0:0:0:
244,355,23377,1,0,0:0:0:0:
315,376,23540,1,0,0:0:0:0:
387,357,23702,1,0,0:0:0:0:
442,306,23864,6,0,L|459:225,1,83
395,145,24188,2,0,L|378:226,1,83
307,271,24512,2,0,L|287:94,2,166
377,226,25323,1,0,0:0:0:0:
442,306,25485,1,0,0:0:0:0:
170,370,25810,2,0,P|130:331|225:277,1,186.750007123947
237,334,26458,6,0,L|256:200,1,124.500004749298
377,41,26945,1,0,0:0:0:0:
416,112,27107,2,0,B|478:124|478:124|486:190,2,124.500004749298
222,22,28080,1,0,0:0:0:0:
175,80,28242,1,0,0:0:0:0:
189,153,28404,1,0,0:0:0:0:
249,197,28567,1,0,0:0:0:0:
272,267,28729,1,0,0:0:0:0:
260,340,28891,1,0,0:0:0:0:
197,381,29053,5,0,0:0:0:0:
165,369,29215,1,0,0:0:0:0:
133,357,29377,1,0,0:0:0:0:
101,345,29540,1,0,0:0:0:0:
69,333,29702,2,0,P|34:283|41:216,2,124.500004749298
109,261,30512,1,0,0:0:0:0:
176,217,30675,2,0,P|188:257|186:291,1,62.2500023746491
107,152,30999,2,0,L|104:114,7,31.1250011873246
109,183,31648,5,0,0:0:0:0:
256,192,36837,5,0,0:0:0:0:
216,150,39431,5,0,0:0:0:0:
296,234,39756,5,0,0:0:0:0:
300,236,39918,1,0,0:0:0:0:
298,235,40080,1,0,0:0:0:0:
296,150,40404,5,0,0:0:0:0:
216,234,40729,5,0,0:0:0:0:
220,236,40891,1,0,0:0:0:0:
218,235,41053,1,0,0:0:0:0:
216,150,41377,5,0,0:0:0:0:
296,20,42026,6,0,P|338:35|353:192,1,217.875008311272
360,186,42675,2,0,L|140:199,1,217.875008311272
142,199,43323,2,0,P|60:263|79:365,1,217.875008311272
78,364,43972,2,0,L|295:350,1,217.875008311272
296,349,44621,6,0,P|348:265|267:207,1,217.875008311272
267,206,45269,2,0,P|186:147|240:64,1,217.875008311272
238,64,45918,2,0,P|318:121|266:205,1,217.875008311272
265,205,46567,2,0,P|211:288|291:346,1,217.875008311272
320,348,47215,6,0,L|383:342,1,49.7999984802247
416,269,47540,2,0,L|462:234,1,49.7999984802247
420,144,47864,2,0,L|424:82,1,49.7999984802247
353,38,48188,2,0,L|335:12,2,24.8999992401123
230,18,48512,2,0,L|175:9,1,49.7999984802247
115,67,48837,2,0,L|64:92,1,49.7999984802247
86,187,49161,2,0,L|69:252,1,49.7999984802247
127,304,49485,2,0,L|136:334,2,24.8999992401123
239,351,49810,6,0,L|268:359,3,24.8999992401123
281,286,50134,2,0,L|314:293,3,24.8999992401123
323,221,50458,2,0,L|374:231,3,41.5
365,156,50783,2,0,L|441:170,3,62.2500023746491
512,0,51756,1,0,0:0:0:0:
512,0,52404,5,0,0:0:0:0:
378,141,52729,2,0,P|372:198|407:236,1,99.5999969604493
449,129,53053,2,0,P|415:79|307:144,1,199.199993920899
303,223,53540,1,0,0:0:0:0:
303,223,53621,1,0,0:0:0:0:
303,223,53702,6,0,L|328:324,1,99.5999969604493
206,177,54026,2,0,L|255:380,1,199.199993920899
109,131,54675,2,0,L|134:232,1,99.5999969604493
25,141,54999,5,0,0:0:0:0:
55,73,55161,1,0,0:0:0:0:
130,55,55323,1,0,0:0:0:0:
188,104,55485,1,0,0:0:0:0:
206,177,55648,2,0,L|255:380,1,199.199993920899
353,379,56134,1,0,0:0:0:0:
353,379,56215,1,0,0:0:0:0:
353,379,56296,6,0,P|407:365|444:325,1,99.5999969604493
368,302,56621,2,0,P|398:210|359:121,2,199.199993920899
274,371,57431,1,0,0:0:0:0:
169,353,57594,5,0,0:0:0:0:
69,181,57918,2,0,L|176:155,1,99.5999969604493
193,55,58242,2,0,L|-21:105,1,199.199993920899
24,0,58729,1,0,0:0:0:0:
24,0,58810,1,0,0:0:0:0:
24,0,58891,6,0,L|141:-27,1,99.5999969604493
193,55,59215,2,0,P|252:84|258:209,1,199.199993920899
69,181,59864,2,0,L|176:155,1,99.5999969604493
30,274,60188,1,0,0:0:0:0:
254,301,60512,5,0,0:0:0:0:
302,312,60674,1,0,0:0:0:0:
350,323,60837,2,0,L|366:378,1,49.7999984802247
398,334,60999,2,0,L|431:290,1,49.7999984802247
446,345,61161,1,0,0:0:0:0:
449,175,61485,6,0,L|433:230,1,49.7999984802247
401,186,61648,2,0,L|368:142,1,49.7999984802247
353,197,61810,1,0,0:0:0:0:
305,208,61972,1,0,0:0:0:0:
257,219,62134,2,0,L|194:235,7,49.7999984802247
159,243,62783,5,0,0:0:0:0:
70,50,63107,1,0,0:0:0:0:
70,50,63269,1,0,0:0:0:0:
37,117,63431,2,0,P|103:118|130:6,1,199.199993920899
231,44,63918,1,0,0:0:0:0:
231,44,63999,1,0,0:0:0:0:
231,44,64080,6,0,L|339:56,1,99.5999969604493
330,149,64404,2,0,P|264:153|231:43,2,199.199993920899
329,54,65215,1,0,0:0:0:0:
423,62,65377,5,0,0:0:0:0:
459,133,65540,1,0,0:0:0:0:
453,212,65702,1,0,0:0:0:0:
446,291,65864,1,0,0:0:0:0:
468,367,66026,2,0,P|427:308|344:376,1,199.199993920899
256,334,66512,1,0,0:0:0:0:
256,334,66594,1,0,0:0:0:0:
256,334,66675,6,0,L|241:231,1,99.5999969604493
262,78,66999,2,0,B|219:104|219:104|252:140|252:140|260:195|260:195|240:234,2,199.199993920899
178,178,67810,1,0,0:0:0:0:
106,77,67972,5,0,0:0:0:0:
31,254,68296,1,0,0:0:0:0:
31,254,68458,1,0,0:0:0:0:
94,304,68621,2,0,B|151:337|229:258|296:308,1,199.199993920899
355,369,69107,1,0,0:0:0:0:
355,369,69188,1,0,0:0:0:0:
355,369,69269,6,0,L|462:360,1,99.5999969604493
461,260,69594,2,0,P|496:220|437:93,2,199.199993920899
355,239,70404,1,0,0:0:0:0:
346,135,70567,1,0,0:0:0:0:
182,16,70891,5,0,0:0:0:0:
176,64,71053,1,0,0:0:0:0:
170,113,71215,2,0,L|116:134,1,49.7999984802247
164,162,71377,2,0,L|211:190,1,49.7999984802247
158,211,71540,1,0,0:0:0:0:
68,341,71864,6,0,L|12:325,1,49.7999984802247
56,293,72026,2,0,L|99:259,1,49.7999984802247
44,245,72188,1,0,0:0:0:0:
32,197,72350,1,0,0:0:0:0:
20,149,72512,2,0,P|117:194|158:-2,1,348.599989361573
162,20,73161,6,0,P|217:37|295:15,1,124.500004749298
281,23,73648,2,0,P|329:18|355:22,1,62.2500023746491
485,44,74134,1,0,0:0:0:0:
342,19,74458,6,0,P|311:24|280:22,1,62.2500023746491
162,20,74783,2,0,P|222:6|281:23,1,124.500004749298
485,44,75431,2,0,P|453:42|423:47,1,62.2500023746491
359,103,75756,6,0,P|346:154|359:244,1,124.500004749298
352,224,76242,2,0,P|382:230|409:247,1,62.2500023746491
205,270,76729,1,0,0:0:0:0:
409,247,77053,2,0,P|378:240|352:224,1,62.2500023746491
359,103,77377,6,0,P|366:164|352:224,1,124.500004749298
205,270,78026,1,0,0:0:0:0:
89,179,78350,6,0,L|77:70,1,104.579996808472
77,75,78837,2,0,L|80:10,1,52.2899984042359
239,81,79323,1,0,0:0:0:0:
89,179,79648,6,0,L|82:113,1,52.2899984042359
79,22,79972,2,0,B|78:76|78:76|84:128,1,104.579996808472
239,81,80621,2,0,L|234:147,1,52.2899984042359
229,206,80945,6,0,L|236:280,1,66.4
247,350,81431,1,0,0:0:0:0:
247,350,81594,2,0,L|324:359,1,66.4
476,304,82242,6,0,L|405:338,1,66.4
351,282,82891,2,0,L|319:139,1,132.8
351,282,83702,5,0,0:0:0:0:
