osu file format v14

[General]
AudioFilename: audio.mp3
AudioLeadIn: 0
PreviewTime: 21269
Countdown: 0
SampleSet: Normal
StackLeniency: 0.3
Mode: 0
LetterboxInBreaks: 0
WidescreenStoryboard: 0

[Editor]
DistanceSpacing: 0.9
BeatDivisor: 2
GridSize: 4
TimelineZoom: 1.7

[Metadata]
Title:Enough
TitleUnicode:Enough
Artist:Goblins from Mars
ArtistUnicode:Goblins from Mars
Creator:FN TPS
Version:Easy
Source:
Tags:
BeatmapID:1774184
BeatmapSetID:841909

[Difficulty]
HPDrainRate:2.5
CircleSize:3
OverallDifficulty:3.5
ApproachRate:5
SliderMultiplier:0.99
SliderTickRate:1

[Events]
//Background and Video events
//Break Periods
2,31847,35637
2,37037,38231
//Storyboard Layer 0 (Background)
//Storyboard Layer 1 (Fail)
//Storyboard Layer 2 (Pass)
//Storyboard Layer 3 (Foreground)
//Storyboard Sound Samples

[TimingPoints]
513,324.324324324324,4,1,0,100,1,0

[Colours]
Combo1 : 74,134,255
Combo2 : 158,138,229
Combo3 : 253,255,255
Combo4 : 106,234,124

[HitObjects]
256,192,513,5,0,0:0:0:0:
256,192,3107,5,0,0:0:0:0:
440,24,5053,2,0,L|452:125,1,99
462,210,5702,5,0,0:0:0:0:
370,362,6350,1,0,0:0:0:0:
115,280,7323,2,0,P|181:318|191:348,2,99
26,288,8296,5,0,0:0:0:0:
12,110,8945,1,0,0:0:0:0:
177,42,9594,2,0,P|250:54|300:40,1,99
359,24,10242,1,0,0:0:0:0:
478,156,10891,6,0,P|496:232|461:349,1,198
286,367,12188,2,0,P|218:362|183:349,3,99
139,277,13485,6,0,B|120:135|120:135|42:123,1,198
207,18,14783,2,0,P|272:21|311:48,2,99
272,183,16080,6,0,P|335:179|372:61,2,198
196,135,17702,1,0,0:0:0:0:
155,214,18026,2,0,P|151:276|160:334,1,99
233,355,18675,6,0,B|291:344|353:337|428:359|428:359|397:310|357:263|347:200|356:143|410:117|503:128|525:202|472:251,1,594
446,72,21269,6,0,P|418:49|388:32,1,49.5
273,41,21918,2,0,L|160:50,1,99
85,59,22567,1,0,0:0:0:0:
75,147,22891,2,0,P|58:200|13:249,2,99
163,135,23864,6,0,B|204:164|204:164|260:145|309:151|350:180,1,198
392,253,24837,1,0,0:0:0:0:
363,337,25161,2,0,P|291:364|253:355,2,99
118,305,26458,6,0,L|59:296,1,49.5
30,169,27107,2,0,L|18:64,1,99
75,1,27756,1,0,0:0:0:0:
155,38,28080,2,0,P|225:38|277:24,2,99
111,116,29053,6,0,B|130:148|130:148|139:208|139:208|191:242|250:225,1,198
319,200,30026,2,0,P|383:191|451:300,1,198
364,277,30999,2,0,B|426:244|406:137|490:125,1,198
256,192,36837,5,0,0:0:0:0:
225,94,39431,6,0,P|314:278|183:118,1,594
315,11,42026,6,0,P|408:18|457:110,1,198
457,282,43323,2,0,P|409:364|315:373,1,198
136,365,44621,2,0,P|66:318|40:187,1,198
98,46,45918,2,0,P|175:103|199:198,1,198
368,252,47215,6,0,L|480:242,1,99
457,154,47864,2,0,L|358:162,1,99
269,172,48512,2,0,L|170:180,1,99
161,92,49161,2,0,L|259:83,1,99
256,192,49810,12,0,51026,0:0:0:0:
105,38,52404,6,0,L|207:52,1,99
218,139,53053,2,0,P|280:189|359:113,1,198
363,34,54026,1,0,0:0:0:0:
448,58,54350,2,0,P|466:118|463:169,1,99
407,221,54999,6,0,P|349:227|304:251,1,99
264,319,55648,2,0,P|196:355|105:269,1,198
101,200,56621,1,0,0:0:0:0:
109,111,56945,1,0,0:0:0:0:
272,39,57594,6,0,L|386:48,1,99
439,103,58242,2,0,P|464:162|383:253,1,198
295,249,59215,2,0,L|196:241,2,99
338,326,60188,5,0,0:0:0:0:
297,152,60837,1,0,0:0:0:0:
164,270,61485,1,0,0:0:0:0:
123,96,62134,1,0,0:0:0:0:
1,226,62783,6,0,L|7:328,1,99
93,345,63431,2,0,P|125:298|258:348,1,198
327,361,64404,1,0,0:0:0:0:
411,333,64729,2,0,P|442:288|442:237,1,99
428,157,65377,6,0,L|318:169,1,99
240,178,66026,2,0,L|130:190,1,99
53,171,66675,2,0,P|23:109|116:32,1,198
281,57,67972,6,0,L|391:41,1,99
454,89,68621,2,0,P|416:144|494:235,1,198
440,311,69594,2,0,P|414:361|366:382,2,99
352,291,70567,5,0,0:0:0:0:
174,276,71215,1,0,0:0:0:0:
189,98,71864,1,0,0:0:0:0:
367,113,72512,1,0,0:0:0:0:
352,291,73161,5,0,0:0:0:0:
174,276,73810,1,0,0:0:0:0:
92,68,74621,2,0,P|134:35|240:40,1,148.5
403,44,75756,5,0,0:0:0:0:
463,211,76404,1,0,0:0:0:0:
295,358,77215,2,0,L|137:369,1,148.5
76,204,78350,5,0,0:0:0:0:
126,33,78999,1,0,0:0:0:0:
139,255,79810,2,0,P|166:319|264:346,1,148.5
410,316,80945,6,0,L|436:113,1,198
447,31,81918,1,0,0:0:0:0:
181,57,82891,2,0,B|99:66|63:127|63:127|25:71,1,198
