osu file format v14

[General]
AudioFilename: audio.mp3
AudioLeadIn: 0
PreviewTime: 21188
Countdown: 0
SampleSet: Soft
StackLeniency: 0.5
Mode: 0
LetterboxInBreaks: 0
WidescreenStoryboard: 0

[Editor]
DistanceSpacing: 0.2
BeatDivisor: 4
GridSize: 4
TimelineZoom: 2.599999

[Metadata]
Title:Enough
TitleUnicode:Enough
Artist:Goblins from Mars
ArtistUnicode:Goblins from Mars
Creator:DeRandom Otaku
Version:Normal
Source:
Tags:trap gfm gfmarmy royalty
BeatmapID:1722370
BeatmapSetID:787129

[Difficulty]
HPDrainRate:4
CircleSize:3
OverallDifficulty:4
ApproachRate:4.8
SliderMultiplier:1.05
SliderTickRate:1

[Events]
//Background and Video events
0,0,"BG.jpg",0,0
//Break Periods
2,31847,35614
2,37037,40803
//Storyboard Layer 0 (Background)
//Storyboard Layer 1 (Fail)
//Storyboard Layer 2 (Pass)
//Storyboard Layer 3 (Foreground)
//Storyboard Sound Samples

[TimingPoints]
513,324.324324324324,4,2,0,40,1,0
513,-100,4,2,0,40,0,0
10242,-100,4,2,0,40,0,0
10891,-100,4,2,0,45,0,0
16080,-100,4,2,0,50,0,0
20621,-100,4,2,0,65,0,0
20702,-100,4,2,0,5,0,0
21269,-100,4,2,0,70,0,0
36837,-100,4,2,0,40,0,0
42026,-100,4,2,0,55,0,0
48512,-100,4,2,0,55,0,0
48837,-100,4,2,0,55,0,0
49161,-100,4,2,0,55,0,0
49485,-100,4,2,0,55,0,0
51512,-100,4,2,0,5,0,0
51594,-100,4,2,0,55,0,0
51675,-100,4,2,0,5,0,0
51756,-100,4,2,0,55,0,0
52404,-100,4,2,0,75,0,1
62134,-100,4,2,0,75,0,0
62783,-100,4,2,0,75,0,1
73161,-100,4,2,0,65,0,0
77053,-100,4,2,0,55,0,0
78350,-100,4,2,0,45,0,0
78999,-100,4,2,0,40,0,0
79648,-100,4,2,0,30,0,0

[Colours]
Combo1 : 255,26,26
Combo2 : 0,255,255
Combo3 : 128,128,255
Combo4 : 255,150,100

[HitObjects]
74,148,513,5,6,0:0:0:0:
178,148,837,2,0,L|173:92,2,52.5,0|0|0,0:0|0:0|0:0,0:0:0:0:
195,251,1485,1,0,0:0:0:0:
285,198,1810,2,0,P|299:244|287:304,1,105,0|0,0:0|0:0,0:0:0:0:
199,352,2458,2,0,P|185:306|197:246,1,105,0|0,0:0|0:0,0:0:0:0:
204,146,3107,5,2,0:0:0:0:
109,191,3431,2,0,L|49:189,2,52.5,0|0|0,0:0|0:0|0:0,0:0:0:0:
194,250,4080,1,0,0:0:0:0:
204,146,4404,2,0,L|200:41,1,105,0|0,0:0|0:0,0:0:0:0:
105,86,5053,2,0,L|109:191,1,105,0|0,0:0|0:0,0:0:0:0:
103,296,5702,5,2,0:0:0:0:
194,250,6026,2,0,L|249:252,2,52.5,0|0|2,0:0|0:0|0:0,0:0:0:0:
108,191,6675,1,0,0:0:0:0:
204,146,6999,2,0,P|219:100|210:43,1,105,0|0,0:0|0:0,0:0:0:0:
114,88,7648,2,0,P|102:126|108:191,1,105,2|0,0:0|0:0,0:0:0:0:
194,250,8296,5,2,0:0:0:0:
289,206,8621,2,0,L|293:137,2,52.5,0|0|2,0:0|0:0|0:0,0:0:0:0:
282,310,9269,1,0,0:0:0:0:
194,250,9594,2,0,P|149:248|87:285,1,105,0|0,0:0|0:0,0:0:0:0:
32,357,10242,2,0,B|55:307|55:307|40:200,1,157.5,2|0,0:0|0:0,0:0:0:0:
29,153,10891,5,2,0:0:0:0:
98,74,11215,2,0,L|167:77,1,52.5,0|2,0:0|0:0,0:0:0:0:
202,82,11540,2,0,P|184:124|198:185,1,105,2|2,0:0|0:0,0:0:0:0:
231,279,12188,2,0,L|175:287,2,52.5,0|2|2,0:0|0:0|0:0,0:0:0:0:
322,226,12837,2,0,P|326:278|332:330,1,105,2|0,0:0|0:0,0:0:0:0:
437,330,13485,6,0,P|443:277|447:225,1,105,2|0,0:0|0:0,0:0:0:0:
441,173,13972,1,2,0:0:0:0:
441,173,14134,2,0,P|444:120|450:68,1,105,2|2,0:0|0:0,0:0:0:0:
345,63,14783,2,0,L|349:0,2,52.5,0|2|2,0:0|0:0|0:0,0:0:0:0:
345,167,15431,2,0,B|296:148|296:148|243:166,1,105,2|2,0:0|0:0,0:0:0:0:
168,235,16080,5,2,0:0:0:0:
143,132,16404,2,0,L|135:80,1,52.5,0|2,0:0|0:0,0:0:0:0:
129,27,16729,2,0,P|172:37|233:26,1,105,2|2,0:0|0:0,0:0:0:0:
336,21,17377,2,0,L|331:73,2,52.5,0|2|2,0:0|0:0|0:0,0:0:0:0:
441,21,18026,2,0,L|430:129,1,105,2|0,0:0|0:0,0:0:0:0:
256,192,18675,12,0,20621,1:0:0:0:
65,325,21269,6,0,L|80:201,1,105,4|0,1:2|0:0,0:0:0:0:
92,170,21756,1,0,1:0:0:0:
92,170,21918,2,0,P|141:153|198:170,1,105,8|0,0:0|1:0,0:0:0:0:
308,270,22729,1,8,0:0:0:0:
308,270,22891,2,0,L|302:329,1,52.5,2|2,1:0|0:1,0:0:0:0:
290,373,23215,2,0,P|337:350|389:348,1,105,8|2,0:0|0:0,0:0:0:0:
492,331,23864,6,0,L|487:383,2,52.5,4|0|2,1:2|1:0|0:0,0:0:0:0:
491,278,24350,1,0,1:0:0:0:
491,278,24512,2,0,P|476:242|478:169,1,105,8|0,0:0|1:0,0:0:0:0:
485,71,25161,2,0,P|459:67|433:71,1,52.5,2|8,0:0|0:0,0:0:0:0:
382,81,25485,1,0,1:0:0:0:
277,108,25810,2,0,B|278:156|278:156|281:165|281:165|283:212,1,105,8|2,0:0|0:0,0:0:0:0:
310,313,26458,6,0,B|267:313|267:313|212:342,1,105,4|2,1:2|0:0,0:0:0:0:
165,367,26945,1,0,1:0:0:0:
165,367,27107,2,0,P|167:315|144:268,1,105,8|0,0:0|1:0,0:0:0:0:
209,124,27918,1,8,0:0:0:0:
209,124,28080,2,0,L|262:126,1,52.5,2|2,1:0|0:1,0:0:0:0:
309,146,28404,2,0,L|313:41,1,105,8|2,0:0|0:0,0:0:0:0:
414,74,29053,6,0,L|416:21,2,52.5,4|0|2,1:2|1:0|0:0,0:0:0:0:
413,126,29540,1,0,1:0:0:0:
413,126,29702,2,0,L|408:230,1,105,8|0,0:0|1:0,0:0:0:0:
439,330,30350,2,0,P|409:327|373:335,1,52.5,8|2,0:0|1:2,0:0:0:0:
339,352,30675,2,0,P|309:349|273:357,1,52.5,0|0,1:0|1:0,0:0:0:0:
236,366,30999,6,0,B|194:374|167:363|167:363|197:283|146:311|173:213,1,210,8|4,3:2|1:3,0:0:0:0:
430,93,36837,5,2,1:2:0:0:
389,106,42026,6,0,L|385:227,1,105,0|2,1:2|0:0,0:0:0:0:
349,248,42512,1,2,0:0:0:0:
349,248,42675,2,0,L|345:369,1,105,0|2,1:2|0:0,0:0:0:0:
240,352,43323,2,0,L|241:297,2,52.5,0|2|2,1:0|0:0|0:0,0:0:0:0:
134,352,43972,2,0,L|137:247,1,105,0|2,1:0|0:0,0:0:0:0:
196,160,44621,6,0,P|140:159|106:103,1,105,2|2,1:2|0:0,0:0:0:0:
108,70,45107,1,2,0:0:0:0:
108,70,45269,2,0,P|143:33|194:34,1,105,0|2,1:0|0:0,0:0:0:0:
295,62,45918,2,0,L|290:9,2,52.5,0|2|2,1:0|0:0|0:0,0:0:0:0:
301,167,46567,2,0,P|351:182|406:163,1,105,2|2,1:2|0:0,0:0:0:0:
493,120,47215,6,0,L|489:230,1,105,2|2,1:2|1:2,0:0:0:0:
484,330,47864,1,2,1:2:0:0:
394,275,48188,1,2,1:2:0:0:
349,370,48512,2,0,L|239:366,1,105,2|2,0:0|0:0,0:0:0:0:
244,260,49161,2,0,L|139:263,1,105,2|2,0:0|0:0,0:0:0:0:
33,263,49810,6,0,B|8:221|33:177|33:177|280:169,1,315,2|2,0:0|1:2,0:0:0:0:
309,166,50945,1,2,1:2:0:0:
137,364,51756,1,8,0:0:0:0:
40,176,52404,6,0,L|50:56,1,105,4|2,1:2|0:0,0:0:0:0:
48,18,52891,1,2,1:2:0:0:
48,18,53053,2,0,P|91:39|153:50,1,105,10|2,0:0|1:2,0:0:0:0:
251,35,53702,2,0,L|246:98,1,52.5,2|10,0:0|0:0,0:0:0:0:
244,139,54026,1,2,1:2:0:0:
167,210,54350,2,0,P|213:240|262:241,1,105,8|2,0:0|0:0,0:0:0:0:
366,244,54999,6,0,L|362:321,2,52.5,4|0|2,1:2|1:0|0:0,0:0:0:0:
374,192,55485,1,2,1:2:0:0:
374,192,55648,2,0,L|489:205,1,105,10|2,0:0|1:2,0:0:0:0:
490,99,56296,2,0,L|433:92,1,52.5,2|10,0:0|0:0,0:0:0:0:
385,87,56621,1,2,1:2:0:0:
295,33,56945,2,0,B|279:74|279:74|286:146,1,105,8|2,0:0|0:0,0:0:0:0:
294,239,57594,6,0,L|181:235,1,105,4|2,1:2|0:0,0:0:0:0:
136,235,58080,1,2,1:2:0:0:
136,235,58242,2,0,P|122:289|136:343,1,105,10|2,0:0|1:2,0:0:0:0:
229,375,58891,2,0,P|262:362|295:361,1,52.5,2|10,0:0|0:0,0:0:0:0:
331,362,59215,1,2,1:2:0:0:
435,370,59540,2,0,P|426:331|428:264,1,105,10|2,0:0|0:0,0:0:0:0:
415,162,60188,6,0,L|468:167,2,52.5,4|2|2,1:2|1:2|0:0,0:0:0:0:
362,154,60675,1,2,1:2:0:0:
362,154,60837,2,0,P|367:110|334:47,1,105,10|2,0:0|1:2,0:0:0:0:
237,55,61485,2,0,P|213:101|217:153,1,105,10|2,0:0|1:2,0:0:0:0:
232,203,61972,1,0,1:0:0:0:
232,203,62134,2,0,P|171:202|139:282,1,157.5,10|2,3:2|3:2,0:0:0:0:
147,334,62783,5,4,1:2:0:0:
248,309,63107,2,0,L|255:369,2,52.5,2|2|10,0:0|1:2|0:0,0:0:0:0:
232,203,63756,1,2,1:2:0:0:
329,240,64080,2,0,P|359:240|399:221,1,52.5,2|10,0:0|0:0,0:0:0:0:
429,215,64404,1,2,1:2:0:0:
346,149,64729,2,0,P|343:102|389:49,1,105,8|2,0:0|0:0,0:0:0:0:
479,67,65377,6,0,P|476:36|478:2,2,52.5,4|0|2,1:2|1:0|0:0,0:0:0:0:
487,119,65864,1,2,1:2:0:0:
487,119,66026,2,0,B|464:155|464:155|466:235,1,105,10|2,0:0|1:2,0:0:0:0:
494,318,66675,2,0,P|462:315|427:318,1,52.5,2|10,0:0|0:0,0:0:0:0:
390,326,66999,1,2,1:2:0:0:
295,371,67323,2,0,P|298:321|293:257,1,105,8|2,0:0|0:0,0:0:0:0:
326,166,67972,6,0,P|278:166|244:110,1,105,4|2,1:2|0:0,0:0:0:0:
236,72,68458,1,2,1:2:0:0:
236,72,68621,2,0,P|288:62|341:68,1,105,10|2,0:0|1:2,0:0:0:0:
433,113,69269,2,0,P|442:85|440:46,1,52.5,2|10,0:0|0:0,0:0:0:0:
429,10,69594,1,2,1:2:0:0:
339,67,69918,2,0,L|342:174,1,105,10|2,0:0|0:0,0:0:0:0:
338,277,70567,6,0,L|283:274,2,52.5,4|2|2,1:2|1:2|0:0,0:0:0:0:
396,270,71053,1,2,1:2:0:0:
396,270,71215,2,0,P|395:322|425:375,1,105,10|2,0:0|1:2,0:0:0:0:
497,298,71864,2,0,P|496:245|493:193,1,105,10|2,0:0|1:2,0:0:0:0:
488,140,72350,1,0,1:0:0:0:
488,140,72512,2,0,P|428:140|400:59,1,157.5,10|10,0:0|1:2,0:0:0:0:
412,6,73161,5,4,1:2:0:0:
313,40,73485,2,0,P|289:26|260:20,2,52.5,0|0|8,0:0|1:0|0:0,0:0:0:0:
382,119,74134,1,0,1:0:0:0:
313,198,74458,2,0,P|289:212|260:218,2,52.5,0|8|0,0:0|0:0|1:0,0:0:0:0:
382,119,75107,2,0,P|406:153|415:220,1,105,8|0,0:0|0:0,0:0:0:0:
398,318,75756,6,0,L|455:315,2,52.5,0|0|0,1:0|1:0|0:0,0:0:0:0:
345,321,76242,1,0,1:0:0:0:
345,321,76404,2,0,P|300:301|236:301,1,105,8|0,0:0|1:0,0:0:0:0:
140,309,77053,2,0,L|142:369,2,52.5,0|8|0,0:0|0:0|1:0,0:0:0:0:
147,204,77702,2,0,P|98:205|55:157,1,105,8|0,0:0|0:0,0:0:0:0:
68,64,78350,6,0,L|179:72,1,105,0|0,1:0|0:0,0:0:0:0:
216,101,78837,1,0,1:0:0:0:
216,101,78999,2,0,P|225:69|298:37,1,105,8|0,0:0|1:0,0:0:0:0:
387,57,79648,2,0,L|383:4,2,52.5,0|8|0,0:0|0:0|1:0,0:0:0:0:
461,131,80296,2,0,L|453:240,1,105,8|0,0:0|0:0,0:0:0:0:
437,339,80945,5,0,1:0:0:0:
256,192,81107,12,4,83540,0:0:0:0:
