osu file format v14

[General]
AudioFilename: audio.mp3
AudioLeadIn: 0
PreviewTime: 21188
Countdown: 0
SampleSet: Soft
StackLeniency: 0.2
Mode: 0
LetterboxInBreaks: 0
WidescreenStoryboard: 0

[Editor]
DistanceSpacing: 0.3
BeatDivisor: 4
GridSize: 4
TimelineZoom: 5.199996

[Metadata]
Title:Enough
TitleUnicode:Enough
Artist:Goblins from Mars
ArtistUnicode:Goblins from Mars
Creator:DeRandom Otaku
Version:Extra
Source:
Tags:trap gfm gfmarmy royalty
BeatmapID:1652163
BeatmapSetID:787129

[Difficulty]
HPDrainRate:6
CircleSize:4
OverallDifficulty:8
ApproachRate:9.3
SliderMultiplier:1.9
SliderTickRate:1

[Events]
//Background and Video events
0,0,"BG.jpg",0,0
//Break Periods
2,31848,36283
//Storyboard Layer 0 (Background)
//Storyboard Layer 1 (Fail)
//Storyboard Layer 2 (Pass)
//Storyboard Layer 3 (Foreground)
//Storyboard Sound Samples

[TimingPoints]
513,324.324324324324,4,2,0,40,1,0
513,-133.333333333333,4,2,0,40,0,0
10242,-200,4,2,0,40,0,0
10891,-117.647058823529,4,2,0,45,0,0
15431,-90.9090909090909,4,2,0,45,0,0
15452,-90.9090909090909,4,2,0,20,0,0
15756,-90.9090909090909,4,2,0,45,0,0
15776,-90.9090909090909,4,2,0,20,0,0
16080,-117.647058823529,4,2,0,50,0,0
20621,-54.054054054054,4,2,0,65,0,0
20702,-54.054054054054,4,2,0,5,0,0
21269,-83.3333333333333,4,2,0,70,0,0
22972,-83.3333333333333,4,2,0,5,0,0
23053,-83.3333333333333,4,2,0,70,0,0
23134,-83.3333333333333,4,2,0,5,0,0
23215,-83.3333333333333,4,2,0,70,0,0
28161,-83.3333333333333,4,2,0,5,0,0
28242,-83.3333333333333,4,2,0,70,0,0
28323,-83.3333333333333,4,2,0,5,0,0
28404,-83.3333333333333,4,2,0,70,0,0
36837,-153.846153846154,4,2,0,40,0,0
42026,-133.333333333333,4,2,0,55,0,0
48512,-100,4,2,0,55,0,0
48837,-111.111111111111,4,2,0,55,0,0
49161,-125,4,2,0,55,0,0
49485,-142.857142857143,4,2,0,55,0,0
51512,-142.857142857143,4,2,0,5,0,0
51594,-142.857142857143,4,2,0,55,0,0
51675,-142.857142857143,4,2,0,5,0,0
51756,-142.857142857143,4,2,0,55,0,0
52404,-74.0740740740741,4,2,0,75,0,1
56945,-58.8235294117647,4,2,0,75,0,1
57269,-74.0740740740741,4,2,0,75,0,1
62134,-74.0740740740741,4,2,0,75,0,0
62783,-70.4225352112676,4,2,0,75,0,1
67323,-50,4,2,0,75,0,1
67648,-70.4225352112676,4,2,0,75,0,1
73161,-140.845070422535,4,2,0,65,0,0
77053,-140.845070422535,4,2,0,55,0,0
78350,-140.845070422535,4,2,0,45,0,0
78999,-140.845070422535,4,2,0,40,0,0
79648,-140.845070422535,4,2,0,30,0,0

[Colours]
Combo1 : 255,26,26
Combo2 : 0,255,255
Combo3 : 128,128,255
Combo4 : 255,150,100

[HitObjects]
391,332,513,6,0,L|387:182,1,142.500005435944,6|0,0:0|0:0,0:0:0:0:
381,104,999,1,0,0:0:0:0:
469,258,1161,5,0,0:0:0:0:
476,246,1485,1,0,0:0:0:0:
380,201,1810,5,0,0:0:0:0:
387,189,2134,1,0,0:0:0:0:
291,144,2458,5,0,0:0:0:0:
298,132,2783,1,0,0:0:0:0:
231,360,3107,6,0,P|181:328|97:328,1,142.500005435944,2|0,0:0|0:0,0:0:0:0:
21,362,3594,1,0,0:0:0:0:
98,212,3756,5,0,0:0:0:0:
91,214,4080,1,0,0:0:0:0:
185,133,4404,5,0,0:0:0:0:
178,131,4729,1,0,0:0:0:0:
263,210,5053,5,0,0:0:0:0:
256,212,5377,1,0,0:0:0:0:
433,104,5702,6,0,P|435:142|437:180,2,71.2500027179719,2|0|0,0:0|0:0|0:0,0:0:0:0:
427,19,6188,1,0,0:0:0:0:
324,133,6350,5,2,0:0:0:0:
324,133,6675,1,0,0:0:0:0:
436,175,6999,5,0,0:0:0:0:
436,175,7323,2,0,L|441:253,1,71.2500027179719,0|0,0:0|0:0,0:0:0:0:
487,335,7648,2,0,P|453:297|346:296,1,142.500005435944,2|0,0:0|0:0,0:0:0:0:
282,313,8134,1,0,0:0:0:0:
295,87,8296,6,0,B|327:166|268:149|303:232,1,142.500005435944,2|0,0:0|0:0,0:0:0:0:
223,127,8783,1,0,0:0:0:0:
374,188,8945,5,2,0:0:0:0:
374,188,9269,1,0,0:0:0:0:
223,127,9594,5,0,0:0:0:0:
223,127,9918,1,0,0:0:0:0:
300,224,10242,6,0,B|268:149|327:166|295:87,1,142.500005435944,2|0,0:0|0:0,0:0:0:0:
217,29,10891,6,0,B|293:57|293:57|372:23,1,161.500003080368,2|0,0:0|0:0,0:0:0:0:
459,135,11377,1,2,0:0:0:0:
371,180,11540,2,0,B|350:128|377:84|377:84|361:62|366:25,1,161.500003080368,2|2,0:0|0:0,0:0:0:0:
366,26,12188,5,0,0:0:0:0:
459,135,12350,1,2,0:0:0:0:
320,162,12512,2,0,P|281:156|239:137,1,80.750001540184,2|0,0:0|0:0,0:0:0:0:
133,21,12837,2,0,P|167:88|127:168,1,161.500003080368,2|0,0:0|0:0,0:0:0:0:
70,92,13323,1,0,0:0:0:0:
185,243,13485,6,0,B|126:276|73:237|73:237|87:263|84:300,1,161.500003080368,2|0,0:0|0:0,0:0:0:0:
231,166,13972,1,2,0:0:0:0:
247,307,14134,2,0,P|273:242|232:167,1,161.500003080368,2|2,0:0|0:0,0:0:0:0:
231,166,14783,5,0,0:0:0:0:
359,191,14945,1,2,0:0:0:0:
487,216,15107,2,0,P|485:182|489:133,1,80.750001540184,2|0,0:0|0:0,0:0:0:0:
402,57,15431,6,0,L|403:72,8,13.0625003986359,2|0|0|0|0|0|0|0|0,0:0|0:0|0:0|0:0|0:0|0:0|0:0|0:0|0:0,0:0:0:0:
359,191,15756,2,0,L|358:176,8,13.0625003986359,2|0|0|0|0|0|0|0|0,0:0|0:0|0:0|0:0|0:0|0:0|0:0|0:0|0:0,0:0:0:0:
415,339,16080,6,0,B|421:310|410:276|410:276|366:296|307:277,1,161.500003080368,2|0,0:0|0:0,0:0:0:0:
224,253,16567,1,2,0:0:0:0:
300,127,16729,2,0,B|328:170|328:170|313:289,1,161.500003080368,2|2,0:0|0:0,0:0:0:0:
314,279,17377,5,0,0:0:0:0:
415,227,17540,1,2,0:0:0:0:
300,127,17702,2,0,P|261:134|218:142,1,80.750001540184,2|0,0:0|0:0,0:0:0:0:
107,256,18026,2,0,P|142:195|105:103,1,161.500003080368,2|0,0:0|0:0,0:0:0:0:
46,180,18512,1,0,0:0:0:0:
105,359,18675,5,2,0:0:0:0:
116,113,18837,1,2,0:0:0:0:
91,347,18999,5,2,0:0:0:0:
134,125,19161,1,2,0:0:0:0:
77,335,19323,5,2,0:0:0:0:
152,137,19485,1,2,0:0:0:0:
63,323,19648,5,2,0:0:0:0:
170,149,19810,1,2,0:0:0:0:
244,249,19972,5,2,0:0:0:0:
253,234,20053,1,2,0:0:0:0:
266,221,20134,1,2,0:0:0:0:
280,211,20215,1,2,0:0:0:0:
296,204,20296,1,2,0:0:0:0:
314,200,20377,1,2,0:0:0:0:
331,200,20458,1,2,0:0:0:0:
349,202,20540,1,2,0:0:0:0:
403,260,20621,6,0,B|358:176|400:95|400:95|444:153|419:191,1,263.62499899435,0|0,1:0|0:0,0:0:0:0:
425,179,21269,6,0,P|395:179|362:175,1,56.9999982604981,4|0,1:2|0:0,0:0:0:0:
251,162,21431,1,0,0:0:0:0:
251,162,21512,1,0,0:0:0:0:
251,162,21594,1,0,0:0:0:0:
404,64,21756,1,0,1:0:0:0:
205,237,21918,2,0,P|165:189|198:93,1,170.999994781494,8|0,0:0|0:0,0:0:0:0:
261,50,22242,1,0,1:0:0:0:
311,237,22404,1,2,0:0:0:0:
310,250,22485,1,2,0:0:0:0:
309,263,22567,5,2,0:0:0:0:
474,112,22729,1,8,0:0:0:0:
261,50,22891,2,0,P|238:55|206:69,1,56.9999982604981,2|0,1:0|0:0,0:0:0:0:
380,160,23053,2,0,P|383:130|375:93,1,56.9999982604981,2|0,0:1|0:0,0:0:0:0:
128,119,23215,2,0,B|135:168|135:168|130:177|130:177|139:229,1,113.999996520996,8|0,0:0|0:0,0:0:0:0:
161,317,23458,1,2,0:0:0:0:
161,317,23540,1,2,0:0:0:0:
34,151,23702,1,2,0:0:0:0:
226,251,23864,6,0,B|256:250|256:250|284:235,1,56.9999982604981,4|0,1:2|0:0,0:0:0:0:
407,184,24026,1,0,1:0:0:0:
407,184,24107,1,2,0:0:0:0:
407,184,24188,1,2,0:0:0:0:
189,181,24350,1,0,1:0:0:0:
394,346,24512,2,0,B|407:304|389:274|389:274|421:241|407:184,1,170.999994781494,8|0,0:0|0:0,0:0:0:0:
388,104,24837,1,0,1:0:0:0:
318,314,24999,1,2,0:0:0:0:
303,312,25080,1,2,0:0:0:0:
289,311,25161,5,2,0:0:0:0:
506,245,25323,1,8,0:0:0:0:
304,131,25485,2,0,B|289:77|289:77|315:15,1,113.999996520996,0|0,1:0|0:0,0:0:0:0:
422,219,25810,2,0,B|337:182|340:249|240:201,1,170.999994781494,8|2,0:0|0:0,0:0:0:0:
177,182,26134,1,2,0:0:0:0:
372,304,26296,1,2,0:0:0:0:
300,73,26458,6,0,L|303:130,1,56.9999982604981,4|0,1:2|0:0,0:0:0:0:
245,297,26621,1,0,0:0:0:0:
245,297,26702,1,2,0:0:0:0:
245,297,26783,1,2,0:0:0:0:
422,219,26945,1,0,1:0:0:0:
177,182,27107,2,0,B|142:169|112:180|112:180|141:134|110:70,1,170.999994781494,8|0,0:0|0:0,0:0:0:0:
84,6,27431,1,0,1:0:0:0:
143,256,27594,1,2,0:0:0:0:
141,270,27675,1,2,0:0:0:0:
140,284,27756,5,2,0:0:0:0:
14,128,27918,1,8,0:0:0:0:
243,233,28080,2,0,P|256:200|257:164,1,56.9999982604981,2|0,1:0|0:0,0:0:0:0:
41,288,28242,2,0,P|44:316|56:342,1,56.9999982604981,2|0,0:1|0:0,0:0:0:0:
177,182,28404,2,0,P|177:126|141:53,1,113.999996520996,8|0,0:0|0:0,0:0:0:0:
102,13,28648,1,2,0:0:0:0:
102,13,28729,1,2,0:0:0:0:
258,178,28891,1,2,0:0:0:0:
41,288,29053,6,0,L|47:209,1,56.9999982604981,4|0,1:2|0:0,0:0:0:0:
64,119,29215,1,0,1:0:0:0:
64,119,29296,1,2,0:0:0:0:
64,119,29377,1,2,0:0:0:0:
112,367,29540,1,0,1:0:0:0:
258,178,29702,2,0,B|309:151|309:151|439:182,1,170.999994781494,8|0,0:0|0:0,0:0:0:0:
500,208,30026,1,0,1:0:0:0:
317,324,30188,1,2,0:0:0:0:
319,295,30269,1,2,0:0:0:0:
322,267,30350,5,8,0:0:0:0:
243,72,30512,2,0,L|247:128,1,56.9999982604981,2|0,1:2|0:0,0:0:0:0:
174,310,30675,2,0,L|178:253,1,56.9999982604981,0|0,1:0|0:0,0:0:0:0:
105,72,30837,2,0,L|109:128,1,56.9999982604981,0|0,1:0|0:0,0:0:0:0:
50,310,30999,5,8,3:2:0:0:
69,280,31080,1,0,3:0:0:0:
74,245,31161,1,0,1:0:0:0:
64,211,31242,1,0,3:0:0:0:
40,185,31323,1,2,3:2:0:0:
16,158,31404,1,0,3:0:0:0:
7,124,31485,1,2,1:2:0:0:
14,90,31567,1,0,3:0:0:0:
30,60,31648,5,4,1:3:0:0:
248,192,36837,5,2,1:2:0:0:
248,192,36999,2,0,B|304:195|304:195|315:201|315:201|378:203,1,123.499994346619,2|0,0:0|0:0,0:0:0:0:
399,118,37485,2,0,B|344:116|344:116|333:110|333:110|277:107,2,123.499994346619,0|0|0,0:0|0:0|0:0,0:0:0:0:
489,123,38296,1,0,0:0:0:0:
444,200,38458,2,0,P|445:233|450:273,1,61.7499971733095,2|2,0:0|0:0,0:0:0:0:
510,327,38783,2,0,P|455:306|395:324,1,123.499994346619,2|2,0:0|0:0,0:0:0:0:
318,369,39269,1,2,0:0:0:0:
256,216,39431,6,0,P|202:240|133:230,1,123.499994346619,0|0,1:0|0:0,0:0:0:0:
185,131,39918,1,0,0:0:0:0:
256,216,40080,2,0,L|248:339,2,123.499994346619,0|0|0,0:0|0:0|0:0,0:0:0:0:
185,131,40891,1,0,0:0:0:0:
276,67,41053,2,0,P|305:77|340:78,1,61.7499971733095,0|0,0:0|0:0,0:0:0:0:
447,25,41377,2,0,B|411:84|438:137|438:137|421:165|434:204,1,185.249991519928,0|0,0:0|0:0,0:0:0:0:
479,358,42026,6,0,B|441:338|441:338|335:351,1,142.500005435944,0|2,1:2|0:0,0:0:0:0:
253,359,42512,1,2,0:0:0:0:
280,153,42675,6,0,B|293:188|293:188|286:221,1,71.2500027179719,0|0,1:2|0:0,0:0:0:0:
200,195,42999,1,2,0:0:0:0:
280,153,43161,1,0,0:0:0:0:
111,326,43323,5,0,1:0:0:0:
120,237,43485,1,2,0:0:0:0:
129,148,43648,1,2,0:0:0:0:
129,148,43972,6,0,P|83:147|50:82,1,106.875004076958,0|2,1:0|0:0,0:0:0:0:
43,66,44296,1,2,0:0:0:0:
9,197,44458,1,0,0:0:0:0:
176,31,44621,6,0,B|228:44|267:31|267:31|255:57|267:94,1,142.500005435944,2|2,1:2|0:0,0:0:0:0:
283,164,45107,1,2,0:0:0:0:
493,100,45269,6,0,P|460:90|411:97,1,71.2500027179719,0|0,1:0|0:0,0:0:0:0:
388,198,45594,1,2,0:0:0:0:
283,164,45756,1,0,0:0:0:0:
393,342,45918,5,0,1:0:0:0:
474,267,46080,1,2,0:0:0:0:
388,198,46242,1,2,0:0:0:0:
388,198,46567,6,0,B|380:167|380:167|390:129,1,71.2500027179719,2|0,1:2|0:0,0:0:0:0:
290,60,46891,2,0,B|298:91|298:91|288:129,1,71.2500027179719,2|0,0:0|0:0,0:0:0:0:
283,164,47134,1,2,0:0:0:0:
283,164,47215,5,2,1:2:0:0:
490,129,47377,1,2,0:0:0:0:
325,239,47540,5,2,1:2:0:0:
360,32,47702,1,2,0:0:0:0:
250,300,47864,5,2,1:2:0:0:
215,93,48026,1,2,0:0:0:0:
127,247,48188,6,0,L|172:246,1,35.625001358986,2|2,1:2|0:0,0:0:0:0:
325,239,48350,1,2,0:0:0:0:
104,139,48512,6,0,B|108:33,1,95,2|2,0:0|0:0,0:0:0:0:
328,153,48837,2,0,B|325:239,1,85.4999973907472,2|2,0:0|0:0,0:0:0:0:
211,168,49161,2,0,B|214:92,1,76,2|2,0:0|0:0,0:0:0:0:
434,220,49485,2,0,B|433:253,2,33.2499989852906,2|2|2,0:0|0:0|0:0,0:0:0:0:
256,349,49810,5,2,0:0:0:0:
244,331,49891,1,2,0:0:0:0:
229,317,49972,1,2,0:0:0:0:
211,306,50053,1,2,0:0:0:0:
192,299,50134,1,2,0:0:0:0:
171,296,50215,1,2,0:0:0:0:
151,297,50296,1,2,0:0:0:0:
131,303,50377,1,2,0:0:0:0:
112,312,50458,5,2,0:0:0:0:
129,284,50540,1,2,0:0:0:0:
134,251,50621,1,2,0:0:0:0:
128,219,50702,1,2,0:0:0:0:
111,191,50783,5,2,1:2:0:0:
78,147,50864,1,2,1:2:0:0:
78,92,50945,1,2,1:2:0:0:
111,49,51026,1,2,1:2:0:0:
112,49,51431,6,0,L|157:52,1,33.2499989852906,2|0,0:1|0:0,0:0:0:0:
201,128,51594,2,0,L|246:131,1,33.2499989852906,2|0,0:1|0:0,0:0:0:0:
290,207,51756,2,0,P|322:166|312:78,1,132.999995941162,8|2,0:0|0:0,0:0:0:0:
256,10,52242,1,2,0:0:0:0:
225,320,52404,6,0,B|291:336|291:336|356:320,1,128.250000489235,4|0,1:2|0:0,0:0:0:0:
168,263,52648,1,2,0:0:0:0:
168,263,52729,2,0,P|153:281|141:326,1,64.1250002446175,2|0,0:0|0:0,0:0:0:0:
290,207,52891,2,0,L|285:127,1,64.1250002446175,2|0,1:2|0:0,0:0:0:0:
111,49,53053,2,0,B|87:112|87:112|110:177,1,128.250000489235,10|0,0:0|0:0,0:0:0:0:
275,21,53377,1,2,1:2:0:0:
299,241,53540,1,2,0:0:0:0:
299,241,53621,1,2,0:0:0:0:
299,241,53702,6,0,L|377:228,1,64.1250002446175,2|0,0:0|0:0,0:0:0:0:
172,113,53864,2,0,L|94:100,1,64.1250002446175,10|0,0:0|0:0,0:0:0:0:
350,74,54026,1,2,1:2:0:0:
350,74,54350,6,0,B|398:89|438:69|438:69|406:131|440:180,1,192.375000733852,8|2,0:0|0:0,0:0:0:0:
485,240,54675,2,0,P|452:244|415:261,1,64.1250002446175,2|0,0:0|0:0,0:0:0:0:
342,313,54837,1,2,0:0:0:0:
350,74,54999,6,0,P|323:69|284:74,1,64.1250002446175,4|0,1:2|0:0,0:0:0:0:
172,113,55161,1,0,1:0:0:0:
172,113,55242,1,2,0:0:0:0:
172,113,55323,2,0,B|179:145|179:145|170:182,1,64.1250002446175,2|0,0:0|0:0,0:0:0:0:
316,216,55485,2,0,B|309:184|309:184|318:147,1,64.1250002446175,2|0,1:2|0:0,0:0:0:0:
100,212,55648,2,0,P|138:250|214:244,1,128.250000489235,10|0,0:0|0:0,0:0:0:0:
398,146,55972,1,2,1:2:0:0:
213,28,56134,1,2,0:0:0:0:
213,28,56215,1,2,0:0:0:0:
213,28,56296,6,0,L|145:34,1,64.1250002446175,2|0,0:0|0:0,0:0:0:0:
252,159,56458,2,0,L|320:153,1,64.1250002446175,10|0,0:0|0:0,0:0:0:0:
480,138,56621,1,2,1:2:0:0:
480,138,56945,6,0,B|468:120|439:103|439:103|417:158|426:233|426:233|408:195|366:188,1,242.250004620552,8|2,0:0|0:0,0:0:0:0:
353,268,57269,2,0,L|361:336,1,64.1250002446175,2|0,0:0|0:0,0:0:0:0:
332,134,57431,1,2,0:0:0:0:
148,298,57594,6,0,B|194:321|194:321|224:304|279:306,1,128.250000489235,4|0,1:2|0:0,0:0:0:0:
204,174,57837,1,2,0:0:0:0:
204,174,57918,2,0,P|195:199|199:242,1,64.1250002446175,2|0,0:0|0:0,0:0:0:0:
400,174,58080,2,0,P|409:149|405:106,1,64.1250002446175,2|0,1:2|0:0,0:0:0:0:
214,26,58242,2,0,L|69:39,1,128.250000489235,10|0,0:0|0:0,0:0:0:0:
332,134,58567,1,2,1:2:0:0:
112,196,58729,1,2,0:0:0:0:
112,196,58810,1,2,0:0:0:0:
112,196,58891,6,0,L|117:269,1,64.1250002446175,2|0,0:0|0:0,0:0:0:0:
279,320,59053,2,0,L|283:256,1,64.1250002446175,10|0,0:0|0:0,0:0:0:0:
130,357,59215,1,2,1:2:0:0:
208,202,59377,1,0,0:0:0:0:
39,282,59540,6,0,B|34:174|34:174|37:166|37:166|34:157|34:157|31:88,1,192.375000733852,10|2,0:0|0:0,0:0:0:0:
11,20,59864,2,0,B|39:35|39:35|80:27,1,64.1250002446175,2|0,0:0|0:0,0:0:0:0:
181,23,60026,1,2,0:0:0:0:
39,282,60188,6,0,L|36:208,1,64.1250002446175,4|0,1:2|0:0,0:0:0:0:
133,106,60350,1,2,1:2:0:0:
133,106,60431,1,2,0:0:0:0:
133,106,60512,2,0,P|159:111|201:115,1,64.1250002446175,2|0,0:0|0:0,0:0:0:0:
310,200,60675,2,0,P|278:202|246:208,1,64.1250002446175,2|0,1:2|0:0,0:0:0:0:
32,350,60837,5,10,0:0:0:0:
56,349,60918,1,2,0:0:0:0:
80,347,60999,1,2,0:0:0:0:
104,346,61080,1,2,0:0:0:0:
129,345,61161,2,0,P|139:313|138:275,1,64.1250002446175,2|0,1:2|0:0,0:0:0:0:
133,106,61323,1,2,0:0:0:0:
133,106,61404,1,2,0:0:0:0:
133,106,61485,5,10,0:0:0:0:
171,114,61566,1,0,0:0:0:0:
207,150,61648,5,2,1:2:0:0:
246,148,61729,1,0,0:0:0:0:
282,112,61810,6,0,P|280:142|280:198,1,64.1250002446175,2|0,1:2|0:0,0:0:0:0:
410,356,61972,2,0,P|412:326|412:270,1,64.1250002446175,0|0,1:0|0:0,0:0:0:0:
232,253,62134,5,10,3:2:0:0:
255,231,62215,1,0,3:0:0:0:
285,219,62296,1,0,3:0:0:0:
317,220,62377,1,0,3:0:0:0:
346,231,62458,1,2,3:2:0:0:
375,242,62539,1,0,3:0:0:0:
407,242,62620,1,2,3:2:0:0:
437,231,62701,1,0,3:0:0:0:
460,209,62783,6,0,B|437:146|486:158|453:65,1,134.899993207245,4|0,1:2|0:0,0:0:0:0:
323,99,63026,1,2,0:0:0:0:
323,99,63107,2,0,P|355:115|390:117,1,67.4499966036226,2|0,0:0|0:0,0:0:0:0:
254,198,63269,2,0,P|221:201|191:216,1,67.4499966036226,2|0,1:2|0:0,0:0:0:0:
339,360,63431,2,0,B|359:318|359:318|344:218,1,134.899993207245,10|0,0:0|0:0,0:0:0:0:
256,42,63756,1,2,1:2:0:0:
199,223,63918,1,2,0:0:0:0:
199,223,63999,1,2,0:0:0:0:
199,223,64080,6,0,P|161:219|134:204,1,67.4499966036226,2|0,0:0|0:0,0:0:0:0:
256,42,64242,2,0,P|294:46|321:61,1,67.4499966036226,10|0,0:0|0:0,0:0:0:0:
88,71,64404,1,2,1:2:0:0:
88,71,64729,2,0,B|65:130|94:163|94:163|90:168|90:168|119:212|88:260,1,202.349989810868,8|2,0:0|0:0,0:0:0:0:
55,337,65053,2,0,P|29:318|12:288,1,67.4499966036226,2|0,0:0|0:0,0:0:0:0:
160,116,65215,1,2,0:0:0:0:
211,375,65377,6,0,P|237:356|254:326,1,67.4499966036226,4|0,1:2|0:0,0:0:0:0:
282,191,65540,1,0,1:0:0:0:
282,191,65621,1,2,0:0:0:0:
282,191,65702,2,0,L|356:201,1,67.4499966036226,2|0,0:0|0:0,0:0:0:0:
154,252,65864,2,0,L|87:261,1,67.4499966036226,2|0,1:2|0:0,0:0:0:0:
280,64,66026,2,0,B|304:133|304:133|282:191,1,134.899993207245,10|0,0:0|0:0,0:0:0:0:
88,71,66350,1,2,1:2:0:0:
249,290,66512,1,2,0:0:0:0:
249,290,66594,1,2,0:0:0:0:
249,290,66675,6,0,L|329:287,1,67.4499966036226,2|0,0:0|0:0,0:0:0:0:
488,155,66837,2,0,L|420:152,1,67.4499966036226,10|0,0:0|0:0,0:0:0:0:
219,134,66999,1,2,1:2:0:0:
219,134,67323,6,0,B|235:106|236:78|236:78|277:157|234:208|234:208|263:243|249:291,1,285,8|2,0:0|0:0,0:0:0:0:
107,270,67648,2,0,P|138:258|171:262,1,67.4499966036226,2|0,0:0|0:0,0:0:0:0:
326,317,67810,1,2,0:0:0:0:
47,329,67972,6,0,B|23:286|23:286|46:187,1,134.899993207245,4|0,1:2|0:0,0:0:0:0:
70,115,68215,1,2,0:0:0:0:
70,115,68296,2,0,P|38:122|1:121,1,67.4499966036226,2|0,0:0|0:0,0:0:0:0:
208,6,68458,2,0,P|241:5|274:12,1,67.4499966036226,2|0,1:2|0:0,0:0:0:0:
356,210,68621,2,0,P|302:233|232:206,1,134.899993207245,10|0,0:0|0:0,0:0:0:0:
26,36,68945,1,2,1:2:0:0:
107,270,69107,1,2,0:0:0:0:
107,270,69188,1,2,0:0:0:0:
107,270,69269,6,0,P|115:240|128:201,1,67.4499966036226,2|0,0:0|0:0,0:0:0:0:
208,6,69431,2,0,P|216:38|227:70,1,67.4499966036226,10|0,0:0|0:0,0:0:0:0:
356,210,69594,1,2,1:2:0:0:
152,126,69756,1,0,0:0:0:0:
384,290,69918,2,0,P|435:236|385:131,1,202.349989810868,10|2,0:0|0:0,0:0:0:0:
290,202,70242,2,0,P|322:212|356:209,1,67.4499966036226,2|0,0:0|0:0,0:0:0:0:
483,181,70404,1,2,0:0:0:0:
321,22,70567,6,0,L|325:89,1,67.4499966036226,4|0,1:2|0:0,0:0:0:0:
391,297,70729,1,2,1:2:0:0:
391,297,70810,1,2,0:0:0:0:
391,297,70891,2,0,P|371:308|328:309,1,67.4499966036226,2|0,0:0|0:0,0:0:0:0:
226,190,71053,2,0,P|246:201|289:202,1,67.4499966036226,2|0,1:2|0:0,0:0:0:0:
472,168,71215,5,10,0:0:0:0:
479,183,71296,1,0,0:0:0:0:
484,199,71377,1,0,0:0:0:0:
487,215,71458,1,0,0:0:0:0:
488,232,71540,2,0,P|474:262|472:304,1,67.4499966036226,2|0,1:2|0:0,0:0:0:0:
310,346,71702,1,2,0:0:0:0:
310,346,71783,1,2,0:0:0:0:
310,346,71863,5,10,0:0:0:0:
272,338,71944,1,0,0:0:0:0:
236,302,72026,5,2,1:2:0:0:
197,304,72107,1,0,0:0:0:0:
160,340,72188,6,0,P|166:306|166:273,1,67.4499966036226,2|0,1:2|0:0,0:0:0:0:
128,56,72350,2,0,P|122:89|122:122,1,67.4499966036226,0|0,1:0|0:0,0:0:0:0:
144,198,72512,1,10,0:0:0:0:
259,114,72675,6,0,P|227:125|198:141,1,67.4499966036226,0|0,1:0|0:0,0:0:0:0:
29,282,72837,2,0,P|60:270|89:254,1,67.4499966036226,10|0,1:2|0:0,0:0:0:0:
274,256,72999,2,0,P|248:234|219:217,1,67.4499966036226,10|0,1:2|0:0,0:0:0:0:
14,140,73161,6,0,P|39:161|68:178,1,67.4499966036226,4|0,1:2|0:0,0:0:0:0:
259,114,73485,1,0,0:0:0:0:
128,56,73648,1,0,1:0:0:0:
320,170,73810,2,0,P|338:135|338:93,1,67.4499966036226,8|0,0:0|0:0,0:0:0:0:
170,211,74134,2,0,L|179:290,1,67.4499966036226,0|0,1:0|0:0,0:0:0:0:
259,114,74458,5,0,0:0:0:0:
183,300,74621,1,8,0:0:0:0:
266,100,74783,1,0,1:0:0:0:
273,86,75107,2,0,B|311:109|311:109|406:96,1,134.899993207245,8|0,0:0|0:0,0:0:0:0:
511,80,75594,1,0,0:0:0:0:
328,17,75756,5,0,1:0:0:0:
328,17,75918,1,0,1:0:0:0:
511,80,76080,1,0,0:0:0:0:
273,86,76242,1,0,1:0:0:0:
473,231,76404,2,0,L|472:164,1,67.4499966036226,8|0,0:0|0:0,0:0:0:0:
273,86,76729,2,0,L|274:153,1,67.4499966036226,0|0,1:0|0:0,0:0:0:0:
281,315,77053,5,0,0:0:0:0:
379,150,77215,1,8,0:0:0:0:
406,370,77377,1,0,1:0:0:0:
406,370,77702,2,0,B|415:324|415:324|410:298|410:298|423:229,1,134.899993207245,8|0,0:0|0:0,0:0:0:0:
501,297,78188,1,0,0:0:0:0:
379,150,78350,6,0,B|307:126|327:179|237:153,1,134.899993207245,0|0,1:0|0:0,0:0:0:0:
277,63,78837,1,0,1:0:0:0:
173,206,78999,2,0,P|161:173|163:131,1,67.4499966036226,8|0,0:0|0:0,0:0:0:0:
350,225,79323,2,0,L|345:295,1,67.4499966036226,0|0,1:0|0:0,0:0:0:0:
248,156,79648,5,0,0:0:0:0:
345,293,79810,1,8,0:0:0:0:
166,290,79972,2,0,P|136:279|98:246,1,67.4499966036226,0|0,1:0|0:0,0:0:0:0:
248,156,80296,2,0,B|307:156|307:156|326:146|326:146|386:146,1,134.899993207245,8|0,0:0|0:0,0:0:0:0:
494,192,80783,1,0,0:0:0:0:
375,280,80945,6,0,P|371:233|381:143,1,134.899993207245,0|0,1:0|0:0,0:0:0:0:
467,95,81431,1,0,0:0:0:0:
386,30,81594,1,8,0:0:0:0:
377,30,81675,1,0,0:0:0:0:
369,31,81756,1,0,0:0:0:0:
360,32,81837,1,0,0:0:0:0:
352,32,81918,6,0,B|328:44|306:32|306:32|286:80|223:70,1,134.899993207245,0|0,1:0|0:0,0:0:0:0:
219,74,82323,1,0,0:0:0:0:
205,95,82404,1,0,0:0:0:0:
200,119,82485,1,0,0:0:0:0:
203,144,82567,2,0,P|212:169|216:211,1,67.4499966036226,0|0,0:0|0:0,0:0:0:0:
150,327,82891,6,0,P|211:241|221:352,1,269.79998641449,8|4,0:0|0:0,0:0:0:0:
