osu file format v14

[General]
AudioFilename: audio.mp3
AudioLeadIn: 0
PreviewTime: 21188
Countdown: 0
SampleSet: Soft
StackLeniency: 0.5
Mode: 0
LetterboxInBreaks: 0
WidescreenStoryboard: 0

[Editor]
DistanceSpacing: 1.1
BeatDivisor: 4
GridSize: 4
TimelineZoom: 2.599999

[Metadata]
Title:Enough
TitleUnicode:Enough
Artist:Goblins from Mars
ArtistUnicode:Goblins from Mars
Creator:DeRandom Otaku
Version:Advanced
Source:
Tags:trap gfm gfmarmy royalty
BeatmapID:1722369
BeatmapSetID:787129

[Difficulty]
HPDrainRate:4.5
CircleSize:3.5
OverallDifficulty:5.2
ApproachRate:6.8
SliderMultiplier:1.15
SliderTickRate:1

[Events]
//Background and Video events
0,0,"BG.jpg",0,0
//Break Periods
2,31847,35908
2,37037,41097
//Storyboard Layer 0 (Background)
//Storyboard Layer 1 (Fail)
//Storyboard Layer 2 (Pass)
//Storyboard Layer 3 (Foreground)
//Storyboard Sound Samples

[TimingPoints]
513,324.324324324324,4,2,0,40,1,0
513,-100,4,2,0,40,0,0
10242,-100,4,2,0,40,0,0
10891,-100,4,2,0,45,0,0
16080,-100,4,2,0,50,0,0
20621,-100,4,2,0,65,0,0
20702,-100,4,2,0,5,0,0
21269,-100,4,2,0,70,0,0
36837,-100,4,2,0,40,0,0
42026,-100,4,2,0,55,0,0
48512,-100,4,2,0,55,0,0
48837,-100,4,2,0,55,0,0
49161,-100,4,2,0,55,0,0
49485,-100,4,2,0,55,0,0
51512,-100,4,2,0,5,0,0
51594,-100,4,2,0,55,0,0
51675,-100,4,2,0,5,0,0
51756,-100,4,2,0,55,0,0
52404,-100,4,2,0,75,0,1
62134,-100,4,2,0,75,0,0
62783,-100,4,2,0,75,0,1
73161,-100,4,2,0,65,0,0
77053,-100,4,2,0,55,0,0
78350,-100,4,2,0,45,0,0
78999,-100,4,2,0,40,0,0
79648,-100,4,2,0,30,0,0

[Colours]
Combo1 : 255,26,26
Combo2 : 0,255,255
Combo3 : 128,128,255
Combo4 : 255,150,100

[HitObjects]
34,41,513,5,6,0:0:0:0:
127,125,837,2,0,L|194:123,1,57.5,0|0,0:0|0:0,0:0:0:0:
242,98,1161,2,0,B|227:135|227:135|238:214,1,115,0|0,0:0|0:0,0:0:0:0:
364,209,1810,2,0,B|379:172|379:172|368:93,2,115,0|0|0,0:0|0:0|0:0,0:0:0:0:
299,317,2783,1,0,0:0:0:0:
237,209,3107,5,2,0:0:0:0:
163,312,3431,2,0,P|137:300|98:298,1,57.5,0|0,0:0|0:0,0:0:0:0:
50,323,3756,2,0,P|66:271|50:209,1,115,0|0,0:0|0:0,0:0:0:0:
140,122,4404,2,0,P|126:67|142:13,2,115,0|0|0,0:0|0:0|0:0,0:0:0:0:
256,73,5377,1,0,0:0:0:0:
256,199,5702,5,2,0:0:0:0:
366,137,6026,2,0,L|429:141,1,57.5,0|0,0:0|0:0,0:0:0:0:
480,113,6350,2,0,B|454:183|499:160|469:247,1,115,2|0,0:0|0:0,0:0:0:0:
433,345,6999,2,0,P|395:333|313:333,1,115,0|0,0:0|0:0,0:0:0:0:
263,359,7485,1,0,0:0:0:0:
263,359,7648,2,0,B|282:328|282:328|271:240,1,115,2|0,0:0|0:0,0:0:0:0:
189,154,8296,6,0,P|224:130|295:130,1,115,2|0,0:0|0:0,0:0:0:0:
344,169,8783,1,0,0:0:0:0:
344,169,8945,2,0,P|329:123|347:57,1,115,2|0,0:0|0:0,0:0:0:0:
471,60,9594,2,0,P|487:114|472:169,1,115,0|0,0:0|0:0,0:0:0:0:
435,290,10242,2,0,B|402:265|402:265|385:276|385:276|263:276,1,172.5,2|0,0:0|0:0,0:0:0:0:
229,320,10891,6,0,L|222:201,1,115,2|0,0:0|0:0,0:0:0:0:
244,146,11377,1,2,0:0:0:0:
244,146,11540,2,0,P|199:172|131:162,1,115,2|2,0:0|0:0,0:0:0:0:
26,105,12188,2,0,L|22:44,2,57.5,0|2|2,0:0|0:0|0:0,0:0:0:0:
67,224,12837,2,0,L|58:342,1,115,2|0,0:0|0:0,0:0:0:0:
170,281,13485,6,0,P|231:281|276:321,1,115,2|0,0:0|0:0,0:0:0:0:
262,376,13972,1,2,0:0:0:0:
262,376,14134,2,0,P|307:342|363:343,1,115,2|2,0:0|0:0,0:0:0:0:
489,325,14783,2,0,P|485:352|487:386,2,57.5,0|2|2,0:0|0:0|0:0,0:0:0:0:
499,199,15431,2,0,B|452:197|452:197|432:207|432:207|376:204,1,115,2|2,0:0|0:0,0:0:0:0:
262,232,16080,6,0,B|277:190|277:190|268:103,1,115,2|0,0:0|0:0,0:0:0:0:
233,67,16567,1,2,0:0:0:0:
233,67,16729,2,0,B|275:82|275:82|362:73,1,115,2|2,0:0|0:0,0:0:0:0:
457,16,17377,2,0,P|453:42|456:82,1,57.5,0|2,0:0|0:0,0:0:0:0:
486,128,17702,2,0,P|487:156|483:185,1,57.5,2|0,0:0|0:0,0:0:0:0:
449,238,18026,2,0,L|462:356,1,115,2|0,0:0|0:0,0:0:0:0:
345,301,18675,6,0,B|289:283|289:283|227:299,1,115,2|2,0:0|0:0,0:0:0:0:
186,337,19161,1,2,0:0:0:0:
186,337,19323,2,0,B|194:305|194:305|177:216,1,115,2|2,0:0|0:0,0:0:0:0:
144,170,19810,1,2,0:0:0:0:
144,170,19972,2,0,B|284:217|219:113|389:173,1,230,2|0,0:0|1:0,0:0:0:0:
75,97,21269,6,0,P|50:131|52:206,1,115,4|0,1:2|0:0,0:0:0:0:
80,270,21756,1,0,1:0:0:0:
46,336,21918,2,0,P|93:314|165:324,1,115,8|0,0:0|1:0,0:0:0:0:
298,362,22567,2,0,P|308:326|308:291,1,57.5,2|8,0:0|0:0,0:0:0:0:
302,231,22891,2,0,L|373:237,1,57.5,2|2,1:0|0:1,0:0:0:0:
420,278,23215,2,0,P|404:233|426:166,1,115,8|2,0:0|0:0,0:0:0:0:
460,105,23702,1,2,0:0:0:0:
398,62,23864,6,0,L|329:65,1,57.5,4|0,1:2|1:0,0:0:0:0:
287,117,24188,2,0,L|229:114,1,57.5,2|0,0:0|1:0,0:0:0:0:
155,107,24512,2,0,B|135:146|135:146|148:219,1,115,8|0,0:0|1:0,0:0:0:0:
167,288,24999,1,2,0:0:0:0:
192,358,25161,2,0,P|217:351|255:347,1,57.5,2|8,0:0|0:0,0:0:0:0:
322,343,25485,1,0,1:0:0:0:
262,204,25810,2,0,L|144:216,1,115,8|2,0:0|0:0,0:0:0:0:
73,227,26296,1,2,0:0:0:0:
13,182,26458,6,0,P|12:135|51:80,1,115,4|2,1:2|0:0,0:0:0:0:
114,43,26945,1,0,1:0:0:0:
175,86,27107,2,0,P|234:86|278:32,1,115,8|0,0:0|1:0,0:0:0:0:
419,19,27756,2,0,P|412:49|416:88,1,57.5,2|8,0:0|0:0,0:0:0:0:
466,128,28080,2,0,P|466:156|460:184,1,57.5,2|2,1:0|0:1,0:0:0:0:
402,231,28404,2,0,P|453:235|484:295,1,115,8|2,0:0|0:0,0:0:0:0:
475,360,28891,1,2,0:0:0:0:
410,322,29053,6,0,L|339:328,1,57.5,4|0,1:2|1:0,0:0:0:0:
283,355,29377,2,0,L|225:349,1,57.5,2|0,0:0|1:0,0:0:0:0:
150,342,29702,2,0,B|133:283|168:292|149:227,1,115,8|0,0:0|1:0,0:0:0:0:
114,163,30188,1,2,0:0:0:0:
188,164,30350,1,8,0:0:0:0:
152,97,30512,2,0,L|149:35,2,57.5,2|0|0,1:2|1:0|1:0,0:0:0:0:
114,163,30999,6,0,B|56:163|56:163|71:276|71:276|6:276,1,230,8|4,3:2|1:3,0:0:0:0:
32,303,36837,5,2,1:2:0:0:
32,303,42026,6,0,P|86:284|148:303,1,115,0|2,1:2|0:0,0:0:0:0:
188,338,42512,1,2,0:0:0:0:
188,338,42675,2,0,L|185:213,1,115,0|2,1:2|0:0,0:0:0:0:
170,97,43323,2,0,P|195:90|232:92,1,57.5,0|2,1:0|0:0,0:0:0:0:
289,99,43648,1,2,0:0:0:0:
384,180,43972,2,0,P|410:137|405:61,1,115,0|2,1:0|0:0,0:0:0:0:
289,99,44621,6,0,P|261:148|263:205,1,115,2|2,1:2|0:0,0:0:0:0:
292,260,45107,1,2,0:0:0:0:
292,260,45269,2,0,P|255:244|171:246,1,115,0|2,1:0|0:0,0:0:0:0:
58,273,45918,2,0,L|64:341,2,57.5,0|2|2,1:0|0:0|0:0,0:0:0:0:
93,151,46567,2,0,B|93:94|93:94|62:39,1,115,2|2,1:2|0:0,0:0:0:0:
190,37,47215,6,0,P|248:33|302:59,2,115,2|2|2,1:2|1:2|1:2,0:0:0:0:
225,158,48188,1,2,1:2:0:0:
260,279,48512,2,0,P|202:283|148:257,2,115,2|2|2,0:0|0:0|0:0,0:0:0:0:
225,158,49485,1,2,0:0:0:0:
190,37,49810,2,0,B|366:18|272:144|452:139,1,287.5,2|2,0:0|0:0,0:0:0:0:
501,141,50783,1,2,1:2:0:0:
501,141,50945,1,2,1:2:0:0:
190,37,51756,1,8,0:0:0:0:
256,351,52404,6,0,P|226:327|149:328,1,115,4|2,1:2|0:0,0:0:0:0:
79,361,52891,1,2,1:2:0:0:
22,303,53053,2,0,L|33:181,1,115,10|2,0:0|1:2,0:0:0:0:
37,107,53540,1,2,0:0:0:0:
104,149,53702,2,0,P|138:149|171:135,1,57.5,2|10,0:0|0:0,0:0:0:0:
233,109,54026,1,2,1:2:0:0:
223,269,54350,2,0,P|268:270|303:237,1,86.25,8|2,0:0|0:0,0:0:0:0:
314,207,54675,2,0,P|336:202|380:204,1,57.5,2|2,0:0|0:0,0:0:0:0:
450,211,54999,5,4,1:2:0:0:
450,211,55161,1,0,1:0:0:0:
414,283,55323,2,0,L|419:355,1,57.5,2|2,0:0|1:2,0:0:0:0:
340,364,55648,2,0,P|283:364|233:320,1,115,10|2,0:0|1:2,0:0:0:0:
201,258,56134,1,2,0:0:0:0:
154,323,56296,2,0,L|93:318,1,57.5,2|10,0:0|0:0,0:0:0:0:
15,312,56621,1,2,1:2:0:0:
24,151,56945,2,0,L|126:159,1,86.25,8|2,0:0|0:0,0:0:0:0:
149,165,57269,2,0,P|149:131|164:99,1,57.5,2|2,0:0|0:0,0:0:0:0:
229,146,57594,6,0,P|282:146|324:96,1,115,4|2,1:2|0:0,0:0:0:0:
363,33,58080,1,2,1:2:0:0:
408,99,58242,2,0,P|424:157|423:224,1,115,10|2,0:0|1:2,0:0:0:0:
412,291,58729,1,2,0:0:0:0:
390,368,58891,2,0,P|356:357|328:357,1,57.5,2|10,0:0|0:0,0:0:0:0:
254,365,59215,2,0,P|225:363|198:353,1,57.5,2|0,1:2|0:0,0:0:0:0:
147,290,59540,2,0,L|52:291,1,86.25,10|2,0:0|0:0,0:0:0:0:
20,294,59864,2,0,P|17:264|23:224,1,57.5,2|2,0:0|0:0,0:0:0:0:
32,157,60188,5,4,1:2:0:0:
98,201,60350,1,2,1:2:0:0:
136,130,60512,2,0,L|203:137,1,57.5,2|2,0:0|1:2,0:0:0:0:
248,194,60837,2,0,B|242:165|242:165|252:139|252:139|246:109|246:109|256:70,1,115,10|2,0:0|1:2,0:0:0:0:
309,26,61323,1,2,0:0:0:0:
365,82,61485,2,0,B|371:108|371:108|365:138|365:138|375:164|375:164|369:193,1,115,10|2,0:0|1:2,0:0:0:0:
309,247,61972,1,0,1:0:0:0:
248,194,62134,2,0,B|162:194|162:194|138:238|72:251,1,172.5,10|2,3:2|3:2,0:0:0:0:
34,190,62783,6,0,L|43:327,1,115,4|2,1:2|0:0,0:0:0:0:
82,374,63269,1,2,1:2:0:0:
146,325,63431,2,0,P|199:325|247:367,1,115,10|2,0:0|1:2,0:0:0:0:
302,305,63918,1,2,0:0:0:0:
358,361,64080,2,0,P|381:338|418:322,1,57.5,2|10,0:0|0:0,0:0:0:0:
478,300,64404,1,2,1:2:0:0:
354,196,64729,2,0,L|360:109,1,86.25,8|2,0:0|0:0,0:0:0:0:
364,70,65053,2,0,P|336:62|297:61,1,57.5,2|2,0:0|0:0,0:0:0:0:
231,85,65377,5,4,1:2:0:0:
231,85,65540,1,0,1:0:0:0:
152,67,65702,2,0,P|150:95|160:123,1,57.5,2|2,0:0|1:2,0:0:0:0:
196,194,66026,2,0,P|152:166|82:169,1,115,10|2,0:0|1:2,0:0:0:0:
12,184,66512,1,2,0:0:0:0:
67,243,66675,2,0,P|67:272|61:302,1,57.5,2|10,0:0|0:0,0:0:0:0:
29,373,66999,1,2,1:2:0:0:
185,337,67323,2,0,L|277:341,1,86.25,8|2,0:0|0:0,0:0:0:0:
311,336,67648,2,0,B|307:310|307:310|314:279,1,57.5,2|2,0:0|0:0,0:0:0:0:
370,222,67972,6,0,L|364:104,1,115,4|2,1:2|0:0,0:0:0:0:
353,27,68458,1,2,1:2:0:0:
287,74,68621,2,0,P|240:74|196:20,1,115,10|2,0:0|1:2,0:0:0:0:
127,65,69107,1,2,0:0:0:0:
60,19,69269,2,0,P|48:47|48:81,1,57.5,2|10,0:0|0:0,0:0:0:0:
90,141,69594,2,0,P|88:169|76:195,1,57.5,2|0,1:2|0:0,0:0:0:0:
15,247,69918,2,0,P|25:287|29:336,1,86.25,10|2,0:0|0:0,0:0:0:0:
28,371,70242,2,0,P|56:361|84:356,1,57.5,2|2,0:0|0:0,0:0:0:0:
171,367,70567,5,4,1:2:0:0:
171,367,70729,1,2,1:2:0:0:
251,375,70891,2,0,L|249:304,1,57.5,2|2,0:0|1:2,0:0:0:0:
189,264,71215,2,0,B|218:270|218:270|244:260|244:260|274:266|274:266|313:256,1,115,10|2,0:0|1:2,0:0:0:0:
357,203,71701,1,2,0:0:0:0:
301,147,71863,2,0,B|275:141|275:141|245:147|245:147|219:137|219:137|190:143,1,115,10|2,0:0|1:2,0:0:0:0:
136,203,72350,1,0,1:0:0:0:
189,264,72512,1,10,0:0:0:0:
142,330,72675,2,0,L|81:324,2,57.5,0|10|10,1:0|1:2|1:2,0:0:0:0:
209,373,73161,6,0,P|249:351|321:350,1,115,4|0,1:2|0:0,0:0:0:0:
376,371,73648,1,0,1:0:0:0:
376,371,73810,2,0,B|355:324|355:324|357:258,1,115,8|0,0:0|1:0,0:0:0:0:
356,134,74458,2,0,L|426:128,2,57.5,0|8|0,0:0|0:0|1:0,0:0:0:0:
249,202,75107,2,0,P|250:155|234:88,1,115,8|0,0:0|0:0,0:0:0:0:
206,32,75594,1,0,0:0:0:0:
206,32,75756,6,0,L|270:36,1,57.5,0|0,1:0|1:0,0:0:0:0:
319,65,76080,2,0,L|376:61,1,57.5,0|0,0:0|1:0,0:0:0:0:
434,35,76404,2,0,P|419:87|426:150,1,115,8|0,0:0|1:0,0:0:0:0:
442,272,77053,2,0,P|469:267|500:270,2,57.5,0|8|0,0:0|0:0|1:0,0:0:0:0:
352,361,77702,2,0,L|234:354,1,115,8|0,0:0|0:0,0:0:0:0:
175,366,78188,1,0,0:0:0:0:
175,366,78350,6,0,B|186:337|186:337|178:234,1,115,0|0,1:0|0:0,0:0:0:0:
182,189,78837,1,0,1:0:0:0:
182,189,78999,2,0,P|149:213|72:209,1,115,8|0,0:0|1:0,0:0:0:0:
35,91,79648,2,0,P|44:62|62:42,2,57.5,0|8|0,0:0|0:0|1:0,0:0:0:0:
76,211,80296,2,0,P|93:262|70:329,1,115,8|0,0:0|0:0,0:0:0:0:
43,373,80783,1,0,0:0:0:0:
43,373,80945,5,0,1:0:0:0:
256,192,81107,12,4,83540,0:0:0:0:
