osu file format v14

[General]
AudioFilename: audio.mp3
AudioLeadIn: 0
PreviewTime: 21188
Countdown: 0
SampleSet: Soft
StackLeniency: 0.5
Mode: 0
LetterboxInBreaks: 0
WidescreenStoryboard: 0

[Editor]
DistanceSpacing: 1.3
BeatDivisor: 4
GridSize: 4
TimelineZoom: 3.699998

[Metadata]
Title:Enough
TitleUnicode:Enough
Artist:Goblins from Mars
ArtistUnicode:Goblins from Mars
Creator:DeRandom Otaku
Version:Hard
Source:
Tags:trap gfm gfmarmy royalty
BeatmapID:1721060
BeatmapSetID:787129

[Difficulty]
HPDrainRate:4.8
CircleSize:3.8
OverallDifficulty:6
ApproachRate:8
SliderMultiplier:1.25
SliderTickRate:1

[Events]
//Background and Video events
0,0,"BG.jpg",0,0
//Break Periods
2,31848,36087
2,37037,41276
//Storyboard Layer 0 (Background)
//Storyboard Layer 1 (Fail)
//Storyboard Layer 2 (Pass)
//Storyboard Layer 3 (Foreground)
//Storyboard Sound Samples

[TimingPoints]
513,324.324324324324,4,2,0,40,1,0
513,-100,4,2,0,40,0,0
10242,-133.333333333333,4,2,0,40,0,0
10891,-100,4,2,0,45,0,0
16080,-100,4,2,0,50,0,0
20621,-71.4285714285714,4,2,0,65,0,0
20702,-100,4,2,0,5,0,0
21269,-83.3333333333333,4,2,0,70,0,0
36837,-100,4,2,0,40,0,0
42026,-100,4,2,0,55,0,0
48512,-100,4,2,0,55,0,0
48837,-100,4,2,0,55,0,0
49161,-100,4,2,0,55,0,0
49485,-100,4,2,0,55,0,0
51512,-100,4,2,0,5,0,0
51594,-100,4,2,0,55,0,0
51675,-100,4,2,0,5,0,0
51756,-100,4,2,0,55,0,0
52404,-80,4,2,0,75,0,1
62134,-80,4,2,0,75,0,0
62783,-80,4,2,0,75,0,1
73161,-100,4,2,0,65,0,0
77053,-100,4,2,0,55,0,0
78350,-100,4,2,0,45,0,0
78999,-100,4,2,0,40,0,0
79648,-100,4,2,0,30,0,0

[Colours]
Combo1 : 255,26,26
Combo2 : 0,255,255
Combo3 : 128,128,255
Combo4 : 255,150,100

[HitObjects]
63,295,513,6,0,P|104:269|180:269,1,125,6|0,0:0|0:0,0:0:0:0:
253,301,999,1,0,0:0:0:0:
253,301,1161,2,0,P|315:304|370:275,1,125,0|0,0:0|0:0,0:0:0:0:
369,113,1810,2,0,P|312:83|250:87,1,125,0|0,0:0|0:0,0:0:0:0:
130,193,2458,1,0,0:0:0:0:
130,193,2783,1,0,0:0:0:0:
253,301,3107,6,0,L|250:164,1,125,2|0,0:0|0:0,0:0:0:0:
331,170,3594,1,0,0:0:0:0:
331,170,3756,2,0,L|333:294,1,125,0|0,0:0|0:0,0:0:0:0:
172,307,4404,2,0,L|169:170,1,125,0|0,0:0|0:0,0:0:0:0:
247,38,5053,1,0,0:0:0:0:
247,38,5377,1,0,0:0:0:0:
169,182,5702,6,0,B|112:183|112:183|85:150|33:149,1,125,2|0,0:0|0:0,0:0:0:0:
47,231,6188,1,0,0:0:0:0:
53,311,6350,2,0,B|86:310|112:279|112:279|169:280,1,125,2|0,0:0|0:0,0:0:0:0:
331,279,6999,2,0,B|388:278|388:278|415:311|467:312,1,125,0|0,0:0|0:0,0:0:0:0:
453,230,7485,1,0,0:0:0:0:
446,150,7647,2,0,B|413:151|387:182|387:182|330:181,1,125,2|0,0:0|0:0,0:0:0:0:
249,181,8134,1,0,0:0:0:0:
169,182,8296,6,0,L|173:54,1,125,2|0,0:0|0:0,0:0:0:0:
240,11,8783,1,0,0:0:0:0:
240,11,8945,2,0,P|274:39|361:38,1,125,2|0,0:0|0:0,0:0:0:0:
494,120,9594,2,0,P|432:116|381:151,1,125,0|0,0:0|0:0,0:0:0:0:
462,344,10242,6,0,L|457:204,1,140.625005364418,2|0,0:0|0:0,0:0:0:0:
457,204,10891,6,0,P|406:238|344:233,1,125,2|0,0:0|0:0,0:0:0:0:
275,192,11377,1,2,0:0:0:0:
205,150,11540,2,0,P|143:145|93:180,2,125,2|2|0,0:0|0:0|0:0,0:0:0:0:
275,192,12350,1,2,0:0:0:0:
345,234,12512,2,0,P|341:270|342:309,1,62.5,2|0,0:0|0:0,0:0:0:0:
400,352,12837,2,0,P|344:339|269:351,1,125,2|0,0:0|0:0,0:0:0:0:
197,358,13323,1,0,0:0:0:0:
197,358,13485,6,0,B|206:319|206:319|197:228,1,125,2|0,0:0|0:0,0:0:0:0:
173,156,13972,1,2,0:0:0:0:
173,156,14134,2,0,L|321:160,1,125,2|2,0:0|0:0,0:0:0:0:
460,170,14783,1,0,0:0:0:0:
460,170,14945,1,2,0:0:0:0:
405,230,15107,2,0,P|396:264|395:309,1,62.5,2|0,0:0|0:0,0:0:0:0:
395,372,15431,1,2,0:0:0:0:
238,325,15756,1,2,0:0:0:0:
83,373,16080,6,0,P|79:315|88:239,1,125,2|0,0:0|0:0,0:0:0:0:
148,196,16567,1,2,0:0:0:0:
148,196,16729,2,0,P|154:133|150:71,2,125,2|2|0,0:0|0:0|0:0,0:0:0:0:
85,248,17540,1,2,0:0:0:0:
140,306,17702,2,0,L|202:301,1,62.5,2|0,0:0|0:0,0:0:0:0:
267,349,18026,2,0,P|244:298|269:222,1,125,2|0,0:0|0:0,0:0:0:0:
303,164,18512,1,0,0:0:0:0:
362,220,18675,6,0,L|445:216,1,62.5,2|2,0:0|0:0,0:0:0:0:
481,159,18999,2,0,L|477:76,1,62.5,2|2,0:0|0:0,0:0:0:0:
419,41,19323,2,0,L|336:45,1,62.5,2|2,0:0|0:0,0:0:0:0:
300,102,19647,2,0,L|304:185,1,62.5,2|2,0:0|0:0,0:0:0:0:
259,233,19972,6,0,L|210:232,3,31.25,2|2|2|2,0:0|0:0|0:0|0:0,0:0:0:0:
190,248,20296,2,0,L|141:247,3,31.25,2|2|2|2,0:0|0:0|0:0|0:0,0:0:0:0:
121,263,20621,6,0,B|128:213|128:213|123:211|123:211|145:179|117:108,1,131.249995994568,0|0,1:0|0:0,0:0:0:0:
127,138,21269,6,0,L|285:142,1,149.999995422363,4|0,1:2|0:0,0:0:0:0:
346,72,21756,1,0,1:0:0:0:
414,140,21918,2,0,P|386:183|385:282,1,149.999995422363,8|0,0:0|1:0,0:0:0:0:
425,367,22404,1,2,0:0:0:0:
425,367,22485,1,2,0:0:0:0:
425,367,22567,6,0,L|338:360,1,74.9999977111817,2|8,0:0|0:0,0:0:0:0:
281,292,22891,1,2,1:0:0:0:
212,360,23053,1,2,0:1:0:0:
143,291,23215,2,0,B|124:220|124:220|152:139,1,149.999995422363,8|2,0:0|0:0,0:0:0:0:
191,59,23702,1,2,0:0:0:0:
260,127,23864,6,0,L|348:122,1,74.9999977111817,4|0,1:2|1:0,0:0:0:0:
383,121,24107,1,2,0:0:0:0:
383,121,24188,1,2,0:0:0:0:
451,52,24350,1,0,1:0:0:0:
506,132,24512,2,0,L|500:223,1,74.9999977111817,8|0,0:0|0:0,0:0:0:0:
404,226,24837,2,0,L|410:317,1,74.9999977111817,0|2,1:0|0:0,0:0:0:0:
413,349,25080,1,2,0:0:0:0:
413,349,25161,6,0,B|375:337|375:337|326:347,1,74.9999977111817,2|8,0:0|0:0,0:0:0:0:
245,365,25485,1,0,1:0:0:0:
311,181,25810,2,0,P|365:185|403:225,1,112.499996566773,8|2,0:0|0:0,0:0:0:0:
403,225,26134,2,0,P|442:219|489:231,1,74.9999977111817,2|2,0:0|0:0,0:0:0:0:
440,332,26458,6,0,L|284:323,1,149.999995422363,4|2,1:2|0:0,0:0:0:0:
192,317,26945,1,0,1:0:0:0:
256,244,27107,2,0,B|256:167|256:167|211:95,1,149.999995422363,8|0,0:0|1:0,0:0:0:0:
171,18,27594,1,2,0:0:0:0:
171,18,27675,1,2,0:0:0:0:
171,18,27756,6,0,L|264:19,1,74.9999977111817,2|8,0:0|0:0,0:0:0:0:
314,87,28080,1,2,1:0:0:0:
382,18,28242,1,2,0:1:0:0:
450,86,28404,2,0,B|474:133|474:133|462:241,1,149.999995422363,8|2,0:0|0:0,0:0:0:0:
445,326,28891,1,2,0:0:0:0:
371,261,29053,6,0,P|333:259|295:265,1,74.9999977111817,4|0,1:2|1:0,0:0:0:0:
251,283,29296,1,2,0:0:0:0:
251,283,29377,1,2,0:0:0:0:
187,208,29540,1,0,1:0:0:0:
138,292,29702,2,0,P|103:257|109:154,1,149.999995422363,8|0,0:0|1:0,0:0:0:0:
123,66,30188,1,2,0:0:0:0:
123,66,30269,1,2,0:0:0:0:
123,66,30350,6,0,L|197:70,1,74.9999977111817,8|2,0:0|1:2,0:0:0:0:
295,81,30675,1,0,1:0:0:0:
243,163,30837,1,0,1:0:0:0:
282,252,30999,2,0,L|336:247,3,37.4999988555909,8|0|0|0,3:2|3:0|1:0|3:0,0:0:0:0:
360,274,31323,2,0,L|414:269,3,37.4999988555909,2|0|2|0,3:2|3:0|1:2|3:0,0:0:0:0:
446,267,31648,5,4,1:3:0:0:
446,267,36837,5,2,1:2:0:0:
446,267,42026,6,0,P|389:248|320:271,1,125,0|2,1:2|0:0,0:0:0:0:
261,311,42512,1,2,0:0:0:0:
193,356,42675,2,0,P|134:374|76:355,1,125,0|2,1:2|0:0,0:0:0:0:
18,297,43161,1,0,0:0:0:0:
75,239,43323,6,0,L|71:176,2,62.5,0|2|2,1:0|0:0|0:0,0:0:0:0:
236,261,43972,2,0,L|227:114,1,125,0|2,1:0|0:0,0:0:0:0:
216,55,44458,1,0,0:0:0:0:
292,84,44621,6,0,B|347:78|347:78|356:68|356:68|423:62,1,125,2|2,1:2|0:0,0:0:0:0:
469,120,45107,1,2,0:0:0:0:
411,177,45269,2,0,B|417:232|417:232|427:241|427:241|433:308,1,125,0|2,1:0|0:0,0:0:0:0:
450,376,45756,1,0,0:0:0:0:
372,351,45918,6,0,P|341:346|306:352,2,62.5,0|2|2,1:0|0:0|0:0,0:0:0:0:
414,193,46567,2,0,B|426:132|426:132|408:53,1,125,2|2,1:2|0:0,0:0:0:0:
339,34,47053,1,0,0:0:0:0:
339,34,47134,1,2,0:0:0:0:
339,34,47215,6,0,P|308:42|256:41,1,62.5,2|2,1:2|0:0,0:0:0:0:
196,35,47540,1,2,1:2:0:0:
223,111,47702,1,2,0:0:0:0:
144,132,47864,2,0,L|157:208,1,62.5,2|2,1:2|0:0,0:0:0:0:
233,172,48188,2,0,L|223:111,1,62.5,2|2,1:2|0:0,0:0:0:0:
196,35,48512,6,0,L|269:35,1,62.5,2|2,0:0|0:0,0:0:0:0:
316,92,48837,2,0,L|389:92,1,62.5,2|2,0:0|0:0,0:0:0:0:
459,92,49161,2,0,L|459:165,1,62.5,2|2,0:0|0:0,0:0:0:0:
402,212,49486,2,0,L|402:285,1,62.5,2|2,0:0|0:0,0:0:0:0:
402,355,49810,6,0,L|362:351,3,31.25,2|2|2|2,0:0|0:0|0:0|0:0,0:0:0:0:
337,328,50134,2,0,L|297:324,3,31.25,2|2|2|2,0:0|0:0|0:0|0:0,0:0:0:0:
272,301,50458,2,0,L|232:297,3,31.25,2|2|2|2,0:0|0:0|0:0|0:0,0:0:0:0:
207,274,50783,1,2,1:2:0:0:
186,271,50864,1,2,1:2:0:0:
165,269,50945,1,2,1:2:0:0:
144,267,51026,1,2,1:2:0:0:
256,98,51431,6,0,P|283:108|337:108,1,62.5,2|2,0:1|0:1,0:0:0:0:
369,57,51756,2,0,L|352:197,1,125,8|2,0:0|0:0,0:0:0:0:
337,254,52242,1,2,0:0:0:0:
256,316,52404,6,0,B|213:297|213:297|97:315,1,156.25,4|2,1:2|0:0,0:0:0:0:
6,339,52891,1,2,1:2:0:0:
41,244,53053,2,0,B|41:139|41:139|9:88,1,156.25,10|2,0:0|1:2,0:0:0:0:
79,17,53540,1,2,0:0:0:0:
79,17,53621,1,2,0:0:0:0:
79,17,53702,6,0,P|113:31|166:32,1,78.125,2|10,0:0|0:0,0:0:0:0:
255,33,54026,1,2,1:2:0:0:
118,183,54350,2,0,L|118:321,1,117.1875,8|2,0:0|0:0,0:0:0:0:
118,300,54675,2,0,B|155:312|155:312|200:306,1,78.125,2|2,0:0|0:0,0:0:0:0:
294,291,54999,5,4,1:2:0:0:
229,212,55161,1,0,1:0:0:0:
323,174,55323,2,0,L|429:181,1,78.125,2|2,0:0|1:2,0:0:0:0:
470,253,55648,2,0,P|439:199|485:125,1,156.25,10|2,0:0|1:2,0:0:0:0:
474,24,56134,1,2,0:0:0:0:
474,24,56215,1,2,0:0:0:0:
474,24,56296,6,0,P|426:25|372:29,1,78.125,2|10,0:0|0:0,0:0:0:0:
295,44,56621,1,2,1:2:0:0:
483,125,56945,2,0,L|482:251,1,117.1875,8|2,0:0|0:0,0:0:0:0:
482,242,57269,2,0,P|439:228|388:228,1,78.125,2|2,0:0|0:0,0:0:0:0:
334,298,57594,6,0,L|326:140,1,156.25,4|2,1:2|0:0,0:0:0:0:
295,44,58080,1,2,1:2:0:0:
229,121,58242,2,0,P|173:121|110:40,1,156.25,10|2,0:0|1:2,0:0:0:0:
12,24,58729,1,2,0:0:0:0:
12,24,58810,1,2,0:0:0:0:
12,24,58891,6,0,L|16:109,1,78.125,2|10,0:0|0:0,0:0:0:0:
87,173,59215,2,0,L|83:251,1,78.125,2|0,1:2|0:0,0:0:0:0:
54,348,59540,2,0,P|111:349|160:316,1,117.1875,10|2,0:0|0:0,0:0:0:0:
159,316,59864,2,0,P|197:315|234:329,1,78.125,2|2,0:0|0:0,0:0:0:0:
327,369,60188,5,4,1:2:0:0:
312,268,60350,1,2,1:2:0:0:
312,268,60431,1,2,0:0:0:0:
312,268,60512,2,0,L|318:168,1,78.125,2|2,0:0|1:2,0:0:0:0:
327,88,60837,2,0,L|280:92,3,39.0625,10|0|0|0,0:0|0:0|0:0|0:0,0:0:0:0:
238,99,61161,2,0,P|249:64|228:5,1,78.125,2|2,1:2|0:0,0:0:0:0:
144,55,61485,5,10,0:0:0:0:
71,127,61648,1,2,1:2:0:0:
71,127,61729,1,0,0:0:0:0:
71,127,61810,2,0,L|77:208,1,78.125,2|0,1:2|1:0,0:0:0:0:
85,306,62134,2,0,L|134:299,3,39.0625,10|0|0|0,3:2|3:0|3:0|3:0,0:0:0:0:
174,300,62458,2,0,L|212:305,3,39.0625,2|0|2|0,3:2|3:0|3:2|3:0,0:0:0:0:
262,318,62783,6,0,P|236:268|274:180,1,156.25,4|2,1:2|0:0,0:0:0:0:
351,117,63269,1,2,1:2:0:0:
267,59,63431,2,0,P|210:86|119:57,1,156.25,10|2,0:0|1:2,0:0:0:0:
30,21,63918,1,2,0:0:0:0:
30,21,63999,1,2,0:0:0:0:
30,21,64080,6,0,P|39:63|39:106,1,78.125,2|10,0:0|0:0,0:0:0:0:
32,199,64404,1,2,1:2:0:0:
136,24,64729,2,0,L|267:31,1,117.1875,8|2,0:0|0:0,0:0:0:0:
253,30,65053,2,0,B|241:70|241:70|250:124,1,78.125,2|2,0:0|0:0,0:0:0:0:
274,203,65377,5,4,1:2:0:0:
352,138,65540,1,0,1:0:0:0:
423,209,65702,2,0,L|420:295,1,78.125,2|2,0:0|1:2,0:0:0:0:
475,372,66026,2,0,P|426:322|332:329,1,156.25,10|2,0:0|1:2,0:0:0:0:
251,364,66512,1,2,0:0:0:0:
251,364,66594,1,2,0:0:0:0:
251,364,66675,6,0,L|163:358,1,78.125,2|10,0:0|0:0,0:0:0:0:
71,350,66999,1,2,1:2:0:0:
71,147,67323,2,0,P|105:112|185:111,1,117.1875,8|2,0:0|0:0,0:0:0:0:
170,105,67648,2,0,B|161:143|161:143|168:198,1,78.125,2|2,0:0|0:0,0:0:0:0:
256,257,67972,6,0,P|294:222|401:221,1,156.25,4|2,1:2|0:0,0:0:0:0:
481,269,68458,1,2,1:2:0:0:
383,293,68621,2,0,L|405:132,1,156.25,10|2,0:0|1:2,0:0:0:0:
426,39,69107,1,2,0:0:0:0:
426,39,69188,1,2,0:0:0:0:
426,39,69269,6,0,P|395:26|346:27,1,78.125,2|10,0:0|0:0,0:0:0:0:
278,98,69594,2,0,P|239:98|202:84,1,78.125,2|0,1:2|0:0,0:0:0:0:
117,30,69918,2,0,L|120:161,1,117.1875,10|2,0:0|0:0,0:0:0:0:
119,147,70242,2,0,P|80:138|36:147,1,78.125,2|2,0:0|0:0,0:0:0:0:
76,240,70567,5,4,1:2:0:0:
174,215,70729,1,2,1:2:0:0:
195,314,70891,2,0,P|234:301|289:299,1,78.125,2|2,0:0|1:2,0:0:0:0:
370,313,71215,2,0,L|369:266,3,39.0625,10|0|0|0,0:0|0:0|0:0|0:0,0:0:0:0:
364,222,71540,2,0,B|403:232|403:232|448:222,1,78.125,2|2,1:2|0:0,0:0:0:0:
506,146,71864,5,10,0:0:0:0:
404,137,72026,1,2,1:2:0:0:
404,137,72107,1,0,0:0:0:0:
404,137,72188,2,0,L|409:40,1,78.125,2|0,1:2|1:0,0:0:0:0:
316,14,72512,1,10,0:0:0:0:
256,97,72675,1,0,1:0:0:0:
196,14,72837,2,0,L|117:25,1,78.125,10|10,1:2|1:2,0:0:0:0:
47,95,73161,6,0,B|70:133|70:133|62:224,1,125,4|0,1:2|0:0,0:0:0:0:
47,293,73648,1,0,1:0:0:0:
47,293,73810,2,0,B|118:273|93:311|176:294,1,125,8|0,0:0|1:0,0:0:0:0:
331,280,74458,2,0,P|326:246|334:208,2,62.5,0|8|0,0:0|0:0|1:0,0:0:0:0:
403,134,75107,2,0,P|371:114|279:119,1,125,8|0,0:0|0:0,0:0:0:0:
209,144,75594,1,0,0:0:0:0:
131,168,75756,6,0,L|133:93,1,62.5,0|0,1:0|1:0,0:0:0:0:
51,100,76080,2,0,L|49:162,1,62.5,0|0,0:0|1:0,0:0:0:0:
87,233,76404,2,0,P|144:209|204:231,2,125,8|0|0,0:0|1:0|0:0,0:0:0:0:
29,290,77215,1,8,0:0:0:0:
86,347,77377,2,0,L|161:339,1,62.5,0|0,1:0|0:0,0:0:0:0:
229,333,77702,2,0,B|219:296|219:296|228:204,1,125,8|0,0:0|0:0,0:0:0:0:
242,129,78188,1,0,0:0:0:0:
177,79,78350,6,0,P|223:49|298:70,1,125,0|0,1:0|0:0,0:0:0:0:
358,104,78837,1,0,1:0:0:0:
358,104,78999,2,0,B|332:162|332:162|352:235,2,125,8|0|0,0:0|1:0|0:0,0:0:0:0:
415,46,79810,1,8,0:0:0:0:
472,103,79972,2,0,L|470:176,1,62.5,0|0,1:0|0:0,0:0:0:0:
465,246,80296,2,0,P|443:302|385:335,1,125,8|0,0:0|0:0,0:0:0:0:
331,276,80783,1,0,0:0:0:0:
273,333,80945,6,0,P|220:301|197:244,1,125,0|0,1:0|0:0,0:0:0:0:
197,163,81431,1,0,0:0:0:0:
197,81,81594,2,0,L|155:81,3,31.25,8|0|0|0,0:0|0:0|0:0|0:0,0:0:0:0:
134,54,81918,2,0,P|78:54|38:128,1,125,0|0,1:0|0:0,0:0:0:0:
38,186,82404,1,0,0:0:0:0:
38,186,82567,2,0,L|35:263,1,62.5,0|0,0:0|0:0,0:0:0:0:
30,329,82891,6,0,P|117:275|94:379,1,250,8|4,0:0|0:0,0:0:0:0:
