osu file format v14

[General]
AudioFilename: audio.mp3
AudioLeadIn: 0
PreviewTime: 30889
Countdown: 0
SampleSet: Normal
StackLeniency: 0.7
Mode: 0
LetterboxInBreaks: 0
WidescreenStoryboard: 0

[Editor]
Bookmarks: 263,5070,10008,20728,30334,30889,34014,51327,51887,61583,63827
DistanceSpacing: 3.5
BeatDivisor: 4
GridSize: 8
TimelineZoom: 1

[Metadata]
Title:Give Up The Grudge (Speed Up Ver.)
TitleUnicode:Give Up The Grudge (Speed Up Ver.)
Artist:Gob
ArtistUnicode:Gob
Creator:Stand Jush
Version:Ungrateful
Source:
Tags:
BeatmapID:2224117
BeatmapSetID:1062162

[Difficulty]
HPDrainRate:5
CircleSize:3.8
OverallDifficulty:9
ApproachRate:9.2
SliderMultiplier:1.5
SliderTickRate:1

[Events]
//Background and Video events
0,0,"38816090_p0_master1200.jpg",0,0
//Break Periods
2,5250,9427
//Storyboard Layer 0 (Background)
//Storyboard Layer 1 (Fail)
//Storyboard Layer 2 (Pass)
//Storyboard Layer 3 (Foreground)
//Storyboard Layer 4 (Overlay)
//Storyboard Sound Samples

[TimingPoints]
263,319.148936170213,4,1,0,50,1,0
263,-100,4,1,0,50,0,0
5070,-100,4,1,0,50,0,0
10008,-100,4,1,0,50,0,0
20728,-100,4,1,0,50,0,0
30334,-133.333333333333,4,1,0,50,0,0
30891,-100,4,1,0,50,0,1
51327,-100,4,1,0,50,0,1
61583,-100,4,1,0,50,0,1
63827,-100,4,1,0,50,0,0

[HitObjects]
183,155,263,5,0,0:0:0:0:
249,285,422,1,0,0:0:0:0:
189,69,582,5,0,0:0:0:0:
179,243,741,1,0,0:0:0:0:
256,136,901,5,0,0:0:0:0:
140,310,1060,1,0,0:0:0:0:
328,168,1220,5,0,0:0:0:0:
81,217,1380,1,0,0:0:0:0:
368,272,1539,5,0,0:0:0:0:
147,81,1699,1,0,0:0:0:0:
385,112,1858,5,0,0:0:0:0:
81,217,2018,1,0,0:0:0:0:
435,384,2177,5,0,0:0:0:0:
319,50,2337,1,0,0:0:0:0:
166,218,2497,2,0,P|223:227|253:216,1,75
446,189,2816,5,0,0:0:0:0:
322,266,2975,1,0,0:0:0:0:
199,144,3135,5,0,0:0:0:0:
367,189,3294,1,0,0:0:0:0:
268,65,3454,5,0,0:0:0:0:
322,266,3614,1,0,0:0:0:0:
362,100,3773,5,0,0:0:0:0:
237,316,3933,1,0,0:0:0:0:
420,195,4092,5,0,0:0:0:0:
130,272,4252,1,0,0:0:0:0:
400,288,4411,5,0,0:0:0:0:
52,194,4571,1,0,0:0:0:0:
208,0,4731,5,0,0:0:0:0:
114,348,4890,1,0,0:0:0:0:
370,94,5050,1,0,0:0:0:0:
170,181,9997,5,0,0:0:0:0:
235,289,10156,1,0,0:0:0:0:
339,131,10316,1,0,0:0:0:0:
122,328,10475,2,0,L|107:233,1,75
4,86,10795,2,0,L|35:176,1,75
198,100,11114,5,0,0:0:0:0:
48,292,11273,1,0,0:0:0:0:
230,217,11433,2,0,P|287:208|317:219,1,75
365,384,11752,2,0,P|388:355|398:319,1,75
408,168,12071,1,0,0:0:0:0:
230,217,12231,2,0,B|240:146|240:146|274:73,1,150
436,81,12709,6,0,B|394:81|394:81|364:95,1,75
140,261,13029,2,0,B|140:219|140:219|154:189,1,75
240,60,13348,1,0,0:0:0:0:
326,296,13507,1,0,0:0:0:0:
140,261,13667,5,0,0:0:0:0:
376,175,13826,1,0,0:0:0:0:
98,150,13986,2,0,P|155:141|185:152,1,75
252,327,14305,2,0,P|195:336|165:325,1,75
301,217,14624,1,0,0:0:0:0:
399,323,14784,2,0,P|435:261|455:183,1,150
254,92,15263,5,0,0:0:0:0:
434,60,15422,1,0,0:0:0:0:
301,217,15582,2,0,P|262:259|232:270,1,75
190,194,15901,1,0,0:0:0:0:
339,298,16060,1,0,0:0:0:0:
134,315,16220,2,0,P|76:317|47:303,1,75
67,168,16539,5,0,0:0:0:0:
212,274,16699,1,0,0:0:0:0:
236,96,16858,1,0,0:0:0:0:
206,362,17018,1,0,0:0:0:0:
365,145,17178,2,0,B|387:193|387:193|394:245,1,75
447,384,17497,2,0,B|477:341|477:341|519:309,1,75
470,165,17816,5,0,0:0:0:0:
294,66,17975,2,0,P|349:49|381:55,1,75
218,108,18295,1,0,0:0:0:0:
454,59,18454,1,0,0:0:0:0:
275,220,18614,1,0,0:0:0:0:
110,50,18773,2,0,L|134:120,1,75
33,146,19092,5,0,0:0:0:0:
171,236,19252,1,0,0:0:0:0:
58,354,19412,2,0,L|46:279,1,75
238,331,19731,2,0,B|308:364|308:364|379:374,1,150
384,302,20130,6,0,P|379:274|385:266,1,37.5
467,219,20289,2,0,P|473:201|466:184,1,37.5
342,135,20529,1,0,0:0:0:0:
334,171,20608,1,0,0:0:0:0:
326,207,20688,1,0,0:0:0:0:
207,247,20848,6,0,P|154:227|146:209,1,75
243,102,21167,2,0,P|219:73|183:68,1,75
346,46,21486,2,0,P|369:17|405:12,1,75
421,187,21805,2,0,L|462:93,1,75
396,279,22124,5,0,0:0:0:0:
317,122,22284,1,0,0:0:0:0:
245,354,22443,5,0,0:0:0:0:
299,186,22603,1,0,0:0:0:0:
81,303,22763,5,0,0:0:0:0:
238,221,22922,1,0,0:0:0:0:
238,221,23082,5,0,0:0:0:0:
117,99,23241,1,0,0:0:0:0:
110,224,23401,1,0,0:0:0:0:
246,87,23560,1,0,0:0:0:0:
412,123,23720,2,0,B|364:145|364:145|341:147,1,75
322,301,24039,2,0,P|368:267|382:238,1,75
494,32,24358,2,0,B|503:103|503:103|491:179,1,150
318,91,24837,6,0,P|261:81|231:92,1,75
257,296,25156,1,0,0:0:0:0:
154,109,25316,1,0,0:0:0:0:
140,379,25475,1,0,0:0:0:0:
277,150,25635,1,0,0:0:0:0:
85,251,25795,6,0,P|24:161|44:101,1,150
168,186,26273,2,0,P|178:132|206:118,1,75
268,253,26592,2,0,P|312:222|342:232,1,75
219,344,26912,5,0,0:0:0:0:
437,256,27071,1,0,0:0:0:0:
157,217,27231,5,0,0:0:0:0:
386,168,27390,1,0,0:0:0:0:
229,104,27550,5,0,0:0:0:0:
463,95,27709,1,0,0:0:0:0:
125,40,27869,5,0,0:0:0:0:
357,71,28029,1,0,0:0:0:0:
213,256,28188,1,0,0:0:0:0:
220,126,28348,1,0,0:0:0:0:
305,208,28667,1,0,0:0:0:0:
375,108,28986,1,0,0:0:0:0:
460,191,29305,1,0,0:0:0:0:
455,38,29465,5,0,0:0:0:0:
365,287,29624,1,0,0:0:0:0:
325,74,29784,5,0,0:0:0:0:
180,325,29943,1,0,0:0:0:0:
210,30,30103,5,0,0:0:0:0:
4,274,30263,1,0,0:0:0:0:
122,104,30901,5,0,0:0:0:0:
272,276,31060,2,0,P|232:318|202:329,1,75
348,72,31380,1,0,0:0:0:0:
121,228,31539,2,0,P|149:295|216:324,1,150
387,99,32178,5,0,0:0:0:0:
291,350,32337,1,0,0:0:0:0:
307,84,32497,1,0,0:0:0:0:
477,292,32657,1,0,0:0:0:0:
222,180,32816,2,0,P|170:125|135:59,1,150
512,75,33454,5,0,0:0:0:0:
335,314,33614,1,0,0:0:0:0:
214,69,33774,1,0,0:0:0:0:
127,328,33933,1,0,0:0:0:0:
195,150,34093,2,0,P|252:139|282:149,1,75
117,79,34412,5,0,0:0:0:0:
157,355,34571,1,0,0:0:0:0:
346,153,34731,1,0,0:0:0:0:
26,235,34891,5,0,0:0:0:0:
323,303,35050,1,0,0:0:0:0:
267,45,35210,1,0,0:0:0:0:
390,384,35369,2,0,B|427:322|427:322|445:247,1,150
114,254,36008,5,0,0:0:0:0:
331,126,36167,1,0,0:0:0:0:
158,81,36327,1,0,0:0:0:0:
286,298,36486,1,0,0:0:0:0:
81,164,36646,2,0,P|44:161|16:185,1,75
72,350,36965,5,0,0:0:0:0:
232,136,37125,1,0,0:0:0:0:
232,352,37284,1,0,0:0:0:0:
424,162,37444,5,0,0:0:0:0:
108,272,37603,1,0,0:0:0:0:
259,48,37763,1,0,0:0:0:0:
383,301,37923,2,0,P|440:348|507:379,1,150
445,93,38401,5,0,0:0:0:0:
294,270,38561,1,0,0:0:0:0:
342,54,38720,1,0,0:0:0:0:
153,275,38880,1,0,0:0:0:0:
369,181,39040,1,0,0:0:0:0:
83,127,39199,1,0,0:0:0:0:
120,359,39359,1,0,0:0:0:0:
174,73,39518,2,0,P|202:49|239:53,1,75
203,194,39837,5,0,0:0:0:0:
357,97,39997,1,0,0:0:0:0:
278,284,40157,5,0,0:0:0:0:
405,43,40316,1,0,0:0:0:0:
482,363,40476,5,0,0:0:0:0:
467,9,40635,1,0,0:0:0:0:
182,306,40794,5,0,0:0:0:0:
512,98,40954,1,0,0:0:0:0:
318,106,41114,5,0,0:0:0:0:
324,290,41274,2,0,P|287:284|255:264,1,75
512,243,41593,1,0,0:0:0:0:
231,119,41752,2,0,P|194:124|172:153,1,75
377,58,42071,2,0,P|340:52|318:23,1,75
307,239,42391,5,0,0:0:0:0:
18,98,42550,1,0,0:0:0:0:
232,24,42710,1,0,0:0:0:0:
93,314,42869,1,0,0:0:0:0:
270,132,43029,2,0,B|318:110|318:110|370:104,1,75
107,231,43348,2,0,B|58:252|58:252|6:258,1,75
299,313,43667,5,0,0:0:0:0:
171,145,43827,1,0,0:0:0:0:
109,325,43986,1,0,0:0:0:0:
361,133,44146,1,0,0:0:0:0:
61,38,44305,2,0,L|145:25,1,75
451,48,44625,5,0,0:0:0:0:
258,238,44784,1,0,0:0:0:0:
466,178,44944,5,0,0:0:0:0:
140,175,45103,1,0,0:0:0:0:
361,338,45263,5,0,0:0:0:0:
86,58,45423,1,0,0:0:0:0:
371,137,45582,2,0,P|418:169|433:197,1,75
141,247,45901,2,0,P|93:214|78:186,1,75
242,70,46220,5,0,0:0:0:0:
199,331,46380,1,0,0:0:0:0:
384,56,46540,1,0,0:0:0:0:
341,317,46699,1,0,0:0:0:0:
154,134,46859,2,0,B|111:101|111:101|81:58,1,75
338,54,47178,5,0,0:0:0:0:
78,195,47337,1,0,0:0:0:0:
295,258,47497,1,0,0:0:0:0:
0,276,47657,1,0,0:0:0:0:
295,258,47816,1,0,0:0:0:0:
346,13,47976,1,0,0:0:0:0:
483,223,48135,2,0,P|496:294|455:355,1,150
110,196,48614,6,0,P|165:180|196:187,1,75
369,240,48933,1,0,0:0:0:0:
124,60,49093,1,0,0:0:0:0:
170,361,49252,1,0,0:0:0:0:
211,111,49412,2,0,P|244:63|272:49,1,75
227,226,49731,5,0,0:0:0:0:
395,42,49891,1,0,0:0:0:0:
267,346,50050,1,0,0:0:0:0:
6,173,50210,2,0,B|55:152|55:152|107:146,1,75
354,200,50529,1,0,0:0:0:0:
263,79,50688,5,0,0:0:0:0:
229,54,50768,1,0,0:0:0:0:
190,44,50848,1,0,0:0:0:0:
149,49,50928,1,0,0:0:0:0:
113,68,51008,1,0,0:0:0:0:
87,99,51087,1,0,0:0:0:0:
74,138,51167,1,0,0:0:0:0:
86,332,51326,5,0,0:0:0:0:
320,130,51485,2,0,P|355:122|386:142,1,75
173,244,51805,1,0,0:0:0:0:
464,296,51964,1,0,0:0:0:0:
194,70,52124,1,0,0:0:0:0:
464,296,52283,2,0,P|476:330|461:363,1,75
147,304,52602,5,0,0:0:0:0:
425,187,52762,1,0,0:0:0:0:
138,118,52922,1,0,0:0:0:0:
416,1,53081,1,0,0:0:0:0:
262,280,53241,2,0,B|228:322|228:322|184:351,1,75
94,54,53560,5,0,0:0:0:0:
117,285,53719,1,0,0:0:0:0:
402,93,53879,1,0,0:0:0:0:
171,116,54039,1,0,0:0:0:0:
328,368,54198,1,0,0:0:0:0:
305,137,54358,1,0,0:0:0:0:
32,178,54517,2,0,L|141:190,1,75
427,194,54837,5,0,0:0:0:0:
211,311,54996,1,0,0:0:0:0:
211,75,55156,5,0,0:0:0:0:
123,334,55315,1,0,0:0:0:0:
123,50,55475,5,0,0:0:0:0:
300,334,55634,1,0,0:0:0:0:
300,50,55794,5,0,0:0:0:0:
508,208,55954,1,0,0:0:0:0:
149,208,56113,5,0,0:0:0:0:
460,37,56273,1,0,0:0:0:0:
307,248,56432,5,0,0:0:0:0:
149,116,56592,1,0,0:0:0:0:
323,352,56751,1,0,0:0:0:0:
305,102,56911,1,0,0:0:0:0:
42,187,57071,2,0,P|79:231|108:242,1,75
320,352,57390,5,0,0:0:0:0:
131,92,57549,1,0,0:0:0:0:
437,192,57709,1,0,0:0:0:0:
131,291,57868,1,0,0:0:0:0:
320,31,58028,1,0,0:0:0:0:
320,352,58188,1,0,0:0:0:0:
131,92,58347,2,0,B|207:102|207:102|272:132,1,150
437,192,58826,1,0,0:0:0:0:
205,277,58985,5,0,0:0:0:0:
309,53,59145,1,0,0:0:0:0:
233,338,59305,2,0,P|206:313|204:276,1,75
373,196,59624,5,0,0:0:0:0:
149,92,59783,1,0,0:0:0:0:
434,168,59943,2,0,P|409:194|372:196,1,75
149,92,60262,5,0,0:0:0:0:
112,218,60422,1,0,0:0:0:0:
275,128,60581,1,0,0:0:0:0:
238,254,60741,1,0,0:0:0:0:
114,29,60900,5,0,0:0:0:0:
48,252,61060,1,0,0:0:0:0:
338,93,61219,1,0,0:0:0:0:
272,316,61379,1,0,0:0:0:0:
112,218,61539,5,0,0:0:0:0:
303,137,61698,1,0,0:0:0:0:
208,335,61858,5,0,0:0:0:0:
239,77,62017,1,0,0:0:0:0:
412,274,62177,5,0,0:0:0:0:
152,79,62337,1,0,0:0:0:0:
442,74,62496,5,0,0:0:0:0:
68,233,62656,1,0,0:0:0:0:
478,191,62815,5,0,0:0:0:0:
33,137,62975,1,0,0:0:0:0:
454,332,63134,5,0,0:0:0:0:
59,34,63294,1,0,0:0:0:0:
468,0,63454,5,0,0:0:0:0:
33,327,63613,1,0,0:0:0:0:
512,42,63773,1,0,0:0:0:0:
