osu file format v14

[General]
AudioFilename: audio.mp3
AudioLeadIn: 0
PreviewTime: 6075
Countdown: 0
SampleSet: Soft
StackLeniency: 0.2
Mode: 0
LetterboxInBreaks: 0
WidescreenStoryboard: 1

[Editor]
DistanceSpacing: 1.6
BeatDivisor: 6
GridSize: 32
TimelineZoom: 1.800001

[Metadata]
Title:Friendly Shop
TitleUnicode:フレンドリィショップ
Artist:Go Ichinose
ArtistUnicode:一之瀬剛
Creator:Linada
Version:Akitoshi's Hard
Source:ポケットモンスター オメガルビー・アルファサファイア
Tags:Pokemon Pokémart Poké Poke Mart Shop Pokémon Omega Ruby & Alpha Sapphire 足立 美奈子 Minako Adachi gen6 generation oras Akitoshi Corinn -Laura- Shiinoha Kotone Tomadoi Kyuukai yaleufeu Kalibe Sotarks Hobbes2
BeatmapID:1722306
BeatmapSetID:779334

[Difficulty]
HPDrainRate:5
CircleSize:3.8
OverallDifficulty:6
ApproachRate:7.5
SliderMultiplier:1.4
SliderTickRate:1

[Events]
//Background and Video events
0,0,"awi.jpg",0,0
//Break Periods
2,33713,35688
2,39713,41688
//Storyboard Layer 0 (Background)
//Storyboard Layer 1 (Fail)
//Storyboard Layer 2 (Pass)
//Storyboard Layer 3 (Foreground)
//Storyboard Sound Samples

[TimingPoints]
513,375,4,2,1,40,1,0
5200,-100,4,2,1,5,0,0
5263,-100,4,2,1,40,0,0
6138,-100,4,2,1,45,0,0
6513,-90.9090909090909,4,2,1,50,0,0
39513,-111.111111111111,4,2,1,50,0,0
42513,-90.9090909090909,4,2,1,50,0,0

[Colours]
Combo1 : 255,201,36
Combo2 : 2,200,242
Combo3 : 52,224,125
Combo4 : 244,72,98

[HitObjects]
244,38,513,6,0,B|333:20|333:20|372:53,1,140,2|10,0:1|0:0,0:0:0:0:
508,228,1263,2,0,B|419:210|419:210|380:243,1,140,2|10,0:1|0:0,0:0:0:0:
282,351,1888,1,0,0:0:0:0:
282,351,2013,6,0,P|231:348|172:344,1,93.3333333333333,2|2,0:1|0:1,0:0:0:0:
131,297,2388,2,0,P|80:300|21:304,1,93.3333333333333,10|0,0:0|0:0,0:0:0:0:
3,236,2763,2,0,P|0:183|24:117,1,93.3333333333333,2|2,0:1|0:1,0:0:0:0:
50,80,3138,1,10,0:0:0:0:
189,134,3388,1,2,0:1:0:0:
189,134,3513,6,0,L|341:126,1,140,2|10,0:1|0:0,0:0:0:0:
477,294,4263,2,0,L|325:286,1,140,2|10,0:1|0:0,0:0:0:0:
113,270,5013,6,0,B|93:226|93:226|102:177,1,93.3333333333333,8|8,0:0|0:0,0:1:0:0:
148,116,5388,2,0,L|143:59,2,46.6666666666667,2|2|2,0:0|0:1|0:1,0:0:0:0:
207,168,5763,2,0,P|261:181|303:169,1,93.3333333333333,2|2,0:1|0:1,0:0:0:0:
352,115,6138,2,0,L|412:124,2,46.6666666666667,8|2|2,0:0|0:1|0:1,0:0:0:0:
286,64,6513,6,0,P|225:42|136:76,1,154.000004699707,6|10,0:0|0:0,0:0:0:0:
70,217,7138,1,2,0:0:0:0:
70,217,7263,2,0,L|195:231,1,102.666669799805,2|0,0:1|0:0,0:0:0:0:
235,281,7638,2,0,L|360:267,1,102.666669799805,8|2,0:0|0:0,0:0:0:0:
416,248,8013,6,0,P|437:195|425:136,1,102.666669799805,2|2,0:1|0:0,0:0:0:0:
387,81,8388,1,10,0:0:0:0:
249,170,8638,2,0,P|182:188|114:140,1,154.000004699707,2|0,0:0|0:0,0:0:0:0:
51,90,9138,2,0,L|-1:94,2,51.3333348999024,10|2|2,0:0|0:0|0:0,0:0:0:0:
110,33,9513,6,0,L|271:40,1,154.000004699707,2|10,0:1|0:0,0:0:0:0:
409,117,10138,1,2,0:0:0:0:
409,117,10263,2,0,P|426:168|414:223,1,102.666669799805,2|0,0:1|0:0,0:0:0:0:
374,286,10638,2,0,P|323:269|268:281,1,102.666669799805,8|2,0:0|0:0,0:0:0:0:
224,341,11013,6,0,L|97:330,1,102.666669799805,2|2,0:1|0:0,0:0:0:0:
39,325,11388,1,10,0:0:0:0:
1,165,11638,2,0,B|13:51|13:51|51:85,1,154.000004699707,2|0,0:0|0:0,0:0:0:0:
95,140,12138,2,0,L|88:200,2,51.3333348999024,10|2|2,0:0|0:0|0:0,0:0:0:0:
153,82,12513,6,0,P|219:62|310:99,1,154.000004699707,2|10,0:1|0:0,0:0:0:0:
427,188,13138,1,2,0:0:0:0:
427,188,13263,2,0,L|417:319,1,102.666669799805,2|2,0:1|0:0,0:0:0:0:
346,330,13638,2,0,L|351:390,2,51.3333348999024,10|0|2,0:0|0:0|0:0,0:0:0:0:
314,254,14013,5,2,0:1:0:0:
161,205,14263,1,0,0:0:0:0:
161,205,14388,2,0,P|111:217|54:196,1,102.666669799805,10|0,0:0|0:0,0:0:0:0:
63,120,14763,2,0,P|113:108|170:129,1,102.666669799805,2|0,0:1|0:0,0:0:0:0:
231,164,15138,2,0,B|243:198|243:198|235:278,1,102.666669799805,10|0,0:0|0:0,0:0:0:0:
222,345,15513,5,2,0:1:0:0:
463,294,15888,2,0,B|451:260|451:260|459:180,1,102.666669799805,12|0,0:0|0:0,0:0:0:0:
467,112,16263,1,2,0:1:0:0:
225,63,16638,2,0,B|237:97|237:97|229:177,1,102.666669799805,14|2,0:0|0:0,0:0:0:0:
196,237,17013,6,0,P|130:248|81:225,1,102.666669799805,2|0,0:1|0:0,0:0:0:0:
32,186,17388,2,0,L|35:132,2,51.3333348999024,14|2|2,0:0|0:0|0:0,0:0:0:0:
4,268,17763,1,2,0:0:0:0:
4,268,17888,2,0,L|7:319,1,51.3333348999024,10|0,0:0|0:0,0:0:0:0:
88,364,18138,2,0,L|93:300,1,51.3333348999024,10|0,0:0|0:0,0:0:0:0:
145,249,18388,1,2,0:0:0:0:
145,249,18513,6,0,P|215:265|287:229,1,154.000004699707,6|10,0:0|0:0,0:0:0:0:
363,84,19138,1,2,0:0:0:0:
363,84,19263,2,0,P|411:75|469:95,1,102.666669799805,2|0,0:1|0:0,0:0:0:0:
495,165,19638,2,0,P|504:213|484:271,1,102.666669799805,8|2,0:0|0:0,0:0:0:0:
428,319,20013,6,0,B|364:309|364:309|315:325,1,102.666669799805,2|2,0:1|0:1,0:0:0:0:
256,361,20388,1,8,0:0:0:0:
93,334,20638,2,0,P|66:268|98:173,1,154.000004699707,2|2,0:0|0:0,0:0:0:0:
142,131,21138,1,8,0:0:0:0:
251,253,21388,1,2,0:0:0:0:
251,253,21513,6,0,B|355:262|355:262|379:253|402:219,1,154.000004699707,2|10,0:1|0:0,0:0:0:0:
461,81,22138,1,2,0:0:0:0:
461,81,22263,2,0,L|353:74,1,102.666669799805,2|0,0:1|0:0,0:0:0:0:
289,29,22638,2,0,L|181:36,1,102.666669799805,8|2,0:0|0:0,0:0:0:0:
104,48,23013,6,0,P|88:94|101:168,1,102.666669799805,2|2,0:1|0:1,0:0:0:0:
121,224,23388,1,8,0:0:0:0:
278,178,23638,2,0,P|350:169|417:235,1,154.000004699707,0|0,0:0|0:0,0:0:0:0:
448,290,24138,2,0,L|510:284,2,51.3333348999024,10|2|2,0:0|0:0|0:0,0:0:0:0:
398,355,24513,6,0,B|351:328|351:328|244:337,1,154.000004699707,2|10,0:1|0:0,0:0:0:0:
86,346,25138,1,2,0:0:0:0:
86,346,25263,2,0,P|72:279|84:240,1,102.666669799805,2|0,0:1|0:0,0:0:0:0:
94,166,25638,2,0,L|30:170,2,51.3333348999024,10|0|2,0:0|0:0|0:0,0:0:0:0:
159,117,26013,6,0,L|285:124,1,102.666669799805,2|0,0:1|0:0,0:0:0:0:
339,147,26388,2,0,L|415:142,2,51.3333348999024,10|2|2,0:0|0:0|0:1,0:0:0:0:
336,229,26763,2,0,L|404:263,2,51.3333348999024,2|2|2,0:1|0:0|0:1,0:0:0:0:
298,301,27138,1,10,0:0:0:0:
264,333,27263,1,2,0:0:0:0:
218,341,27388,1,2,0:0:0:0:
173,329,27513,5,2,0:1:0:0:
7,186,27888,2,0,B|0:257|0:257|17:298,1,102.666669799805,14|0,0:0|0:0,0:0:0:0:
55,356,28263,1,2,0:1:0:0:
298,301,28638,2,0,B|305:230|305:230|288:189,1,102.666669799805,14|2,0:0|0:0,0:0:0:0:
225,153,29013,6,0,P|223:82|257:45,1,102.666669799805,2|0,0:1|0:0,0:0:0:0:
316,27,29388,1,14,0:0:0:0:
463,99,29638,1,2,0:0:0:0:
463,99,29763,2,0,B|477:135|477:135|469:208,1,102.666669799805,2|0,0:1|0:0,0:0:0:0:
427,269,30138,2,0,L|432:322,2,51.3333348999024,10|8|8,0:0|0:0|0:0,0:0:0:0:
367,211,30513,6,0,P|286:186|207:208,2,154.000004699707,10|10|10,0:0|0:0|0:0,0:0:0:0:
283,353,31513,1,10,0:0:0:0:
283,353,31638,1,8,0:0:0:0:
166,312,31825,6,0,B|105:292|56:313|56:313|41:278|7:263,1,179.666672149658,2|2,0:0|0:0,0:0:0:0:
0,182,32388,2,0,L|6:80,1,102.666669799805,8|2,0:0|0:0,0:0:0:0:
67,24,32763,1,4,0:0:0:0:
224,86,33013,1,0,0:0:0:0:
224,86,33138,2,0,P|268:104|326:92,1,102.666669799805,8|0,0:0|0:0,0:0:0:0:
382,39,33513,5,2,0:1:0:0:
255,12,36513,6,0,B|278:55|278:55|252:177,2,154.000004699707,10|10|10,0:0|0:0|0:0,0:0:0:0:
112,94,37513,1,2,0:0:0:0:
112,94,37638,2,0,P|108:124|116:157,1,51.3333348999024,8|0,0:0|0:0,0:0:0:0:
181,187,37888,6,0,P|259:181|350:176,1,154.000004699707,2|0,0:0|0:0,0:0:0:0:
399,227,38388,2,0,P|412:254|412:291,2,51.3333348999024,10|2|2,0:0|0:0|0:1,0:0:0:0:
332,276,38763,1,14,0:0:0:0:
332,276,38888,2,0,L|270:281,1,51.3333348999024,2|2,0:0|0:1,0:0:0:0:
198,290,39138,1,10,0:0:0:0:
163,321,39263,1,2,0:0:0:0:
117,328,39388,1,2,0:1:0:0:
76,318,39513,5,2,0:1:0:0:
335,373,42513,6,0,L|341:255,1,102.666669799805,2|0,0:1|0:0,0:0:0:0:
383,200,42888,2,0,L|377:82,1,102.666669799805,10|2,0:0|0:0,0:0:0:0:
372,15,43263,1,2,0:1:0:0:
222,82,43513,1,0,0:0:0:0:
222,82,43638,2,0,P|172:97|123:82,1,102.666669799805,10|0,0:0|0:0,0:0:0:0:
52,43,44013,6,0,P|27:88|34:155,1,102.666669799805,2|0,0:1|0:0,0:0:0:0:
57,214,44388,1,10,0:0:0:0:
197,298,44638,1,0,0:0:0:0:
197,298,44763,2,0,L|302:288,1,102.666669799805,2|0,0:1|0:0,0:0:0:0:
372,251,45138,2,0,L|424:255,2,51.3333348999024,10|2|2,0:0|0:0|0:0,0:0:0:0:
328,180,45513,6,0,P|279:167|217:178,1,102.666669799805,2|0,0:1|0:0,0:0:0:0:
158,217,45888,2,0,P|109:230|47:219,1,102.666669799805,8|0,0:0|0:0,0:0:0:0:
0,165,46263,1,2,0:1:0:0:
131,66,46513,1,0,0:0:0:0:
131,66,46638,2,0,L|126:12,2,51.3333348999024,10|2|2,0:0|0:0|0:0,0:0:0:0:
185,127,47013,6,0,P|238:133|291:115,1,102.666669799805,0|0,0:0|0:0,0:0:0:0:
344,62,47388,2,0,L|339:8,2,51.3333348999024,10|2|2,0:0|0:0|0:1,0:0:0:0:
418,96,47763,2,0,L|440:46,2,51.3333348999024,2|2|2,0:0|0:0|0:1,0:0:0:0:
375,166,48138,1,10,0:0:0:0:
359,209,48263,1,2,0:1:0:0:
359,255,48388,1,2,0:1:0:0:
377,297,48513,5,6,0:0:0:0:
