osu file format v14

[General]
AudioFilename: audio.mp3
AudioLeadIn: 0
PreviewTime: 20873
Countdown: 0
SampleSet: Soft
StackLeniency: 0.7
Mode: 3
LetterboxInBreaks: 0
SpecialStyle: 0
WidescreenStoryboard: 1

[Editor]
DistanceSpacing: 0.8
BeatDivisor: 4
GridSize: 16
TimelineZoom: 1

[Metadata]
Title:Magma Dan Toujou!
TitleUnicode:Magma Dan Toujou!
Artist:Go ichinose
ArtistUnicode:Go ichinose
Creator:SwitchAxe
Version:EZ
Source:Pokemon
Tags:nintendo pocket monsters pokemon omega ruby and alpha sapphire team magma appears hideaki kuroda game freak junichi masuda
BeatmapID:1022266
BeatmapSetID:470268

[Difficulty]
HPDrainRate:8
CircleSize:4
OverallDifficulty:8
ApproachRate:5
SliderMultiplier:1.4
SliderTickRate:1

[Events]
//Background and Video events
0,0,"MAGMA_HIDEOUT_converted.jpg",0,0
//Break Periods
//Storyboard Layer 0 (Background)
//Storyboard Layer 1 (Fail)
//Storyboard Layer 2 (Pass)
//Storyboard Layer 3 (Foreground)
//Storyboard Sound Samples

[TimingPoints]
874,405.405405405405,4,2,0,10,1,0
874,-100,4,2,0,10,0,1
8982,-100,4,2,0,10,0,0
20738,-113.636363636364,4,2,0,10,0,0
21549,-100,4,2,0,10,0,1
30063,-100,4,2,0,10,0,0
41955,-113.636363636364,4,2,0,10,0,0
42630,-100,4,2,0,10,0,0

[HitObjects]
320,192,874,5,0,0:0:0:0:
320,192,1279,1,0,0:0:0:0:
192,192,1684,1,0,0:0:0:0:
192,192,2090,1,0,0:0:0:0:
448,192,2495,1,0,0:0:0:0:
64,192,2901,1,0,0:0:0:0:
192,192,2901,1,0,0:0:0:0:
320,192,3306,1,0,0:0:0:0:
192,192,3711,1,0,0:0:0:0:
64,192,3711,1,0,0:0:0:0:
320,192,4117,1,0,0:0:0:0:
448,192,4319,1,0,0:0:0:0:
320,192,4522,1,0,0:0:0:0:
64,192,4522,1,0,0:0:0:0:
192,192,4928,1,0,0:0:0:0:
320,192,5130,1,0,0:0:0:0:
64,192,5333,1,0,0:0:0:0:
448,192,5333,1,0,0:0:0:0:
192,192,5738,1,0,0:0:0:0:
320,192,6144,1,0,0:0:0:0:
448,192,6144,1,0,0:0:0:0:
64,192,6549,1,0,0:0:0:0:
320,192,6955,1,0,0:0:0:0:
448,192,6955,1,0,0:0:0:0:
64,192,7360,1,0,0:0:0:0:
192,192,7563,1,0,0:0:0:0:
320,192,7765,1,0,0:0:0:0:
448,192,7765,1,0,0:0:0:0:
64,192,8171,1,0,0:0:0:0:
192,192,8373,1,0,0:0:0:0:
64,192,8576,1,0,0:0:0:0:
448,192,8576,1,0,0:0:0:0:
64,192,8982,128,0,9792:0:0:0:0:
192,192,8982,1,0,0:0:0:0:
448,192,9792,128,0,10603:0:0:0:0:
320,192,9792,1,0,0:0:0:0:
64,192,10603,128,0,11414:0:0:0:0:
192,192,10603,1,0,0:0:0:0:
448,192,11414,128,0,12225:0:0:0:0:
320,192,11414,1,0,0:0:0:0:
64,192,12225,128,0,13036:0:0:0:0:
192,192,12225,1,0,0:0:0:0:
320,192,12630,1,0,0:0:0:0:
192,192,13036,128,0,13846:0:0:0:0:
448,192,13036,1,0,0:0:0:0:
320,192,13441,1,0,0:0:0:0:
320,192,13846,128,0,14657:0:0:0:0:
64,192,13846,1,0,0:0:0:0:
192,192,14252,1,0,0:0:0:0:
448,192,14657,128,0,15468:0:0:0:0:
64,192,14657,1,0,0:0:0:0:
192,192,15063,1,0,0:0:0:0:
64,192,15468,1,0,0:0:0:0:
320,192,15468,1,0,0:0:0:0:
320,192,16076,1,0,0:0:0:0:
64,192,16076,1,0,0:0:0:0:
448,192,17090,1,0,0:0:0:0:
192,192,17090,1,0,0:0:0:0:
448,192,17698,128,0,18103:0:0:0:0:
320,192,18103,128,0,18509:0:0:0:0:
192,192,18509,128,0,18711:0:0:0:0:
448,192,18711,1,0,0:0:0:0:
64,192,18711,1,0,0:0:0:0:
448,192,19319,1,0,0:0:0:0:
64,192,19319,1,0,0:0:0:0:
64,192,20333,1,0,0:0:0:0:
448,192,20333,1,0,0:0:0:0:
320,192,20873,1,0,0:0:0:0:
448,192,21009,1,0,0:0:0:0:
64,192,21279,1,0,0:0:0:0:
192,192,21414,1,0,0:0:0:0:
448,192,21549,1,0,0:0:0:0:
320,192,21684,1,0,0:0:0:0:
64,192,21955,1,0,0:0:0:0:
64,192,22360,1,0,0:0:0:0:
448,192,22765,1,0,0:0:0:0:
448,192,23171,1,0,0:0:0:0:
192,192,23576,1,0,0:0:0:0:
64,192,23982,1,0,0:0:0:0:
320,192,23982,1,0,0:0:0:0:
448,192,24387,1,0,0:0:0:0:
320,192,24792,1,0,0:0:0:0:
64,192,24792,1,0,0:0:0:0:
448,192,25198,1,0,0:0:0:0:
320,192,25401,1,0,0:0:0:0:
192,192,25603,1,0,0:0:0:0:
64,192,25603,1,0,0:0:0:0:
320,192,26009,1,0,0:0:0:0:
448,192,26211,1,0,0:0:0:0:
320,192,26414,1,0,0:0:0:0:
64,192,26414,1,0,0:0:0:0:
448,192,26819,1,0,0:0:0:0:
192,192,27225,1,0,0:0:0:0:
320,192,27225,1,0,0:0:0:0:
448,192,27630,1,0,0:0:0:0:
64,192,28036,1,0,0:0:0:0:
192,192,28036,1,0,0:0:0:0:
448,192,28441,1,0,0:0:0:0:
320,192,28644,1,0,0:0:0:0:
192,192,28846,1,0,0:0:0:0:
64,192,28846,1,0,0:0:0:0:
320,192,29252,1,0,0:0:0:0:
448,192,29455,1,0,0:0:0:0:
64,192,29657,1,0,0:0:0:0:
320,192,29657,1,0,0:0:0:0:
448,192,30063,1,0,0:0:0:0:
320,192,30063,1,0,0:0:0:0:
192,192,30468,1,0,0:0:0:0:
320,192,30873,1,0,0:0:0:0:
64,192,30873,1,0,0:0:0:0:
448,192,31279,1,0,0:0:0:0:
64,192,31684,1,0,0:0:0:0:
192,192,31684,1,0,0:0:0:0:
320,192,32090,1,0,0:0:0:0:
192,192,32495,1,0,0:0:0:0:
448,192,32495,1,0,0:0:0:0:
320,192,32901,1,0,0:0:0:0:
64,192,33306,1,0,0:0:0:0:
192,192,33306,1,0,0:0:0:0:
192,192,33711,1,0,0:0:0:0:
320,192,33711,1,0,0:0:0:0:
320,192,34117,1,0,0:0:0:0:
448,192,34117,1,0,0:0:0:0:
192,192,34522,1,0,0:0:0:0:
320,192,34522,1,0,0:0:0:0:
320,192,34928,1,0,0:0:0:0:
448,192,35130,1,0,0:0:0:0:
192,192,35333,1,0,0:0:0:0:
320,192,35536,1,0,0:0:0:0:
64,192,35738,1,0,0:0:0:0:
192,192,35941,1,0,0:0:0:0:
320,192,36144,1,0,0:0:0:0:
448,192,36346,1,0,0:0:0:0:
64,192,36549,1,0,0:0:0:0:
320,192,36549,1,0,0:0:0:0:
320,192,37157,1,0,0:0:0:0:
64,192,37157,1,0,0:0:0:0:
192,192,38171,1,0,0:0:0:0:
448,192,38171,1,0,0:0:0:0:
64,192,38779,128,0,39184:0:0:0:0:
448,192,39184,128,0,39590:0:0:0:0:
320,192,39590,128,0,39792:0:0:0:0:
64,192,39792,1,0,0:0:0:0:
192,192,39792,1,0,0:0:0:0:
192,192,40401,1,0,0:0:0:0:
64,192,40401,1,0,0:0:0:0:
320,192,41414,1,0,0:0:0:0:
448,192,41414,1,0,0:0:0:0:
64,192,41955,1,0,0:0:0:0:
192,192,42090,1,0,0:0:0:0:
320,192,42360,1,0,0:0:0:0:
448,192,42495,1,0,0:0:0:0:
64,192,42630,1,0,0:0:0:0:
192,192,42765,1,0,0:0:0:0:
448,192,43036,1,0,0:0:0:0:
448,192,43441,1,0,0:0:0:0:
192,192,43846,1,0,0:0:0:0:
192,192,44252,1,0,0:0:0:0:
64,192,44657,128,0,46279:0:0:0:0:
320,192,44657,128,0,46279:0:0:0:0:
