osu file format v14

[General]
AudioFilename: audio.mp3
AudioLeadIn: 0
PreviewTime: 30094
Countdown: 1
SampleSet: None
StackLeniency: 0.4
Mode: 0
LetterboxInBreaks: 0
WidescreenStoryboard: 1

[Editor]
Bookmarks: 8100,17738
DistanceSpacing: 0.8
BeatDivisor: 4
GridSize: 4
TimelineZoom: 1.6

[Metadata]
Title:Trick House
TitleUnicode:Trick House
Artist:Go Ichinose
ArtistUnicode:Go Ichinose
Creator:iWhorse
Version:fkz hard
Source:Pokemon Ruby, Sapphire, & Emerald
Tags:
BeatmapID:1747560
BeatmapSetID:819981

[Difficulty]
HPDrainRate:5
CircleSize:3.5
OverallDifficulty:7
ApproachRate:7.5
SliderMultiplier:1.9
SliderTickRate:1

[Events]
//Background and Video events
0,0,"1438251839079.jpg",0,0
//Break Periods
//Storyboard Layer 0 (Background)
//Storyboard Layer 1 (Fail)
//Storyboard Layer 2 (Pass)
//Storyboard Layer 3 (Foreground)
//Storyboard Sound Samples

[TimingPoints]
2229,443.131462333826,4,1,0,40,1,0
30589,-100,4,1,0,40,0,1

[HitObjects]
188,93,2229,6,0,L|252:89,2,47.5
112,56,2672,2,0,L|64:58,2,47.5
119,138,3115,6,0,P|127:170|107:245,1,95
80,346,3558,2,0,P|103:323|178:302,1,95
241,319,4001,6,0,L|288:316,2,47.5
264,235,4444,2,0,L|216:237,2,47.5
350,257,4887,2,0,P|346:206|294:146,1,95
241,149,5330,2,0,P|245:98|297:38,1,95
345,31,5774,6,0,L|445:44,1,95
506,123,6217,2,0,L|406:136,1,95
351,230,6660,2,0,L|451:217,1,95
510,324,7103,1,0,0:0:0:0:
415,311,7325,1,0,0:0:0:0:
334,359,7546,5,0,0:0:0:0:
334,359,7657,2,0,P|282:339|225:349,1,95
220,350,7989,1,0,0:0:0:0:
140,338,8211,1,0,0:0:0:0:
83,240,8432,5,0,0:0:0:0:
83,240,8543,2,0,L|203:261,1,95
199,262,8875,1,0,0:0:0:0:
274,235,9097,1,0,0:0:0:0:
330,173,9319,6,0,L|325:121,2,47.5
410,134,9762,2,0,L|405:82,2,47.5
440,7,10205,2,0,P|384:4|335:41,1,95
274,56,10648,2,0,P|218:59|169:22,1,95
102,30,11091,6,0,L|38:35,2,47.5
64,117,11534,2,0,L|16:113,2,47.5
150,112,11977,2,0,P|135:165|90:198,1,95
18,254,12421,2,0,P|72:259|113:298,1,95
164,342,12864,6,0,L|269:329,1,95
325,280,13307,2,0,L|430:267,1,95
487,194,13750,2,0,L|382:181,1,95
326,132,14193,1,0,0:0:0:0:
231,120,14415,1,0,0:0:0:0:
140,134,14636,5,0,0:0:0:0:
140,134,14747,1,0,0:0:0:0:
140,134,14858,2,0,P|173:51|294:54,1,190
264,35,15522,6,0,L|330:25,1,47.5
386,35,15744,2,0,L|340:43,1,47.5
320,119,15966,2,0,L|367:127,1,47.5
489,102,16188,2,0,L|442:94,1,47.5
240,130,16409,6,0,P|231:153|230:190,2,47.5
150,178,16852,2,0,P|153:202|171:234,2,47.5
96,264,17295,2,0,P|111:283|142:302,2,47.5
92,366,17738,2,0,P|115:375|152:376,2,47.5,0|0|0,0:3|0:3|0:3,0:3:0:0:
207,328,18181,6,0,P|211:304|220:282,2,47.5,0|0|0,0:3|0:3|0:3,0:3:0:0:
298,375,18624,2,0,P|289:352|286:329,2,47.5
400,371,19067,2,0,P|381:356|367:337,2,47.5
440,305,19511,2,0,P|448:248|416:182,1,95
422,194,19843,1,0,0:0:0:0:
403,166,19954,6,0,L|411:91,1,47.5
308,52,20286,2,0,L|316:127,2,47.5
210,173,20729,2,0,L|216:126,2,47.5
115,59,21172,1,0,0:0:0:0:
115,59,21283,2,0,L|8:70,1,95
0,187,21726,6,0,P|24:199|57:195,3,47.5
111,306,22280,2,0,P|109:279|89:252,2,47.5
185,341,22613,2,0,L|253:334,1,47.5
228,254,22834,2,0,L|275:258,1,47.5
362,236,23056,2,0,P|359:295|386:334,1,95
428,171,23499,6,0,L|485:163,2,47.5
438,85,23942,2,0,L|409:48,2,47.5
358,118,24385,2,0,L|340:162,2,47.5
260,138,24828,2,0,L|277:93,2,47.5
191,85,25271,6,0,L|143:91,2,47.5
180,172,25714,2,0,L|210:210,2,47.5
63,106,26158,2,0,L|15:112,2,47.5
95,183,26601,2,0,P|82:234|95:297,1,95
98,296,26933,1,0,0:0:0:0:
116,310,27044,6,0,L|230:319,1,95
289,347,27487,2,0,L|383:339,1,95
464,358,27930,2,0,L|473:244,1,95
501,185,28373,2,0,L|493:90,1,95
489,11,28816,6,0,L|419:3,3,47.5
366,48,29260,2,0,L|319:54,3,47.5
215,42,29813,1,0,0:0:0:0:
215,42,29924,2,0,L|225:114,1,47.5
277,145,30146,2,0,P|226:138|174:170,1,95
149,239,30589,6,0,L|351:217,1,190
432,209,31254,1,0,0:0:0:0:
432,209,31364,1,0,0:0:0:0:
432,209,31475,2,0,P|410:257|421:312,1,95
423,320,31808,1,0,0:0:0:0:
436,339,31918,2,0,L|336:351,1,95
261,326,32361,6,0,B|123:309|197:359|34:339,1,190
13,288,33026,1,0,0:0:0:0:
13,288,33137,1,0,0:0:0:0:
13,288,33248,2,0,P|23:225|14:170,1,95
13,171,33580,1,0,0:0:0:0:
8,147,33691,2,0,L|21:46,1,95
97,17,34134,6,0,B|228:5|228:5|298:36,1,190
340,101,34799,1,0,0:0:0:0:
340,101,34909,1,0,0:0:0:0:
340,101,35020,2,0,P|381:123|436:116,1,95
450,111,35353,1,0,0:0:0:0:
468,96,35463,2,0,L|454:195,1,95
502,272,35906,6,0,P|444:289|411:320,1,95
295,207,36350,2,0,P|343:210|385:232,1,95
215,208,36793,2,0,P|167:211|125:233,1,95
9,271,37237,2,0,P|55:281|93:310,1,95
56,194,37679,6,0,P|35:113|120:28,1,190
184,39,38344,1,0,0:0:0:0:
184,39,38454,1,0,0:0:0:0:
184,39,38565,2,0,B|252:46|252:46|280:70,1,95
285,77,38898,1,0,0:0:0:0:
300,94,39008,2,0,L|394:86,1,95
445,23,39452,6,0,B|451:94|451:94|422:144|422:144|430:227,1,190
432,227,40005,1,0,0:0:0:0:
435,250,40116,2,0,P|428:311|410:344,1,95
395,357,40449,2,0,L|268:349,1,95
276,350,40781,2,0,P|227:324|153:351,1,95
101,361,41224,6,0,L|112:267,1,95
130,245,41556,2,0,L|119:151,1,95
116,120,41889,1,0,0:0:0:0:
49,62,42110,2,0,P|31:112|38:156,1,95
183,177,42553,2,0,P|201:127|194:83,1,95
136,15,42997,6,0,L|270:5,1,95
316,42,43440,1,0,0:0:0:0:
338,50,43551,2,0,P|386:60|430:52,1,95
452,42,43883,5,0,0:0:0:0:
384,178,44326,1,0,0:0:0:0:
246,94,44769,1,0,0:0:0:0:
