osu file format v14

[General]
AudioFilename: audio.mp3
AudioLeadIn: 0
PreviewTime: 30094
Countdown: 1
SampleSet: Normal
StackLeniency: 0.4
Mode: 0
LetterboxInBreaks: 0
WidescreenStoryboard: 1

[Editor]
Bookmarks: 4001
DistanceSpacing: 1.6
BeatDivisor: 4
GridSize: 16
TimelineZoom: 1.6

[Metadata]
Title:Trick House
TitleUnicode:Trick House
Artist:Go Ichinose
ArtistUnicode:Go Ichinose
Creator:iWhorse
Version:Normal
Source:Pokemon Ruby, Sapphire, & Emerald
Tags:
BeatmapID:1722552
BeatmapSetID:819981

[Difficulty]
HPDrainRate:4
CircleSize:3
OverallDifficulty:4
ApproachRate:5
SliderMultiplier:1.25
SliderTickRate:1

[Events]
//Background and Video events
0,0,"1438251839079.jpg",0,0
//Break Periods
//Storyboard Layer 0 (Background)
//Storyboard Layer 1 (Fail)
//Storyboard Layer 2 (Pass)
//Storyboard Layer 3 (Foreground)
//Storyboard Sound Samples

[TimingPoints]
2229,443.131462333826,4,1,0,40,1,0
30589,-100,4,1,0,40,0,1
44326,-100,4,1,0,40,0,0

[Colours]
Combo1 : 245,213,114
Combo2 : 74,91,121
Combo3 : 125,187,146
Combo4 : 178,104,57

[HitObjects]
63,132,2229,6,0,P|119:108|178:126,1,125
240,204,2893,1,0,0:0:0:0:
289,291,3115,6,0,P|319:298|350:295,1,62.5
439,340,3558,2,0,P|468:331|494:313,1,62.5
468,215,4001,6,0,P|473:153|458:92,1,125
391,18,4666,1,0,0:0:0:0:
317,84,4887,2,0,P|287:94|256:92,1,62.5
165,51,5330,2,0,P|135:41|104:43,1,62.5
27,107,5774,6,0,P|35:168|75:214,2,125
191,220,7103,2,0,P|189:251|175:278,1,62.5
108,353,7546,6,0,B|130:334|130:334|177:357|225:325,1,125
308,277,8211,1,0,0:0:0:0:
370,354,8432,2,0,B|415:343|415:343|447:353|447:353|496:339,1,125
442,252,9097,1,0,0:0:0:0:
342,261,9319,6,0,L|208:269,1,125
117,272,9983,1,0,0:0:0:0:
45,201,10205,2,0,P|74:191|98:171,1,62.5
120,73,10648,2,0,P|150:78|181:75,1,62.5
268,24,11091,6,0,L|410:46,1,125
482,84,11756,1,0,0:0:0:0:
438,172,11977,6,0,P|436:203|448:232,1,62.5
353,266,12421,2,0,P|354:296|342:325,1,62.5
243,336,12864,6,0,P|174:323|132:272,1,125
41,259,13750,2,0,P|110:246|152:195,1,125
206,127,14415,1,0,0:0:0:0:
280,193,14636,6,0,B|314:201|314:201|348:194,1,62.5
126,333,16409,6,0,P|108:273|126:214,1,125
204,153,17073,1,0,0:0:0:0:
107,124,17295,2,0,P|79:109|56:88,2,62.5
292,48,18181,6,0,P|351:62|392:108,1,125
340,194,18846,1,0,0:0:0:0:
439,188,19067,2,0,P|467:161|479:133,2,62.5
288,320,19954,6,0,P|255:276|218:317,1,125
46,214,20840,2,0,P|100:186|160:199,1,125
238,136,21505,1,0,0:0:0:0:
323,184,21726,6,0,P|354:179|380:161,2,62.5
130,134,22613,2,0,P|99:128|73:110,1,62.5
146,42,23056,1,0,0:0:0:0:
338,94,23499,6,0,L|401:111,2,62.5
161,187,24385,2,0,P|108:220|46:219,1,125
233,291,25271,6,0,L|250:354,2,62.5
433,296,26158,6,0,P|436:265|427:235,1,62.5
369,153,26601,2,0,P|365:122|374:92,1,62.5
462,44,27044,6,0,L|318:67,1,125
172,174,27930,2,0,L|48:154,1,125
145,329,28816,5,0,0:0:0:0:
227,274,29038,2,0,P|230:243|220:213,2,62.5
422,321,29924,2,0,P|401:349|370:365,2,62.5
339,263,30589,6,0,B|300:211|300:211|333:85,1,187.5
427,66,31475,2,0,P|427:128|403:185,1,125
228,86,32361,6,0,B|176:47|176:47|50:80,1,187.5
31,174,33247,2,0,P|93:174|150:150,1,125
267,312,34134,6,0,B|243:222|243:222|265:125,1,187.5
357,95,35020,2,0,P|361:157|342:216,1,125
141,216,35906,5,0,0:0:0:0:
255,51,36350,1,0,0:0:0:0:
420,165,36793,1,0,0:0:0:0:
306,330,37236,1,0,0:0:0:0:
141,216,37679,6,0,B|196:191|196:191|331:222,1,187.5
369,306,38565,2,0,P|307:313|248:295,1,125
54,247,39452,6,0,B|94:244|94:244|136:221|136:221|185:215,1,125
240,143,40116,1,0,0:0:0:0:
330,100,40338,2,0,B|366:117|366:117|414:118|414:118|448:132,1,125
329,294,41224,6,0,B|282:281|282:281|236:227,2,93.75
380,208,42110,2,0,L|398:146,1,62.5
309,100,42553,2,0,L|291:38,1,62.5
202,86,42997,6,0,P|146:113|119:168,1,125
297,259,43883,1,0,0:0:0:0:
297,259,44326,1,0,0:0:0:0:
