osu file format v14

[General]
AudioFilename: audio.mp3
AudioLeadIn: 0
PreviewTime: 24467
Countdown: 1
SampleSet: Soft
StackLeniency: 0.7
Mode: 2
LetterboxInBreaks: 0
WidescreenStoryboard: 1

[Editor]
DistanceSpacing: 1
BeatDivisor: 4
GridSize: 8
TimelineZoom: 1

[Metadata]
Title:Southern Island
TitleUnicode:Southern Island
Artist:Go Ichinose
ArtistUnicode:Go Ichinose
Creator:Olib
Version:Salad
Source:Pokémon Omega Ruby And Alpha Sapphire
Tags:pokemon latias latios mega eviolution steve steven
BeatmapID:1037529
BeatmapSetID:486563

[Difficulty]
HPDrainRate:4
CircleSize:3.2
OverallDifficulty:6.4
ApproachRate:6.4
SliderMultiplier:2.2
SliderTickRate:1

[Events]
//Background and Video events
0,0,"62.jpg",0,0
//Break Periods
//Storyboard Layer 0 (Background)
//Storyboard Layer 1 (Fail)
//Storyboard Layer 2 (Pass)
//Storyboard Layer 3 (Foreground)
//Storyboard Sound Samples

[TimingPoints]
467,750,4,2,0,52,1,0
9279,-66.6666666666667,4,2,0,52,0,0
12092,-100,4,2,0,52,0,0
24453,-100,4,2,0,52,0,1
36467,-100,4,2,0,52,0,0
57279,-66.6666666666667,4,2,0,52,0,0
60092,-100,4,2,0,52,0,0
72467,-100,4,2,0,52,0,1
84467,-100,4,2,0,52,0,0

[Colours]
Combo1 : 0,128,255
Combo2 : 0,128,0
Combo3 : 128,128,128
Combo4 : 255,0,255

[HitObjects]
368,176,467,6,0,L|256:192,1,110
32,184,1217,2,0,L|144:192,1,110
288,288,1967,1,0,0:0:0:0:
408,192,2342,2,0,L|520:176,2,110
176,168,3467,6,0,B|207:172|207:172|296:208,1,110
56,48,4217,2,0,B|176:64|176:64|160:64,1,110
384,72,4967,1,0,0:0:0:0:
200,128,5342,2,0,L|88:152,1,110
336,152,6092,1,0,0:0:0:0:
136,248,6467,2,0,L|16:248,1,110
216,344,7217,2,0,L|352:336,1,110
96,144,7967,5,0,0:0:0:0:
296,152,8342,1,0,0:0:0:0:
64,48,8717,2,0,L|208:56,1,110
368,144,9467,2,0,P|432:240|248:272,1,330.000012588501
144,240,10592,1,0,0:0:0:0:
24,304,10967,2,0,B|16:216|16:104|72:56|200:64,1,330.000012588501
56,200,12467,6,0,L|168:176,1,110
392,208,13217,2,0,L|280:176,1,110
56,296,13967,1,0,0:0:0:0:
280,320,14342,2,0,L|400:304,2,110
56,200,15467,6,0,B|160:184|160:184|144:192,1,110
368,200,16217,2,0,L|480:176,1,110
248,288,16967,1,0,0:0:0:0:
40,192,17342,2,0,B|152:192|152:192|136:192,2,110
256,128,18467,2,0,L|136:104,1,110
304,200,19217,2,0,L|440:184,1,110
256,192,19967,12,0,24092,0:0:0:0:
360,200,24467,6,0,L|472:184,1,110
296,288,25217,2,0,L|176:264,1,110
24,176,25967,1,0,0:0:0:0:
224,176,26342,1,0,0:0:0:0:
32,64,26717,2,0,P|152:72|152:72,1,110
368,88,27467,6,0,P|248:80|248:80,1,110
472,184,28217,2,0,L|352:176,1,110
144,184,28967,1,0,0:0:0:0:
344,272,29342,1,0,0:0:0:0:
96,296,29717,2,0,L|232:296,1,110
440,192,30467,6,0,L|328:184,1,110
192,184,31217,1,0,0:0:0:0:
16,64,31592,2,0,L|128:64,1,110
336,104,32342,1,0,0:0:0:0:
88,288,32717,2,0,L|224:296,1,110
432,272,33467,1,0,0:0:0:0:
256,192,33842,12,0,36092,0:0:0:0:
432,320,36467,6,0,L|216:240,1,220
48,64,37592,2,0,L|111:77,2,55
256,96,38342,1,0,0:0:0:0:
464,80,38717,2,0,L|344:112,1,110
64,296,39467,2,0,L|232:256,1,165
376,256,40592,5,0,0:0:0:0:
456,200,40779,1,0,0:0:0:0:
376,152,40967,2,0,L|264:152,1,110
72,152,41717,2,0,L|192:152,1,110
408,296,42467,1,0,0:0:0:0:
328,296,42654,1,0,0:0:0:0:
88,296,43029,1,0,0:0:0:0:
168,296,43217,1,0,0:0:0:0:
336,104,43592,5,0,0:0:0:0:
256,104,43779,1,0,0:0:0:0:
176,184,43967,2,0,L|344:200,1,165
472,208,45092,1,0,0:0:0:0:
224,288,45467,2,0,L|387:310,1,165
120,112,46592,5,0,0:0:0:0:
40,112,46779,1,0,0:0:0:0:
120,192,46967,2,0,L|304:216,1,165
464,192,48092,1,0,0:0:0:0:
259,191,48467,6,0,L|368:176,1,110
168,128,49217,2,0,L|296:104,1,110
48,56,49967,1,0,0:0:0:0:
288,232,50342,2,0,L|179:247,2,110
48,48,51467,6,0,B|79:52|79:52|168:88,1,110
448,128,52217,2,0,B|458:129|458:129|338:113,1,110
80,80,52967,1,0,0:0:0:0:
336,280,53342,2,0,L|224:304,1,110
448,280,54092,1,0,0:0:0:0:
176,192,54467,2,0,L|56:192,1,110
280,320,55217,2,0,L|416:312,1,110
176,152,55967,5,0,0:0:0:0:
368,160,56342,1,0,0:0:0:0:
168,56,56717,2,0,L|58:49,1,110
352,160,57467,2,0,P|216:296|272:336,1,330.000012588501
464,176,58592,1,0,0:0:0:0:
296,64,58967,2,0,B|197:56|32:104|16:248|32:288,1,330.000012588501
368,296,60467,6,0,L|260:319,1,110
456,192,61217,2,0,L|328:216,1,110
112,232,61967,1,0,0:0:0:0:
328,112,62342,2,0,L|216:88,2,110
128,240,63467,6,0,B|132:237|132:237|28:253,1,110
208,336,64217,2,0,L|320:312,1,110
64,56,64967,1,0,0:0:0:0:
336,56,65342,2,0,B|338:56|338:56|226:56,2,110
104,136,66467,2,0,L|211:157,1,110
448,136,67217,2,0,L|338:148,1,110
256,192,67967,12,0,72092,0:0:0:0:
56,160,72467,6,0,L|168:144,1,110
368,168,73217,2,0,L|248:144,1,110
472,312,73967,1,0,0:0:0:0:
256,312,74342,1,0,0:0:0:0:
32,64,74717,2,0,P|152:72|152:72,1,110
368,80,75467,6,0,B|357:79|477:87,1,110
336,160,76217,2,0,L|216:152,1,110
448,168,76967,1,0,0:0:0:0:
264,224,77342,1,0,0:0:0:0:
24,304,77717,2,0,L|160:304,1,110
328,312,78467,6,0,L|216:304,1,110
24,296,79217,1,0,0:0:0:0:
232,152,79592,2,0,L|122:152,1,110
336,104,80342,1,0,0:0:0:0:
136,56,80717,2,0,L|272:64,1,110
472,48,81467,1,0,0:0:0:0:
256,192,81842,12,0,84092,0:0:0:0:
48,64,84467,6,0,L|264:112,1,220
480,160,85592,2,0,L|426:148,2,55
280,96,86342,1,0,0:0:0:0:
80,128,86717,2,0,L|186:99,1,110
472,256,87467,2,0,L|311:294,1,165
136,256,88592,5,0,0:0:0:0:
56,200,88779,1,0,0:0:0:0:
136,152,88967,2,0,L|248:152,1,110
440,152,89717,2,0,L|330:152,1,110
104,296,90467,1,0,0:0:0:0:
184,296,90654,1,0,0:0:0:0:
424,296,91029,1,0,0:0:0:0:
344,296,91217,1,0,0:0:0:0:
176,104,91592,5,0,0:0:0:0:
96,104,91779,1,0,0:0:0:0:
176,192,91967,2,0,L|8:208,1,165
176,280,93092,1,0,0:0:0:0:
368,232,93467,2,0,L|205:210,1,165
448,112,94592,5,0,0:0:0:0:
368,112,94779,1,0,0:0:0:0:
288,192,94967,2,0,L|472:216,1,165
288,80,96092,5,0,0:0:0:0:
72,80,96467,1,0,0:0:0:0:
256,192,96842,12,0,100967,0:0:0:0:
