osu file format v14

[General]
AudioFilename: 225-heavy-rain.mp3
AudioLeadIn: 0
PreviewTime: 157
Countdown: 0
SampleSet: Soft
StackLeniency: 0.3
Mode: 0
LetterboxInBreaks: 0
WidescreenStoryboard: 1

[Editor]
Bookmarks: 894,8426,15958,23491,31023
DistanceSpacing: 1.5
BeatDivisor: 6
GridSize: 4
TimelineZoom: 1.5

[Metadata]
Title:Ooame
TitleUnicode:大雨
Artist:Go Ichinose
ArtistUnicode:一之瀬剛
Creator:pkhg
Version:Hazu's Insane
Source:ポケットモンスター ルビー・サファイア
Tags:hazu- pokemon sapphire ruby emerald gba boy advance nintendo game freak kyogre カイオーガ heavy rain
BeatmapID:1421043
BeatmapSetID:660933

[Difficulty]
HPDrainRate:5.5
CircleSize:4
OverallDifficulty:7.5
ApproachRate:8.8
SliderMultiplier:1.1
SliderTickRate:1

[Events]
//Background and Video events
0,0,"508994.jpg",0,0
//Break Periods
//Storyboard Layer 0 (Background)
//Storyboard Layer 1 (Fail)
//Storyboard Layer 2 (Pass)
//Storyboard Layer 3 (Foreground)
//Storyboard Sound Samples

[TimingPoints]
422,470.772852098862,2,2,1,50,1,0
422,-100,2,2,1,50,0,0
894,470.772852098862,2,2,1,50,1,0
894,-50,2,2,1,50,0,0

[Colours]
Combo1 : 245,82,106
Combo2 : 171,214,211
Combo3 : 28,130,255
Combo4 : 185,181,202

[HitObjects]
156,88,422,6,0,P|160:128|164:188,1,91.6666666666667,0|0,3:0|0:0,0:0:0:0:
200,216,894,6,0,P|204:272|208:320,2,73.3333333333333,8|0|0,0:0|0:0|0:0,0:0:0:0:
252,40,1364,1,8,0:0:0:0:
348,60,1521,2,0,P|388:60|444:40,1,73.3333333333333
152,20,1835,2,0,P|112:20|56:40,1,73.3333333333333,8|0,0:0|0:0,0:0:0:0:
4,128,2149,2,0,P|12:204|20:300,1,146.666666666667,8|0,0:0|3:0,0:0:0:0:
104,380,2620,1,0,0:0:0:0:
120,204,2777,6,0,P|184:160|264:180,1,146.666666666667,8|0,0:0|0:0,0:0:0:0:
344,272,3247,2,0,P|336:228|336:180,1,73.3333333333333,8|0,0:0|0:0,0:0:0:0:
416,64,3561,2,0,P|414:100|406:136,1,73.3333333333333,0|8,0:0|0:0,0:0:0:0:
320,56,3875,1,0,3:0:0:0:
312,40,3954,1,0,0:0:0:0:
304,24,4032,2,0,P|248:16|204:24,1,73.3333333333333,0|8,3:0|0:0,0:0:0:0:
132,72,4346,2,0,P|136:108|140:172,1,73.3333333333333,8|0,0:1|0:0,0:0:0:0:
52,308,4660,6,0,P|55:344|57:381,2,73.3333333333333,8|0|0,0:0|0:0|0:0,0:0:0:0:
36,120,5130,1,8,0:0:0:0:
132,72,5287,2,0,P|176:64|228:72,1,73.3333333333333,0|0,0:0|0:0,0:0:0:0:
368,136,5601,2,0,P|331:137|295:129,1,73.3333333333333,8|0,0:0|0:0,0:0:0:0:
192,172,5915,2,0,B|180:224|180:224|192:336,1,146.666666666667,8|8,0:0|0:1,0:0:0:0:
272,244,6386,1,0,0:0:0:0:
92,224,6543,6,0,P|100:288|108:384,1,146.666666666667,8|0,0:0|0:0,0:0:0:0:
192,172,7014,2,0,P|188:128|184:76,1,73.3333333333333,8|0,0:0|0:0,0:0:0:0:
84,28,7327,2,0,P|88:72|92:124,1,73.3333333333333,0|8,0:0|0:0,0:0:0:0:
192,16,7641,1,0,3:0:0:0:
212,20,7720,1,0,0:0:0:0:
228,24,7798,2,0,P|260:20|320:16,1,73.3333333333333,0|8,3:0|0:0,0:0:0:0:
444,104,8112,2,0,P|412:100|352:96,1,73.3333333333333,8|0,0:1|0:0,0:0:0:0:
192,172,8426,6,0,P|240:220|236:308,1,146.666666666667,2|2,0:0|0:0,0:0:0:0:
92,368,8897,2,0,P|44:320|48:232,1,146.666666666667,2|2,0:0|0:0,0:0:0:0:
128,72,9367,1,2,0:0:0:0:
224,88,9524,1,2,0:0:0:0:
320,100,9681,1,2,0:0:0:0:
344,88,9995,2,0,P|340:132|340:188,1,73.3333333333333,2|2,0:0|0:0,0:0:0:0:
456,344,10309,6,0,P|464:264|412:204,1,146.666666666667,2|0,0:0|0:0,0:0:0:0:
232,188,10780,2,0,P|192:192|68:204,1,146.666666666667,0|2,0:0|0:0,0:0:0:0:
68,204,11172,1,0,0:0:0:0:
52,204,11251,1,2,0:0:0:0:
212,88,11407,2,0,L|264:84,2,36.6666666666667,0|0|0,3:0|0:0|3:0,0:0:0:0:
32,96,11721,1,2,0:0:0:0:
232,188,11878,2,0,P|284:184|340:180,1,73.3333333333333,8|0,0:1|0:0,0:0:0:0:
480,120,12192,6,0,P|488:80|468:24,2,73.3333333333333,2|2|2,0:0|0:0|0:0,0:0:0:0:
396,292,12663,1,2,0:0:0:0:
480,332,12820,2,0,P|488:292|468:236,1,73.3333333333333,2|2,0:0|0:0,0:0:0:0:
352,72,13134,1,2,0:0:0:0:
260,116,13291,2,0,P|172:108|100:104,1,146.666666666667,2|2,0:0|0:0,0:0:0:0:
4,128,13761,1,10,0:1:0:0:
48,32,13918,1,2,0:0:0:0:
104,220,14075,6,0,P|112:288|64:364,1,146.666666666667,2|0,0:0|0:0,0:0:0:0:
256,240,14546,2,0,P|248:172|296:96,1,146.666666666667,0|2,0:0|0:0,0:0:0:0:
300,96,14938,1,0,0:0:0:0:
316,88,15017,1,2,0:0:0:0:
144,132,15174,2,0,P|116:132|80:128,2,36.6666666666667,0|0|0,3:0|0:0|3:0,0:0:0:0:
248,16,15487,1,2,0:0:0:0:
20,60,15644,2,0,P|24:96|28:156,1,73.3333333333333,8|0,0:1|0:0,0:0:0:0:
112,308,15958,6,0,P|116:344|120:404,2,73.3333333333333,8|0|0,0:0|0:0|0:0,0:0:0:0:
160,132,16429,1,8,0:0:0:0:
71,72,16586,2,0,P|58:105|56:142,1,73.3333333333333,0|0,0:0|0:0,0:0:0:0:
248,191,16900,2,0,P|261:158|263:121,1,73.3333333333333,8|0,0:0|0:0,0:0:0:0:
388,28,17214,2,0,P|384:68|376:200,1,146.666666666667,8|0,0:0|3:0,0:0:0:0:
332,296,17684,1,0,0:0:0:0:
160,132,17841,6,0,P|86:135|13:143,1,146.666666666667,8|0,0:0|0:0,0:0:0:0:
168,32,18312,2,0,P|212:28|268:24,1,73.3333333333333,8|0,0:0|0:0,0:0:0:0:
368,108,18626,2,0,P|324:112|268:116,1,73.3333333333333,0|8,0:0|0:0,0:0:0:0:
160,132,18940,1,0,0:0:0:0:
144,136,19018,1,0,3:0:0:0:
128,140,19097,2,0,P|140:176|140:212,1,73.3333333333333,0|8,0:0|0:0,0:0:0:0:
88,324,19411,2,0,P|52:320|0:316,1,73.3333333333333,8|0,0:1|0:0,0:0:0:0:
264,284,19724,6,0,P|300:288|352:292,2,73.3333333333333,8|0|0,0:0|0:0|0:0,0:0:0:0:
48,196,20195,1,8,0:0:0:0:
128,140,20352,2,0,P|140:176|140:212,1,73.3333333333333,0|0,0:0|0:0,0:0:0:0:
0,384,20666,2,0,P|0:347|12:312,1,73.3333333333333,8|0,0:0|0:0,0:0:0:0:
112,296,20980,2,0,B|160:292|160:292|264:308,1,146.666666666667,8|8,0:0|0:1,0:0:0:0:
368,284,21451,1,0,0:0:0:0:
188,192,21608,6,0,P|104:200|12:208,1,146.666666666667,8|0,0:0|0:0,0:0:0:0:
176,92,22078,2,0,P|216:96|264:100,1,73.3333333333333,8|0,0:0|0:0,0:0:0:0:
400,28,22392,2,0,P|360:32|312:36,1,73.3333333333333,0|8,0:0|0:0,0:0:0:0:
344,132,22706,1,0,3:0:0:0:
352,148,22784,1,0,0:0:0:0:
360,164,22863,2,0,P|356:188|352:252,1,73.3333333333333,0|8,3:0|0:0,0:0:0:0:
296,356,23177,2,0,P|276:348|212:340,1,73.3333333333333,8|0,0:1|0:0,0:0:0:0:
20,380,23491,6,0,P|76:340|92:244,1,146.666666666667,2|2,0:0|0:0,0:0:0:0:
168,68,23961,2,0,P|176:160|184:224,1,146.666666666667,2|2,0:0|0:0,0:0:0:0:
304,372,24432,1,2,0:0:0:0:
380,312,24589,1,2,0:0:0:0:
472,344,24746,1,2,0:0:0:0:
492,356,25060,2,0,P|488:308|488:252,1,73.3333333333333,2|2,0:0|0:0,0:0:0:0:
368,132,25374,6,0,B|324:144|324:144|216:132,1,146.666666666667,2|0,0:0|0:0,0:0:0:0:
68,224,25844,2,0,B|112:212|112:212|220:224,1,146.666666666667,0|2,0:0|0:0,0:0:0:0:
228,228,26237,1,0,0:0:0:0:
244,232,26315,1,2,0:0:0:0:
64,120,26472,2,0,L|16:116,2,36.6666666666667,0|0|0,3:0|0:0|3:0,0:0:0:0:
256,136,26786,1,2,0:0:0:0:
68,224,26943,2,0,P|24:220|-24:216,1,73.3333333333333,8|0,0:1|0:0,0:0:0:0:
260,320,27257,6,0,P|280:280|280:236,2,73.3333333333333,2|2|2,0:0|0:0|0:0,0:0:0:0:
188,84,27728,1,2,0:0:0:0:
140,172,27884,2,0,P|144:208|162:240,1,73.3333333333333,2|2,0:0|0:0,0:0:0:0:
476,208,28198,1,2,0:0:0:0:
384,167,28355,2,0,B|344:159|344:159|216:179,1,146.666666666667,2|2,0:0|0:0,0:0:0:0:
161,239,28826,1,10,0:1:0:0:
256,264,28983,1,2,0:0:0:0:
188,56,29140,6,0,P|128:64|28:72,1,146.666666666667,2|0,0:0|0:0,0:0:0:0:
235,167,29611,2,0,P|308:161|380:151,1,146.666666666667,0|2,0:0|0:0,0:0:0:0:
400,148,30003,1,0,0:0:0:0:
416,144,30081,1,2,0:0:0:0:
256,264,30238,2,0,P|252:284|248:316,2,36.6666666666667,0|0|0,3:0|0:0|3:0,0:0:0:0:
292,92,30552,1,2,0:0:0:0:
120,220,30709,2,0,P|124:252|128:308,1,73.3333333333333,8|0,0:1|0:0,0:0:0:0:
308,76,31023,5,8,0:0:0:0:
