osu file format v14

[General]
AudioFilename: 225-heavy-rain.mp3
AudioLeadIn: 0
PreviewTime: 157
Countdown: 0
SampleSet: Soft
StackLeniency: 0.3
Mode: 0
LetterboxInBreaks: 0
WidescreenStoryboard: 1

[Editor]
Bookmarks: 374,8378,15910,23443,30975
DistanceSpacing: 1
BeatDivisor: 6
GridSize: 32
TimelineZoom: 1.5

[Metadata]
Title:Ooame
TitleUnicode:大雨
Artist:Go Ichinose
ArtistUnicode:一之瀬剛
Creator:pkhg
Version:Hard
Source:ポケットモンスター ルビー・サファイア
Tags:hazu- pokemon sapphire ruby emerald gba boy advance nintendo game freak kyogre カイオーガ heavy rain
BeatmapID:1425685
BeatmapSetID:660933

[Difficulty]
HPDrainRate:5
CircleSize:2.5
OverallDifficulty:6
ApproachRate:7.5
SliderMultiplier:0.9
SliderTickRate:1

[Events]
//Background and Video events
0,0,"508994.jpg",0,0
//Break Periods
//Storyboard Layer 0 (Background)
//Storyboard Layer 1 (Fail)
//Storyboard Layer 2 (Pass)
//Storyboard Layer 3 (Foreground)
//Storyboard Sound Samples

[TimingPoints]
422,470.772852098862,2,2,1,50,1,0
422,-125,2,2,1,50,0,0
894,470.772852098862,2,2,1,50,1,0
894,-50,2,2,1,50,0,0

[Colours]
Combo1 : 245,82,106
Combo2 : 171,214,211
Combo3 : 28,130,255
Combo4 : 185,181,202

[HitObjects]
180,248,422,6,0,L|227:242,1,48,0|0,3:0|0:0,0:0:0:0:
238,240,894,6,0,L|296:233,2,60,8|0|0,0:0|0:0|0:0,0:0:0:0:
142,251,1364,2,0,L|84:258,2,60,8|0|0,0:0|0:0|0:0,0:0:0:0:
238,240,1835,2,0,L|357:225,1,120,8|8,0:0|0:0,0:0:0:0:
357,224,2463,1,0,3:0:0:0:
448,255,2620,1,0,0:0:0:0:
512,183,2777,6,0,P|508:123|496:64,1,120,8|0,0:0|0:0,0:0:0:0:
415,14,3247,2,0,P|355:17|296:29,1,120,8|0,0:0|0:0,0:0:0:0:
233,102,3718,1,8,0:0:0:0:
153,49,3875,2,0,P|149:34|147:19,2,30,0|0|0,3:0|0:0|3:0,0:0:0:0:
233,102,4189,1,8,0:0:0:0:
148,144,4346,2,0,P|118:138|88:136,1,60,8|0,0:1|0:0,0:0:0:0:
225,200,4660,6,0,P|236:227|244:256,2,60,8|0|0,0:0|0:0|0:0,0:0:0:0:
233,102,5130,2,0,P|244:74|252:45,2,60,8|0|0,0:0|0:0|0:0,0:0:0:0:
225,200,5601,2,0,P|244:256|255:315,1,120,8|8,0:0|0:0,0:0:0:0:
255,315,6229,1,8,0:1:0:0:
172,364,6386,1,0,0:0:0:0:
103,296,6543,6,0,B|74:244|74:244|87:185,1,120,8|0,0:0|0:0,0:0:0:0:
142,105,7014,2,0,B|194:76|194:76|252:89,1,120,8|0,0:0|0:0,0:0:0:0:
334,141,7484,1,8,0:0:0:0:
397,68,7641,2,0,P|400:53|402:38,2,30,0|0|0,3:0|0:0|3:0,0:0:0:0:
334,141,7955,1,8,0:0:0:0:
429,158,8112,2,0,P|459:152|489:150,1,60,8|0,0:1|0:0,0:0:0:0:
372,234,8426,6,0,P|313:222|253:219,1,120,2|2,0:0|0:0,0:0:0:0:
298,307,8897,2,0,P|238:309|179:321,1,120,2|2,0:0|0:0,0:0:0:0:
89,355,9367,1,2,0:0:0:0:
105,260,9524,1,2,0:0:0:0:
15,295,9681,1,2,0:0:0:0:
15,295,9995,5,2,0:0:0:0:
89,355,10152,1,2,0:0:0:0:
105,260,10309,2,0,B|125:193|93:212|115:142,1,120,2|0,0:0|0:0,0:0:0:0:
188,81,10780,2,0,B|240:52|240:52|299:65,1,120,0|2,0:0|0:0,0:0:0:0:
309,76,11172,1,0,0:0:0:0:
319,87,11251,6,0,B|348:139|348:139|335:198,1,120,2|0,0:0|3:0,0:0:0:0:
308,290,11721,1,2,0:0:0:0:
401,271,11878,2,0,L|461:259,1,60,8|0,0:1|0:0,0:0:0:0:
308,290,12192,6,0,L|249:301,1,60,2|2,0:0|0:0,0:0:0:0:
159,336,12505,1,2,0:0:0:0:
90,268,12663,2,0,L|78:209,1,60,2|2,0:0|0:0,0:0:0:0:
60,116,12976,1,2,0:0:0:0:
150,148,13134,1,2,0:0:0:0:
133,55,13291,1,2,0:0:0:0:
133,55,13604,5,2,0:0:0:0:
150,148,13761,1,10,0:1:0:0:
60,116,13917,1,2,0:0:0:0:
78,209,14075,6,0,P|137:216|195:232,1,120,2|0,0:0|0:0,0:0:0:0:
267,167,14546,2,0,P|324:151|384:143,1,120,0|2,0:0|0:0,0:0:0:0:
399,147,14938,1,0,0:0:0:0:
412,155,15017,6,0,P|423:213|427:273,1,120,2|0,0:0|3:0,0:0:0:0:
369,350,15487,1,2,0:0:0:0:
283,306,15644,2,0,P|253:300|223:298,1,60,8|0,0:1|0:0,0:0:0:0:
81,258,15958,6,0,P|111:252|141:250,2,60,8|0|0,0:0|0:0|0:0,0:0:0:0:
11,191,16429,2,0,P|8:161|4:131,2,60,8|0|0,0:0|0:0|0:0,0:0:0:0:
81,258,16900,2,0,P|139:249|200:248,1,120,8|8,0:0|0:0,0:0:0:0:
200,248,17527,1,0,3:0:0:0:
279,303,17684,1,0,0:0:0:0:
368,340,17841,6,0,P|424:320|483:308,1,120,8|0,0:0|0:0,0:0:0:0:
463,214,18312,2,0,P|404:225|344:228,1,120,8|0,0:0|0:0,0:0:0:0:
257,188,18783,1,8,0:0:0:0:
185,252,18940,2,0,P|181:267|179:282,2,30,0|0|0,0:0|3:0|0:0,0:0:0:0:
257,188,19254,1,8,0:0:0:0:
271,283,19411,2,0,L|278:342,1,60,8|0,0:1|0:0,0:0:0:0:
257,188,19724,6,0,L|249:128,2,60,8|0|0,0:0|0:0|0:0,0:0:0:0:
344,228,20195,2,0,L|403:220,2,60,8|0|0,0:0|0:0|0:0,0:0:0:0:
257,188,20666,2,0,L|241:69,1,120,8|8,0:0|0:0,0:0:0:0:
241,69,21294,1,8,0:1:0:0:
152,32,21451,1,0,0:0:0:0:
107,119,21608,6,0,B|120:178|120:178|91:230,1,120,8|0,0:0|0:0,0:0:0:0:
155,302,22078,2,0,B|207:273|207:273|266:286,1,120,8|0,0:0|0:0,0:0:0:0:
352,331,22549,1,8,0:0:0:0:
405,247,22706,2,0,P|402:232|399:217,2,30,0|0|0,3:0|0:0|3:0,0:0:0:0:
352,331,23020,1,0,0:0:0:0:
448,331,23177,2,0,P|477:325|507:323,1,60,8|0,0:1|0:0,0:0:0:0:
352,331,23491,6,0,P|293:319|233:316,1,120,2|2,0:0|0:0,0:0:0:0:
262,224,23961,2,0,P|202:227|143:239,1,120,2|2,0:0|0:0,0:0:0:0:
48,255,24432,1,2,0:0:0:0:
13,346,24589,1,2,0:0:0:0:
108,330,24746,1,2,0:0:0:0:
108,330,25060,5,2,0:0:0:0:
13,346,25217,1,2,0:0:0:0:
48,255,25374,2,0,B|61:196|61:196|32:144,1,120,2|0,0:0|0:0,0:0:0:0:
82,62,25844,2,0,P|131:30|189:38,1,120,0|2,0:0|0:0,0:0:0:0:
202,43,26236,1,0,0:0:0:0:
211,52,26315,6,0,P|243:101|235:159,1,120,2|0,0:0|3:0,0:0:0:0:
161,221,26786,1,2,0:0:0:0:
250,259,26943,2,0,P|279:256|309:251,1,60,8|0,0:1|0:0,0:0:0:0:
161,221,27257,6,0,P|131:215|101:213,1,60,2|2,0:0|0:0,0:0:0:0:
16,258,27571,1,2,0:0:0:0:
97,310,27728,2,0,P|126:315|156:317,1,60,2|2,0:0|0:0,0:0:0:0:
242,274,28040,1,2,0:0:0:0:
161,221,28198,1,2,0:0:0:0:
247,178,28355,1,2,0:0:0:0:
247,178,28669,5,2,0:0:0:0:
161,221,28826,1,10,0:1:0:0:
242,274,28982,1,2,0:0:0:0:
329,231,29140,6,0,P|345:174|325:118,1,120,2|0,0:0|0:0,0:0:0:0:
247,178,29611,2,0,P|227:122|244:65,1,120,0|2,0:0|0:0,0:0:0:0:
255,54,30003,1,0,0:0:0:0:
265,42,30081,6,0,B|193:26|215:57|147:42,1,120,2|0,0:0|3:0,0:0:0:0:
53,18,30552,1,2,0:0:0:0:
0,98,30709,2,0,P|2:127|7:157,1,60,8|0,0:1|0:0,0:0:0:0:
93,201,31023,1,8,0:0:0:0:
