osu file format v14

[General]
AudioFilename: 225-heavy-rain.mp3
AudioLeadIn: 0
PreviewTime: 157
Countdown: 0
SampleSet: Soft
StackLeniency: 0.3
Mode: 0
LetterboxInBreaks: 0
WidescreenStoryboard: 0

[Editor]
Bookmarks: 374,8378,15910,23443,30975
DistanceSpacing: 1.5
BeatDivisor: 3
GridSize: 32
TimelineZoom: 1.5

[Metadata]
Title:Ooame
TitleUnicode:大雨
Artist:Go Ichinose
ArtistUnicode:一之瀬剛
Creator:pkhg
Version:Drizzle
Source:ポケットモンスター ルビー・サファイア
Tags:hazu- pokemon sapphire ruby emerald gba boy advance nintendo game freak kyogre カイオーガ heavy rain
BeatmapID:1399371
BeatmapSetID:660933

[Difficulty]
HPDrainRate:6
CircleSize:3
OverallDifficulty:8.6
ApproachRate:9
SliderMultiplier:1.3
SliderTickRate:1

[Events]
//Background and Video events
0,0,"508994.jpg",0,0
//Break Periods
//Storyboard Layer 0 (Background)
//Storyboard Layer 1 (Fail)
//Storyboard Layer 2 (Pass)
//Storyboard Layer 3 (Foreground)
//Storyboard Sound Samples

[TimingPoints]
422,470.772852098862,2,2,1,50,1,0
422,-125,4,2,1,50,0,0
815,-125,4,2,1,5,0,0
894,470.772852098862,2,2,1,50,1,0
8426,-42.5531914893617,4,2,1,50,0,0

[Colours]
Combo1 : 245,82,106
Combo2 : 171,214,211
Combo3 : 28,130,255
Combo4 : 185,181,202

[HitObjects]
382,310,422,6,0,L|399:225,1,86.6666666666666,0|0,3:0|0:0,0:0:0:0:
434,51,894,5,8,0:0:0:0:
467,147,1050,1,0,0:0:0:0:
367,127,1208,1,0,0:0:0:0:
200,186,1364,5,8,0:0:0:0:
133,263,1522,1,0,0:0:0:0:
233,282,1678,1,0,0:0:0:0:
267,109,1835,5,8,0:0:0:0:
300,206,1992,1,0,0:0:0:0:
333,301,2149,1,8,0:0:0:0:
300,206,2463,1,0,3:0:0:0:
333,301,2620,1,0,0:0:0:0:
267,109,2777,5,8,0:0:0:0:
334,32,2934,1,0,0:0:0:0:
234,13,3090,1,0,0:0:0:0:
100,167,3247,5,8,0:0:0:0:
33,244,3404,1,0,0:0:0:0:
133,263,3560,1,0,0:0:0:0:
166,89,3718,5,8,0:0:0:0:
200,186,3875,1,0,3:0:0:0:
233,147,3954,1,0,0:0:0:0:
267,109,4032,1,0,3:0:0:0:
166,89,4189,5,8,0:0:0:0:
300,206,4346,1,8,0:1:0:0:
200,186,4503,1,0,0:0:0:0:
367,128,4660,5,8,0:0:0:0:
334,32,4816,1,0,0:0:0:0:
267,109,4974,1,0,0:0:0:0:
133,263,5130,5,8,0:0:0:0:
33,244,5287,1,0,0:0:0:0:
100,167,5444,1,0,0:0:0:0:
234,283,5601,5,8,0:0:0:0:
200,186,5758,1,0,0:0:0:0:
166,89,5915,1,8,0:0:0:0:
200,186,6229,1,8,0:1:0:0:
166,89,6386,1,0,0:0:0:0:
234,283,6543,5,8,0:0:0:0:
333,301,6700,1,0,0:0:0:0:
300,206,6857,1,0,0:0:0:0:
100,167,7014,5,8,0:0:0:0:
166,89,7171,1,0,0:0:0:0:
200,186,7328,1,0,0:0:0:0:
233,12,7484,5,8,0:0:0:0:
334,32,7641,1,0,3:0:0:0:
300,70,7719,1,0,0:0:0:0:
267,109,7798,1,0,3:0:0:0:
233,12,7955,5,8,0:0:0:0:
367,128,8112,1,8,0:1:0:0:
334,32,8269,1,0,0:0:0:0:
200,186,8426,6,0,L|133:263,1,101.83333177948,2|0,0:0|0:0,0:0:0:0:
66,339,8740,1,2,0:0:0:0:
234,283,8897,6,0,L|334:301,1,101.83333177948,2|0,0:0|0:0,0:0:0:0:
434,321,9210,1,2,0:0:0:0:
300,206,9367,5,2,0:0:0:0:
400,226,9524,1,2,0:0:0:0:
267,109,9681,1,2,0:0:0:0:
267,109,9995,1,2,0:0:0:0:
300,206,10152,1,2,0:0:0:0:
133,263,10309,6,0,L|332:301,1,203.66666355896,2|0,0:0|0:0,0:0:0:0:
467,147,10780,5,0,0:0:0:0:
500,246,10936,1,0,0:0:0:0:
400,226,11094,1,2,0:0:0:0:
349,216,11172,1,0,0:0:0:0:
300,206,11251,6,0,L|200:186,1,101.83333177948,2|0,0:0|3:0,0:0:0:0:
149,176,11485,1,0,0:0:0:0:
100,166,11564,1,0,3:0:0:0:
166,89,11721,1,2,0:0:0:0:
133,263,11878,1,8,0:1:0:0:
200,186,12035,1,0,0:0:0:0:
66,69,12192,5,2,0:0:0:0:
0,146,12349,1,2,0:0:0:0:
100,166,12506,1,2,0:0:0:0:
267,109,12663,5,2,0:0:0:0:
367,128,12820,1,2,0:0:0:0:
300,206,12977,1,2,0:0:0:0:
166,89,13134,5,2,0:0:0:0:
234,283,13291,2,0,L|200:186,1,101.83333177948,2|0,0:0|0:0,0:0:0:0:
166,89,13604,5,2,0:0:0:0:
133,263,13761,1,10,0:1:0:0:
300,206,13918,1,2,0:0:0:0:
100,166,14075,5,2,0:0:0:0:
0,146,14232,1,0,0:0:0:0:
66,69,14389,1,0,0:0:0:0:
133,263,14546,5,0,0:0:0:0:
167,360,14703,1,0,0:0:0:0:
234,283,14860,1,2,0:0:0:0:
266,244,14938,1,0,0:0:0:0:
300,206,15017,6,0,L|367:128,1,101.83333177948,2|0,0:0|3:0,0:0:0:0:
400,89,15252,1,0,0:0:0:0:
434,51,15331,1,0,3:0:0:0:
334,32,15487,5,2,0:0:0:0:
467,147,15644,1,8,0:1:0:0:
434,51,15801,1,0,0:0:0:0:
267,109,15958,5,8,0:0:0:0:
166,89,16115,1,0,0:0:0:0:
200,186,16272,1,0,0:0:0:0:
333,301,16429,5,8,0:0:0:0:
434,321,16586,1,0,0:0:0:0:
400,226,16743,1,0,0:0:0:0:
234,283,16900,5,8,0:0:0:0:
300,206,17057,1,0,0:0:0:0:
367,128,17214,1,8,0:0:0:0:
300,206,17527,1,0,3:0:0:0:
367,128,17684,1,0,0:0:0:0:
234,283,17841,5,8,0:0:0:0:
200,186,17998,1,0,0:0:0:0:
133,263,18155,1,0,0:0:0:0:
0,146,18312,5,8,0:0:0:0:
66,69,18469,1,0,0:0:0:0:
100,166,18626,1,0,0:0:0:0:
234,283,18783,5,8,0:0:0:0:
333,301,18940,1,0,0:0:0:0:
317,254,19018,1,0,3:0:0:0:
300,206,19097,1,0,0:0:0:0:
234,283,19254,5,8,0:0:0:0:
400,226,19411,1,8,0:1:0:0:
434,321,19567,1,0,0:0:0:0:
300,206,19724,5,8,0:0:0:0:
200,186,19881,1,0,0:0:0:0:
267,109,20038,1,0,0:0:0:0:
133,263,20195,5,8,0:0:0:0:
100,166,20351,1,0,0:0:0:0:
33,244,20509,1,0,0:0:0:0:
234,283,20666,5,8,0:0:0:0:
200,186,20823,1,0,0:0:0:0:
166,89,20980,1,8,0:0:0:0:
200,186,21294,1,8,0:1:0:0:
166,89,21451,1,0,0:0:0:0:
234,283,21608,5,8,0:0:0:0:
333,301,21764,1,0,0:0:0:0:
267,377,21921,1,0,0:0:0:0:
400,226,22078,5,8,0:0:0:0:
500,246,22235,1,0,0:0:0:0:
467,147,22391,1,0,0:0:0:0:
300,206,22549,5,8,0:0:0:0:
267,109,22706,1,0,3:0:0:0:
251,62,22784,1,0,0:0:0:0:
234,14,22863,1,0,3:0:0:0:
166,89,23020,5,8,0:0:0:0:
334,32,23177,1,8,0:1:0:0:
267,109,23334,1,0,0:0:0:0:
100,166,23491,6,0,L|33:244,1,101.83333177948,2|0,0:0|0:0,0:0:0:0:
133,263,23804,1,2,0:0:0:0:
333,301,23961,6,0,L|434:321,1,101.83333177948,2|0,0:0|0:0,0:0:0:0:
400,226,24275,1,2,0:0:0:0:
234,283,24432,5,2,0:0:0:0:
300,206,24589,1,2,0:0:0:0:
267,377,24746,1,2,0:0:0:0:
267,377,25060,1,2,0:0:0:0:
333,301,25217,1,2,0:0:0:0:
200,186,25374,6,0,L|0:147,1,203.66666355896,2|0,0:0|0:0,0:0:0:0:
66,339,25844,5,0,0:0:0:0:
133,263,26001,1,0,0:0:0:0:
234,283,26158,1,2,0:0:0:0:
284,292,26237,1,0,0:0:0:0:
333,301,26315,6,0,L|401:226,1,101.83333177948,2|0,0:0|3:0,0:0:0:0:
434,187,26551,1,0,0:0:0:0:
467,147,26629,1,0,3:0:0:0:
500,246,26786,1,2,0:0:0:0:
367,128,26943,1,8,0:1:0:0:
401,225,27100,1,0,0:0:0:0:
267,109,27257,5,2,0:0:0:0:
166,89,27414,1,2,0:0:0:0:
200,186,27571,1,2,0:0:0:0:
400,226,27728,5,2,0:0:0:0:
467,147,27884,1,2,0:0:0:0:
367,128,28041,1,2,0:0:0:0:
333,301,28198,5,2,0:0:0:0:
266,109,28355,2,0,L|300:206,1,101.83333177948,2|0,0:0|0:0,0:0:0:0:
333,301,28668,5,2,0:0:0:0:
367,128,28825,1,10,0:1:0:0:
200,186,28982,1,2,0:0:0:0:
400,226,29140,5,2,0:0:0:0:
467,147,29297,1,0,0:0:0:0:
367,128,29454,1,0,0:0:0:0:
200,186,29611,5,0,0:0:0:0:
100,166,29768,1,0,0:0:0:0:
166,89,29924,1,2,0:0:0:0:
183,138,30003,1,0,0:0:0:0:
200,186,30081,6,0,L|234:283,1,101.83333177948,2|0,0:0|3:0,0:0:0:0:
250,329,30317,1,0,0:0:0:0:
267,377,30395,1,0,3:0:0:0:
333,301,30552,5,2,0:0:0:0:
167,360,30709,1,8,0:1:0:0:
267,377,30866,1,0,0:0:0:0:
200,186,31023,1,8,0:0:0:0:
