osu file format v14

[General]
AudioFilename: audio.mp3
AudioLeadIn: 0
PreviewTime: 235
Countdown: 0
SampleSet: Normal
StackLeniency: 0.7
Mode: 1
LetterboxInBreaks: 0
WidescreenStoryboard: 1

[Editor]
Bookmarks: 17207,32207,47207,57207,67207
DistanceSpacing: 0.9
BeatDivisor: 2
GridSize: 32
TimelineZoom: 1.5

[Metadata]
Title:Lake
TitleUnicode:みずうみ
Artist:Go Ichinose
ArtistUnicode:一之瀬剛
Creator:nevqr
Version:Muzukashii
Source:ポケットモンスター ダイヤモンド・パール
Tags:mizuumi verity shinji シンジ湖 acuity eichi エイチ湖 valor risshi リッシ湖 pokémon pokemon ポケモン pocket monsters poketto monsuta monsutā ポケットモンスター ost original soundtrack sound track 7 disk 1 gō gou hitomi sato satō satou 佐藤仁美 junichi jun'ichi masuda 増田順一 diamond and & pearl platinum version ポケットモンスタープラチナ d p pt dp dppt brilliant diamond and & shining pearl version bdsp ポケットモンスター ブリリアントダイヤモンド・シャイニングパール gen generation four fourth 4 4th 4g g4 iv 第四世代 eight eighth 8 8th 8g g8 viii 第八世代 sinnoh シンオウ the lake guardians trio 湖の神々 mesprit emrit エムリット uxie yuxie ユクシー azelf agnome アグノム theme videogame video game vgm instrumental electronic gamefreak game freak nintendo ds nds 任天堂 ニンテンドーDS ポケモン ダイヤモンド&パール スーパーミュージックコレクション super music collection complete
BeatmapID:4279770
BeatmapSetID:2049655

[Difficulty]
HPDrainRate:7
CircleSize:2
OverallDifficulty:5
ApproachRate:9
SliderMultiplier:1.4
SliderTickRate:1

[Events]
//Background and Video events
0,0,"bg.jpeg",0,40
//Break Periods
//Storyboard Layer 0 (Background)
//Storyboard Layer 1 (Fail)
//Storyboard Layer 2 (Pass)
//Storyboard Layer 3 (Foreground)
//Storyboard Layer 4 (Overlay)
//Storyboard Sound Samples

[TimingPoints]
332,937.5,2,1,0,30,1,0
332,-35.0877192982456,4,1,0,30,0,0
483,-35.0877192982456,4,1,0,32,0,0
639,-35.0877192982456,4,1,0,33,0,0
795,-35.0877192982456,4,1,0,35,0,0
952,-35.0877192982456,4,1,0,37,0,0
1108,-35.0877192982456,4,1,0,38,0,0
1264,-35.0877192982456,4,1,0,40,0,0
1420,-35.0877192982456,4,1,0,42,0,0
1577,-35.0877192982456,4,1,0,43,0,0
1733,-35.0877192982456,4,1,0,45,0,0
1889,-35.0877192982456,4,1,0,47,0,0
2050,-35.0877192982456,4,1,0,48,0,0
2207,-35.0877192982456,4,1,0,50,0,0
45957,-34.680371205679,4,1,0,52,0,0
46113,-34.2848788332907,4,1,0,55,0,0
46269,-33.8983050847458,4,1,0,57,0,0
46425,-33.5203516420684,4,1,0,59,0,0
46582,-33.1483902887232,4,1,0,62,0,0
46660,-32.966646750782,4,1,0,64,0,0
46738,-32.7868852459016,4,1,0,66,0,0
46816,-32.6090735268556,4,1,0,68,0,0
46894,-32.4331800421839,4,1,0,71,0,0
46972,-32.2591739175293,4,1,0,73,0,0
47050,-32.0870249375706,4,1,0,75,0,0
47128,-31.9167035285311,4,1,0,78,0,0
47207,312.5,4,1,0,80,1,1
47207,-95.2380952380952,4,1,0,80,0,1
51660,-95.2380952380952,4,1,0,80,0,1
51738,-95.2380952380952,4,1,0,80,0,1
51816,-95.2380952380952,4,1,0,80,0,1
51894,-95.2380952380952,4,1,0,80,0,1
51972,-95.2380952380952,4,1,0,80,0,1
52050,-95.2380952380952,4,1,0,80,0,1
52128,-95.2380952380952,4,1,0,80,0,1
52207,-95.2380952380952,4,1,0,80,0,1
52285,-95.2380952380952,4,1,0,80,0,1
52363,-95.2380952380952,4,1,0,80,0,1
52441,-95.2380952380952,4,1,0,80,0,1
52519,-95.2380952380952,4,1,0,80,0,1
52597,-95.2380952380952,4,1,0,80,0,1
52675,-95.2380952380952,4,1,0,80,0,1
52753,-95.2380952380952,4,1,0,80,0,1
52832,-95.2380952380952,4,1,0,80,0,1
52910,-95.2380952380952,4,1,0,80,0,1
52988,-95.2380952380952,4,1,0,80,0,1
53066,-95.2380952380952,4,1,0,80,0,1
53144,-95.2380952380952,4,1,0,80,0,1
53222,-95.2380952380952,4,1,0,80,0,1
53300,-95.2380952380952,4,1,0,80,0,1
53378,-95.2380952380952,4,1,0,80,0,1
53457,-95.2380952380952,4,1,0,80,0,1
53535,-95.2380952380952,4,1,0,80,0,1
53613,-95.2380952380952,4,1,0,80,0,1
53691,-95.2380952380952,4,1,0,80,0,1
53769,-95.2380952380952,4,1,0,80,0,1
53847,-95.2380952380952,4,1,0,80,0,1
53925,-95.2380952380952,4,1,0,80,0,1
54003,-95.2380952380952,4,1,0,80,0,1
54082,-95.2380952380952,4,1,0,80,0,1
54160,-95.2380952380952,4,1,0,80,0,1
54238,-95.2380952380952,4,1,0,80,0,1
54316,-95.2380952380952,4,1,0,80,0,1
54394,-95.2380952380952,4,1,0,80,0,1
54472,-95.2380952380952,4,1,0,80,0,1
54550,-95.2380952380952,4,1,0,80,0,1
54628,-95.2380952380952,4,1,0,80,0,1
54707,-95.2380952380952,4,1,0,80,0,1
54785,-95.2380952380952,4,1,0,80,0,1
54863,-95.2380952380952,4,1,0,80,0,1
54941,-95.2380952380952,4,1,0,80,0,1
55019,-95.2380952380952,4,1,0,80,0,1
55097,-95.2380952380952,4,1,0,80,0,1
55175,-95.2380952380952,4,1,0,80,0,1
55253,-95.2380952380952,4,1,0,80,0,1
55332,-95.2380952380952,4,1,0,80,0,1
55410,-95.2380952380952,4,1,0,80,0,1
55488,-95.2380952380952,4,1,0,80,0,1
55566,-95.2380952380952,4,1,0,80,0,1
55644,-95.2380952380952,4,1,0,80,0,1
55722,-95.2380952380952,4,1,0,80,0,1
55800,-95.2380952380952,4,1,0,80,0,1
55878,-95.2380952380952,4,1,0,80,0,1
55957,-95.2380952380952,4,1,0,80,0,1
56035,-95.2380952380952,4,1,0,80,0,1
56113,-95.2380952380952,4,1,0,80,0,1
56191,-95.2380952380952,4,1,0,80,0,1
56269,-95.2380952380952,4,1,0,80,0,1
56347,-95.2380952380952,4,1,0,80,0,1
56425,-95.2380952380952,4,1,0,80,0,1
56503,-95.2380952380952,4,1,0,80,0,1
56582,-95.2380952380952,4,1,0,80,0,1
56660,-95.2380952380952,4,1,0,80,0,1
56738,-95.2380952380952,4,1,0,80,0,1
56816,-95.2380952380952,4,1,0,80,0,1
56894,-95.2380952380952,4,1,0,80,0,1
56972,-95.2380952380952,4,1,0,80,0,1
57050,-95.2380952380952,4,1,0,80,0,1
57128,-95.2380952380952,4,1,0,80,0,1
57207,-95.2380952380952,4,1,0,80,0,1
61660,-95.2380952380952,4,1,0,80,0,1
61738,-95.2380952380952,4,1,0,80,0,1
61816,-95.2380952380952,4,1,0,80,0,1
61894,-95.2380952380952,4,1,0,80,0,1
61972,-95.2380952380952,4,1,0,80,0,1
62050,-95.2380952380952,4,1,0,80,0,1
62128,-95.2380952380952,4,1,0,80,0,1
62206,-95.2380952380952,4,1,0,80,0,1
62285,-95.2380952380952,4,1,0,80,0,1
62363,-95.2380952380952,4,1,0,80,0,1
62441,-95.2380952380952,4,1,0,80,0,1
62519,-95.2380952380952,4,1,0,80,0,1
62597,-95.2380952380952,4,1,0,80,0,1
62675,-95.2380952380952,4,1,0,80,0,1
62753,-95.2380952380952,4,1,0,80,0,1
62831,-95.2380952380952,4,1,0,80,0,1
62910,-95.2380952380952,4,1,0,80,0,1
62988,-95.2380952380952,4,1,0,80,0,1
63066,-95.2380952380952,4,1,0,80,0,1
63144,-95.2380952380952,4,1,0,80,0,1
63222,-95.2380952380952,4,1,0,80,0,1
63300,-95.2380952380952,4,1,0,80,0,1
63378,-95.2380952380952,4,1,0,80,0,1
63456,-95.2380952380952,4,1,0,80,0,1
63535,-95.2380952380952,4,1,0,80,0,1
63613,-95.2380952380952,4,1,0,80,0,1
63691,-95.2380952380952,4,1,0,80,0,1
63769,-95.2380952380952,4,1,0,80,0,1
63847,-95.2380952380952,4,1,0,80,0,1
63925,-95.2380952380952,4,1,0,80,0,1
64003,-95.2380952380952,4,1,0,80,0,1
64081,-95.2380952380952,4,1,0,80,0,1
64160,-95.2380952380952,4,1,0,80,0,1
64238,-95.2380952380952,4,1,0,80,0,1
64316,-95.2380952380952,4,1,0,80,0,1
64394,-95.2380952380952,4,1,0,80,0,1
64472,-95.2380952380952,4,1,0,80,0,1
64550,-95.2380952380952,4,1,0,80,0,1
64628,-95.2380952380952,4,1,0,80,0,1
64706,-95.2380952380952,4,1,0,80,0,1
64785,-95.2380952380952,4,1,0,80,0,1
64863,-95.2380952380952,4,1,0,80,0,1
64941,-95.2380952380952,4,1,0,80,0,1
65019,-95.2380952380952,4,1,0,80,0,1
65097,-95.2380952380952,4,1,0,80,0,1
65175,-95.2380952380952,4,1,0,80,0,1
65253,-95.2380952380952,4,1,0,80,0,1
65331,-95.2380952380952,4,1,0,80,0,1
65410,-95.2380952380952,4,1,0,80,0,1
65488,-95.2380952380952,4,1,0,80,0,1
65566,-95.2380952380952,4,1,0,80,0,1
65644,-95.2380952380952,4,1,0,80,0,1
65722,-95.2380952380952,4,1,0,80,0,1
65800,-95.2380952380952,4,1,0,80,0,1
65878,-95.2380952380952,4,1,0,80,0,1
65957,-95.2380952380952,4,1,0,80,0,1
66035,-95.2380952380952,4,1,0,80,0,1
66113,-95.2380952380952,4,1,0,80,0,1
66191,-95.2380952380952,4,1,0,80,0,1
66269,-95.2380952380952,4,1,0,80,0,1
66347,-95.2380952380952,4,1,0,80,0,1
66425,-95.2380952380952,4,1,0,80,0,1
66503,-95.2380952380952,4,1,0,80,0,1
66582,-95.2380952380952,4,1,0,80,0,1
66660,-95.2380952380952,4,1,0,80,0,1
66738,-95.2380952380952,4,1,0,80,0,1
66816,-95.2380952380952,4,1,0,80,0,1
66894,-95.2380952380952,4,1,0,80,0,1
66972,-95.2380952380952,4,1,0,80,0,1
67050,-95.2380952380952,4,1,0,80,0,1
67128,-95.2380952380952,4,1,0,80,0,1
67207,937.5,4,1,0,80,1,0
67207,-31.7460317460317,4,1,0,80,0,0

[HitObjects]
256,192,332,8,0,2050,1:0:0:0:
256,192,2207,5,8,1:0:0:0:
256,192,2363,1,0,1:0:0:0:
256,192,2519,1,8,1:0:0:0:
256,192,2832,1,0,1:0:0:0:
256,192,3144,1,8,1:0:0:0:
256,192,3300,1,8,1:0:0:0:
256,192,3457,1,0,1:0:0:0:
256,192,3769,1,8,1:0:0:0:
256,192,3925,1,0,1:0:0:0:
256,192,4082,1,8,1:0:0:0:
256,192,4160,1,8,1:0:0:0:
256,192,4238,1,8,1:0:0:0:
256,192,5019,1,8,1:0:0:0:
256,192,5332,1,0,1:0:0:0:
256,192,5957,1,8,1:0:0:0:
256,192,6113,1,8,1:0:0:0:
256,192,6269,1,0,1:0:0:0:
256,192,6582,1,8,1:0:0:0:
256,192,6894,1,8,1:0:0:0:
256,192,7050,1,0,1:0:0:0:
256,192,7207,1,8,1:0:0:0:
256,192,7519,1,0,1:0:0:0:
256,192,7675,1,8,1:0:0:0:
256,192,7832,1,0,1:0:0:0:
256,192,7910,1,0,1:0:0:0:
256,192,7988,1,0,1:0:0:0:
256,192,8144,1,8,1:0:0:0:
256,192,8457,1,0,1:0:0:0:
256,192,8769,1,8,1:0:0:0:
256,192,8925,1,8,1:0:0:0:
256,192,9082,1,0,1:0:0:0:
256,192,9394,1,8,1:0:0:0:
256,192,9707,1,0,1:0:0:0:
256,192,9863,1,8,1:0:0:0:
256,192,10019,1,0,1:0:0:0:
256,192,10332,1,8,1:0:0:0:
256,192,10644,1,8,1:0:0:0:
256,192,10800,1,8,1:0:0:0:
256,192,10957,1,0,1:0:0:0:
256,192,11269,1,8,1:0:0:0:
256,192,11425,1,0,1:0:0:0:
256,192,11582,1,8,1:0:0:0:
256,192,11660,1,8,1:0:0:0:
256,192,11738,1,8,1:0:0:0:
256,192,12519,1,8,1:0:0:0:
256,192,12832,1,0,1:0:0:0:
256,192,13457,1,8,1:0:0:0:
256,192,13613,1,0,1:0:0:0:
256,192,13769,1,8,1:0:0:0:
256,192,14082,1,0,1:0:0:0:
256,192,14394,1,8,1:0:0:0:
256,192,14550,1,8,1:0:0:0:
256,192,14707,1,0,1:0:0:0:
256,192,15019,1,8,1:0:0:0:
256,192,15175,1,8,1:0:0:0:
256,192,15332,1,0,1:0:0:0:
256,192,15410,1,0,1:0:0:0:
256,192,15488,1,0,1:0:0:0:
256,192,15644,1,8,1:0:0:0:
256,192,15957,1,0,1:0:0:0:
256,192,16269,1,8,1:0:0:0:
256,192,16425,1,0,1:0:0:0:
256,192,16582,1,8,1:0:0:0:
256,192,16894,1,0,1:0:0:0:
256,192,17207,1,8,1:0:0:0:
256,192,17363,1,8,1:0:0:0:
256,192,17519,1,0,1:0:0:0:
256,192,17832,1,8,1:0:0:0:
256,192,18144,1,8,1:0:0:0:
256,192,18300,1,0,1:0:0:0:
256,192,18457,1,8,1:0:0:0:
256,192,18769,1,0,1:0:0:0:
256,192,18925,1,8,1:0:0:0:
256,192,19082,1,0,1:0:0:0:
256,192,19160,1,0,1:0:0:0:
256,192,19238,1,0,1:0:0:0:
256,192,20019,1,8,1:0:0:0:
256,192,20332,1,0,1:0:0:0:
256,192,20957,1,8,1:0:0:0:
256,192,21113,1,0,1:0:0:0:
256,192,21269,1,8,1:0:0:0:
256,192,21582,1,0,1:0:0:0:
256,192,21894,1,8,1:0:0:0:
256,192,22050,1,8,1:0:0:0:
256,192,22207,1,0,1:0:0:0:
256,192,22519,1,8,1:0:0:0:
256,192,22675,1,0,1:0:0:0:
256,192,22832,1,8,1:0:0:0:
256,192,22910,1,8,1:0:0:0:
256,192,22988,1,8,1:0:0:0:
256,192,23300,1,0,1:0:0:0:
256,192,23457,1,0,1:0:0:0:
256,192,23769,1,8,1:0:0:0:
256,192,24082,1,0,1:0:0:0:
256,192,24238,1,8,1:0:0:0:
256,192,24394,1,0,1:0:0:0:
256,192,24707,1,8,1:0:0:0:
256,192,24863,1,0,1:0:0:0:
256,192,25019,1,8,1:0:0:0:
256,192,25332,1,0,1:0:0:0:
256,192,25644,1,8,1:0:0:0:
256,192,25800,1,8,1:0:0:0:
256,192,25957,1,0,1:0:0:0:
256,192,26269,1,8,1:0:0:0:
256,192,26425,1,8,1:0:0:0:
256,192,26582,1,0,1:0:0:0:
256,192,26660,1,0,1:0:0:0:
256,192,26738,1,0,1:0:0:0:
256,192,27519,1,8,1:0:0:0:
256,192,27832,1,8,1:0:0:0:
256,192,28144,1,0,1:0:0:0:
256,192,28457,1,8,1:0:0:0:
256,192,28613,1,0,1:0:0:0:
256,192,28769,1,8,1:0:0:0:
256,192,29082,1,0,1:0:0:0:
256,192,29394,1,8,1:0:0:0:
256,192,29550,1,8,1:0:0:0:
256,192,29707,1,0,1:0:0:0:
256,192,30019,1,8,1:0:0:0:
256,192,30175,1,0,1:0:0:0:
256,192,30332,1,8,1:0:0:0:
256,192,30410,1,8,1:0:0:0:
256,192,30488,1,8,1:0:0:0:
256,192,30800,1,0,1:0:0:0:
256,192,30957,1,0,1:0:0:0:
256,192,31269,1,8,1:0:0:0:
256,192,31425,1,8,1:0:0:0:
256,192,31582,1,0,1:0:0:0:
256,192,31894,1,0,1:0:0:0:
256,192,32207,1,8,1:0:0:0:
256,192,32363,1,0,1:0:0:0:
256,192,32519,1,8,1:0:0:0:
256,192,32832,1,0,1:0:0:0:
256,192,33144,1,8,1:0:0:0:
256,192,33300,1,8,1:0:0:0:
256,192,33457,1,0,1:0:0:0:
256,192,33769,1,8,1:0:0:0:
256,192,33925,1,0,1:0:0:0:
256,192,34082,1,8,1:0:0:0:
256,192,34160,1,8,1:0:0:0:
256,192,34238,1,8,1:0:0:0:
256,192,35019,1,8,1:0:0:0:
256,192,35332,1,0,1:0:0:0:
256,192,35957,1,8,1:0:0:0:
256,192,36113,1,8,1:0:0:0:
256,192,36269,1,0,1:0:0:0:
256,192,36582,1,8,1:0:0:0:
256,192,36894,1,8,1:0:0:0:
256,192,37050,1,0,1:0:0:0:
256,192,37207,1,8,1:0:0:0:
256,192,37519,1,0,1:0:0:0:
256,192,37675,1,8,1:0:0:0:
256,192,37832,1,0,1:0:0:0:
256,192,37910,1,0,1:0:0:0:
256,192,37988,1,0,1:0:0:0:
256,192,38300,1,0,1:0:0:0:
256,192,38457,1,0,1:0:0:0:
256,192,38769,1,8,1:0:0:0:
256,192,39082,1,0,1:0:0:0:
256,192,39238,1,8,1:0:0:0:
256,192,39394,1,0,1:0:0:0:
256,192,39707,1,8,1:0:0:0:
256,192,39863,1,8,1:0:0:0:
256,192,40019,1,0,1:0:0:0:
256,192,40332,1,8,1:0:0:0:
256,192,40644,1,0,1:0:0:0:
256,192,40800,1,8,1:0:0:0:
256,192,40957,1,0,1:0:0:0:
256,192,41269,1,8,1:0:0:0:
256,192,41425,1,0,1:0:0:0:
256,192,41582,1,8,1:0:0:0:
256,192,41660,1,8,1:0:0:0:
256,192,41738,1,8,1:0:0:0:
256,192,42519,1,8,1:0:0:0:
256,192,42832,1,0,1:0:0:0:
256,192,43144,1,8,1:0:0:0:
256,192,43300,1,0,1:0:0:0:
256,192,43457,1,8,1:0:0:0:
256,192,43613,1,0,1:0:0:0:
256,192,43925,1,8,1:0:0:0:
256,192,44082,1,0,1:0:0:0:
256,192,44394,1,8,1:0:0:0:
256,192,44550,1,0,1:0:0:0:
256,192,44707,1,8,1:0:0:0:
256,192,45019,1,0,1:0:0:0:
256,192,45175,1,0,1:0:0:0:
256,192,45332,1,8,1:0:0:0:
256,192,45488,1,0,1:0:0:0:
256,192,45800,1,0,1:0:0:0:
256,192,45957,1,8,1:0:0:0:
256,192,46113,1,0,1:0:0:0:
256,192,46269,1,8,1:0:0:0:
256,192,46582,1,0,1:0:0:0:
256,192,46660,1,0,1:0:0:0:
256,192,46738,1,0,1:0:0:0:
256,192,46894,1,8,1:0:0:0:
256,192,47207,1,8,1:0:0:0:
256,192,47363,1,8,1:0:0:0:
256,192,47675,1,0,0:0:0:0:
256,192,47832,1,8,1:0:0:0:
256,192,47910,1,8,1:0:0:0:
256,192,47988,1,8,1:0:0:0:
256,192,48144,1,0,1:0:0:0:
256,192,48300,1,0,1:0:0:0:
256,192,48457,1,8,1:0:0:0:
257,192,48613,1,0,1:0:0:0:
257,192,49082,1,8,1:0:0:0:
257,192,49238,1,8,1:0:0:0:
257,192,49394,1,0,1:0:0:0:
257,192,49550,1,0,1:0:0:0:
257,192,49707,1,8,1:0:0:0:
256,192,49863,1,8,1:0:0:0:
257,192,50175,1,0,1:0:0:0:
257,192,50332,1,8,1:0:0:0:
257,192,50410,1,8,1:0:0:0:
257,192,50488,1,8,1:0:0:0:
257,192,50644,1,0,1:0:0:0:
257,192,50800,1,0,1:0:0:0:
257,192,50957,1,8,1:0:0:0:
257,192,51113,1,0,1:0:0:0:
257,192,51582,1,8,1:0:0:0:
257,193,51660,1,8,1:0:0:0:
257,193,51738,1,8,1:0:0:0:
257,193,51894,1,0,1:0:0:0:
257,193,52207,1,8,1:0:0:0:
257,192,52285,1,8,1:0:0:0:
257,193,52363,1,8,1:0:0:0:
257,193,52519,1,0,1:0:0:0:
257,193,52675,1,8,1:0:0:0:
257,193,52832,1,0,1:0:0:0:
257,193,52910,1,0,1:0:0:0:
257,192,52988,1,0,1:0:0:0:
257,193,53144,1,8,1:0:0:0:
257,193,53300,1,0,1:0:0:0:
257,193,53457,1,8,1:0:0:0:
257,193,53535,1,8,0:0:0:0:
257,193,53613,1,8,1:0:0:0:
257,193,53769,1,0,1:0:0:0:
257,193,53925,1,8,1:0:0:0:
257,193,54082,1,0,1:0:0:0:
257,193,54707,1,0,1:0:0:0:
257,193,54785,1,0,1:0:0:0:
257,193,54863,1,0,1:0:0:0:
257,193,55019,1,8,1:0:0:0:
257,193,55175,1,0,1:0:0:0:
257,193,55332,1,8,1:0:0:0:
257,193,55410,1,8,1:0:0:0:
257,193,55488,1,8,1:0:0:0:
257,193,55644,1,0,1:0:0:0:
257,192,55800,1,8,1:0:0:0:
257,193,55957,1,0,1:0:0:0:
257,193,56035,1,0,1:0:0:0:
257,193,56113,1,0,1:0:0:0:
257,193,56269,1,8,1:0:0:0:
257,193,56425,1,0,1:0:0:0:
257,193,56582,1,8,1:0:0:0:
257,193,56738,1,0,1:0:0:0:
257,193,56894,1,8,1:0:0:0:
256,192,57207,1,8,1:0:0:0:
256,192,57363,1,8,1:0:0:0:
256,192,57675,1,0,1:0:0:0:
256,192,57832,1,8,1:0:0:0:
256,192,57910,1,8,1:0:0:0:
256,192,57988,1,8,1:0:0:0:
256,192,58144,1,0,1:0:0:0:
256,192,58300,1,0,1:0:0:0:
256,192,58457,1,8,1:0:0:0:
257,192,58613,1,0,1:0:0:0:
257,192,59082,1,8,1:0:0:0:
257,192,59238,1,8,1:0:0:0:
257,192,59394,1,0,1:0:0:0:
257,192,59550,1,0,1:0:0:0:
257,192,59707,1,8,1:0:0:0:
256,192,59863,1,8,1:0:0:0:
257,192,60175,1,0,1:0:0:0:
257,192,60332,1,8,1:0:0:0:
257,192,60410,1,8,1:0:0:0:
257,192,60488,1,8,1:0:0:0:
257,192,60644,1,0,1:0:0:0:
257,192,60800,1,0,1:0:0:0:
257,192,60957,1,8,1:0:0:0:
257,192,61113,1,0,1:0:0:0:
257,192,61582,1,8,1:0:0:0:
257,193,61660,1,8,1:0:0:0:
257,193,61738,1,8,1:0:0:0:
257,193,61894,1,0,1:0:0:0:
257,193,62207,1,0,1:0:0:0:
257,192,62285,1,0,1:0:0:0:
257,193,62363,1,0,1:0:0:0:
257,193,62519,1,8,1:0:0:0:
257,193,62675,1,0,1:0:0:0:
257,193,62831,1,8,1:0:0:0:
257,193,62910,1,8,1:0:0:0:
257,192,62988,1,8,1:0:0:0:
257,193,63144,1,0,1:0:0:0:
257,193,63300,1,8,1:0:0:0:
257,193,63456,1,0,1:0:0:0:
257,193,63535,1,0,1:0:0:0:
257,193,63613,1,0,1:0:0:0:
257,193,63769,1,8,1:0:0:0:
257,193,63925,1,0,1:0:0:0:
257,193,64081,1,8,1:0:0:0:
257,193,64706,1,8,1:0:0:0:
257,193,64785,1,8,1:0:0:0:
257,193,64863,1,8,1:0:0:0:
257,193,65019,1,0,1:0:0:0:
257,193,65175,1,8,1:0:0:0:
257,193,65332,1,0,1:0:0:0:
257,193,65410,1,0,1:0:0:0:
257,193,65488,1,0,1:0:0:0:
257,193,65644,1,8,1:0:0:0:
257,192,65800,1,0,1:0:0:0:
257,193,65957,1,8,1:0:0:0:
257,193,66035,1,8,1:0:0:0:
257,193,66113,1,8,1:0:0:0:
257,193,66269,1,0,1:0:0:0:
257,193,66425,1,8,1:0:0:0:
257,193,66582,1,0,1:0:0:0:
257,193,66738,1,8,1:0:0:0:
257,193,66894,1,0,1:0:0:0:
257,193,66972,1,0,1:0:0:0:
257,193,67050,1,0,1:0:0:0:
256,192,67207,1,8,1:0:0:0:
