osu file format v14

[General]
AudioFilename: audio.mp3
AudioLeadIn: 0
PreviewTime: 235
Countdown: 0
SampleSet: Normal
StackLeniency: 0.7
Mode: 1
LetterboxInBreaks: 0
WidescreenStoryboard: 1

[Editor]
Bookmarks: 17207,32207,47207,57207,67207
DistanceSpacing: 0.9
BeatDivisor: 6
GridSize: 32
TimelineZoom: 1.1

[Metadata]
Title:Lake
TitleUnicode:みずうみ
Artist:Go Ichinose
ArtistUnicode:一之瀬剛
Creator:nevqr
Version:Kantan
Source:ポケットモンスター ダイヤモンド・パール
Tags:mizuumi verity shinji シンジ湖 acuity eichi エイチ湖 valor risshi リッシ湖 pokémon pokemon ポケモン pocket monsters poketto monsuta monsutā ポケットモンスター ost original soundtrack sound track 7 disk 1 gō gou hitomi sato satō satou 佐藤仁美 junichi jun'ichi masuda 増田順一 diamond and & pearl platinum version ポケットモンスタープラチナ d p pt dp dppt brilliant diamond and & shining pearl version bdsp ポケットモンスター ブリリアントダイヤモンド・シャイニングパール gen generation four fourth 4 4th 4g g4 iv 第四世代 eight eighth 8 8th 8g g8 viii 第八世代 sinnoh シンオウ the lake guardians trio 湖の神々 mesprit emrit エムリット uxie yuxie ユクシー azelf agnome アグノム theme videogame video game vgm instrumental electronic gamefreak game freak nintendo ds nds 任天堂 ニンテンドーDS ポケモン ダイヤモンド&パール スーパーミュージックコレクション super music collection complete
BeatmapID:4279769
BeatmapSetID:2049655

[Difficulty]
HPDrainRate:9
CircleSize:2
OverallDifficulty:3
ApproachRate:9
SliderMultiplier:1.4
SliderTickRate:1

[Events]
//Background and Video events
0,0,"bg.jpeg",0,40
//Break Periods
//Storyboard Layer 0 (Background)
//Storyboard Layer 1 (Fail)
//Storyboard Layer 2 (Pass)
//Storyboard Layer 3 (Foreground)
//Storyboard Layer 4 (Overlay)
//Storyboard Sound Samples

[TimingPoints]
332,937.5,2,1,0,30,1,0
332,-37.037037037037,4,1,0,30,0,0
483,-37.037037037037,4,1,0,32,0,0
639,-37.037037037037,4,1,0,33,0,0
795,-37.037037037037,4,1,0,35,0,0
952,-37.037037037037,4,1,0,37,0,0
1108,-37.037037037037,4,1,0,38,0,0
1264,-37.037037037037,4,1,0,40,0,0
1420,-37.037037037037,4,1,0,42,0,0
1577,-37.037037037037,4,1,0,43,0,0
1733,-37.037037037037,4,1,0,45,0,0
1889,-37.037037037037,4,1,0,47,0,0
2050,-37.037037037037,4,1,0,48,0,0
2207,-37.037037037037,4,1,0,50,0,0
45957,-37.037037037037,4,1,0,52,0,0
46113,-37.037037037037,4,1,0,55,0,0
46269,-37.037037037037,4,1,0,57,0,0
46425,-37.037037037037,4,1,0,59,0,0
46582,-37.037037037037,4,1,0,62,0,0
46660,-37.037037037037,4,1,0,64,0,0
46738,-37.037037037037,4,1,0,66,0,0
46816,-37.037037037037,4,1,0,68,0,0
46894,-37.037037037037,4,1,0,71,0,0
46972,-37.037037037037,4,1,0,73,0,0
47050,-37.037037037037,4,1,0,75,0,0
47128,-37.037037037037,4,1,0,78,0,0
47207,312.5,4,1,0,80,1,1
47207,-111.111111111111,4,1,0,80,0,1
51660,-111.111111111111,4,1,0,80,0,1
51738,-111.111111111111,4,1,0,80,0,1
51816,-111.111111111111,4,1,0,80,0,1
51894,-111.111111111111,4,1,0,80,0,1
51972,-111.111111111111,4,1,0,80,0,1
52050,-111.111111111111,4,1,0,80,0,1
52128,-111.111111111111,4,1,0,80,0,1
52207,-111.111111111111,4,1,0,80,0,1
52285,-111.111111111111,4,1,0,80,0,1
52363,-111.111111111111,4,1,0,80,0,1
52441,-111.111111111111,4,1,0,80,0,1
52519,-111.111111111111,4,1,0,80,0,1
52597,-111.111111111111,4,1,0,80,0,1
52675,-111.111111111111,4,1,0,80,0,1
52753,-111.111111111111,4,1,0,80,0,1
52832,-111.111111111111,4,1,0,80,0,1
52910,-111.111111111111,4,1,0,80,0,1
52988,-111.111111111111,4,1,0,80,0,1
53066,-111.111111111111,4,1,0,80,0,1
53144,-111.111111111111,4,1,0,80,0,1
53222,-111.111111111111,4,1,0,80,0,1
53300,-111.111111111111,4,1,0,80,0,1
53378,-111.111111111111,4,1,0,80,0,1
53457,-111.111111111111,4,1,0,80,0,1
53535,-111.111111111111,4,1,0,80,0,1
53613,-111.111111111111,4,1,0,80,0,1
53691,-111.111111111111,4,1,0,80,0,1
53769,-111.111111111111,4,1,0,80,0,1
53847,-111.111111111111,4,1,0,80,0,1
53925,-111.111111111111,4,1,0,80,0,1
54003,-111.111111111111,4,1,0,80,0,1
54082,-111.111111111111,4,1,0,80,0,1
54160,-111.111111111111,4,1,0,80,0,1
54238,-111.111111111111,4,1,0,80,0,1
54316,-111.111111111111,4,1,0,80,0,1
54394,-111.111111111111,4,1,0,80,0,1
54472,-111.111111111111,4,1,0,80,0,1
54550,-111.111111111111,4,1,0,80,0,1
54628,-111.111111111111,4,1,0,80,0,1
54707,-111.111111111111,4,1,0,80,0,1
54785,-111.111111111111,4,1,0,80,0,1
54863,-111.111111111111,4,1,0,80,0,1
54941,-111.111111111111,4,1,0,80,0,1
55019,-111.111111111111,4,1,0,80,0,1
55097,-111.111111111111,4,1,0,80,0,1
55175,-111.111111111111,4,1,0,80,0,1
55253,-111.111111111111,4,1,0,80,0,1
55332,-111.111111111111,4,1,0,80,0,1
55410,-111.111111111111,4,1,0,80,0,1
55488,-111.111111111111,4,1,0,80,0,1
55566,-111.111111111111,4,1,0,80,0,1
55644,-111.111111111111,4,1,0,80,0,1
55722,-111.111111111111,4,1,0,80,0,1
55800,-111.111111111111,4,1,0,80,0,1
55878,-111.111111111111,4,1,0,80,0,1
55957,-111.111111111111,4,1,0,80,0,1
56035,-111.111111111111,4,1,0,80,0,1
56113,-111.111111111111,4,1,0,80,0,1
56191,-111.111111111111,4,1,0,80,0,1
56269,-111.111111111111,4,1,0,80,0,1
56347,-111.111111111111,4,1,0,80,0,1
56425,-111.111111111111,4,1,0,80,0,1
56503,-111.111111111111,4,1,0,80,0,1
56582,-111.111111111111,4,1,0,80,0,1
56660,-111.111111111111,4,1,0,80,0,1
56738,-111.111111111111,4,1,0,80,0,1
56816,-111.111111111111,4,1,0,80,0,1
56894,-111.111111111111,4,1,0,80,0,1
56972,-111.111111111111,4,1,0,80,0,1
57050,-111.111111111111,4,1,0,80,0,1
57128,-111.111111111111,4,1,0,80,0,1
57207,-111.111111111111,4,1,0,80,0,1
61660,-111.111111111111,4,1,0,80,0,1
61738,-111.111111111111,4,1,0,80,0,1
61816,-111.111111111111,4,1,0,80,0,1
61894,-111.111111111111,4,1,0,80,0,1
61972,-111.111111111111,4,1,0,80,0,1
62050,-111.111111111111,4,1,0,80,0,1
62128,-111.111111111111,4,1,0,80,0,1
62206,-111.111111111111,4,1,0,80,0,1
62285,-111.111111111111,4,1,0,80,0,1
62363,-111.111111111111,4,1,0,80,0,1
62441,-111.111111111111,4,1,0,80,0,1
62519,-111.111111111111,4,1,0,80,0,1
62597,-111.111111111111,4,1,0,80,0,1
62675,-111.111111111111,4,1,0,80,0,1
62753,-111.111111111111,4,1,0,80,0,1
62831,-111.111111111111,4,1,0,80,0,1
62910,-111.111111111111,4,1,0,80,0,1
62988,-111.111111111111,4,1,0,80,0,1
63066,-111.111111111111,4,1,0,80,0,1
63144,-111.111111111111,4,1,0,80,0,1
63222,-111.111111111111,4,1,0,80,0,1
63300,-111.111111111111,4,1,0,80,0,1
63378,-111.111111111111,4,1,0,80,0,1
63456,-111.111111111111,4,1,0,80,0,1
63535,-111.111111111111,4,1,0,80,0,1
63613,-111.111111111111,4,1,0,80,0,1
63691,-111.111111111111,4,1,0,80,0,1
63769,-111.111111111111,4,1,0,80,0,1
63847,-111.111111111111,4,1,0,80,0,1
63925,-111.111111111111,4,1,0,80,0,1
64003,-111.111111111111,4,1,0,80,0,1
64081,-111.111111111111,4,1,0,80,0,1
64160,-111.111111111111,4,1,0,80,0,1
64238,-111.111111111111,4,1,0,80,0,1
64316,-111.111111111111,4,1,0,80,0,1
64394,-111.111111111111,4,1,0,80,0,1
64472,-111.111111111111,4,1,0,80,0,1
64550,-111.111111111111,4,1,0,80,0,1
64628,-111.111111111111,4,1,0,80,0,1
64706,-111.111111111111,4,1,0,80,0,1
64785,-111.111111111111,4,1,0,80,0,1
64863,-111.111111111111,4,1,0,80,0,1
64941,-111.111111111111,4,1,0,80,0,1
65019,-111.111111111111,4,1,0,80,0,1
65097,-111.111111111111,4,1,0,80,0,1
65175,-111.111111111111,4,1,0,80,0,1
65253,-111.111111111111,4,1,0,80,0,1
65331,-111.111111111111,4,1,0,80,0,1
65410,-111.111111111111,4,1,0,80,0,1
65488,-111.111111111111,4,1,0,80,0,1
65566,-111.111111111111,4,1,0,80,0,1
65644,-111.111111111111,4,1,0,80,0,1
65722,-111.111111111111,4,1,0,80,0,1
65800,-111.111111111111,4,1,0,80,0,1
65878,-111.111111111111,4,1,0,80,0,1
65957,-111.111111111111,4,1,0,80,0,1
66035,-111.111111111111,4,1,0,80,0,1
66113,-111.111111111111,4,1,0,80,0,1
66191,-111.111111111111,4,1,0,80,0,1
66269,-111.111111111111,4,1,0,80,0,1
66347,-111.111111111111,4,1,0,80,0,1
66425,-111.111111111111,4,1,0,80,0,1
66503,-111.111111111111,4,1,0,80,0,1
66582,-111.111111111111,4,1,0,80,0,1
66660,-111.111111111111,4,1,0,80,0,1
66738,-111.111111111111,4,1,0,80,0,1
66816,-111.111111111111,4,1,0,80,0,1
66894,-111.111111111111,4,1,0,80,0,1
66972,-111.111111111111,4,1,0,80,0,1
67050,-111.111111111111,4,1,0,80,0,1
67128,-111.111111111111,4,1,0,80,0,1
67207,937.5,4,1,0,80,1,0
67207,-37.037037037037,4,1,0,80,0,0

[HitObjects]
256,192,332,8,0,1894,1:0:0:0:
256,192,2207,5,8,1:0:0:0:
256,192,2519,1,0,1:0:0:0:
256,192,3144,1,8,1:0:0:0:
256,192,3769,1,0,1:0:0:0:
256,192,4082,1,0,1:0:0:0:
256,192,5019,1,8,1:0:0:0:
256,192,5332,1,0,1:0:0:0:
256,192,5957,1,8,1:0:0:0:
256,192,6269,1,0,1:0:0:0:
256,192,6894,1,8,1:0:0:0:
256,192,7519,1,0,1:0:0:0:
256,192,7832,1,8,1:0:0:0:
256,192,8457,1,8,1:0:0:0:
256,192,8769,1,0,1:0:0:0:
256,192,9082,1,8,1:0:0:0:
256,192,9707,1,0,1:0:0:0:
256,192,10019,1,8,1:0:0:0:
256,192,10644,1,8,1:0:0:0:
256,192,11269,1,0,1:0:0:0:
256,192,11582,1,0,1:0:0:0:
256,192,12519,1,8,1:0:0:0:
256,192,12832,1,0,1:0:0:0:
256,192,13457,1,0,1:0:0:0:
256,192,13769,1,8,1:0:0:0:
256,192,14394,1,8,1:0:0:0:
256,192,15019,1,0,1:0:0:0:
256,192,15332,1,8,1:0:0:0:
256,192,15957,1,8,1:0:0:0:
256,192,16269,1,8,1:0:0:0:
256,192,16582,1,0,1:0:0:0:
256,192,17207,1,8,1:0:0:0:
256,192,17519,1,0,1:0:0:0:
256,192,18144,1,8,1:0:0:0:
256,192,18769,1,0,1:0:0:0:
256,192,19082,1,0,1:0:0:0:
256,192,20019,1,8,1:0:0:0:
256,192,20332,1,0,1:0:0:0:
256,192,20957,1,8,1:0:0:0:
256,192,21269,1,0,1:0:0:0:
256,192,21894,1,8,1:0:0:0:
256,192,22519,1,0,1:0:0:0:
256,192,22832,1,8,1:0:0:0:
256,192,23300,1,0,1:0:0:0:
256,192,23769,1,8,1:0:0:0:
256,192,24082,1,0,1:0:0:0:
256,192,24707,1,0,1:0:0:0:
256,192,25019,1,8,1:0:0:0:
256,192,25644,1,8,1:0:0:0:
256,192,26269,1,0,1:0:0:0:
256,192,26582,1,0,1:0:0:0:
256,192,27519,1,8,1:0:0:0:
256,192,27832,1,0,0:0:0:0:
256,192,28457,1,0,1:0:0:0:
256,192,28769,1,8,1:0:0:0:
256,192,29394,1,8,1:0:0:0:
256,192,30019,1,0,1:0:0:0:
256,192,30332,1,8,1:0:0:0:
256,192,30800,1,0,1:0:0:0:
256,192,31269,1,8,1:0:0:0:
256,192,31582,1,0,1:0:0:0:
256,192,32207,1,8,1:0:0:0:
256,192,32519,1,0,1:0:0:0:
256,192,33144,1,8,1:0:0:0:
256,192,33769,1,0,1:0:0:0:
256,192,34082,1,0,1:0:0:0:
256,192,35019,1,8,1:0:0:0:
256,192,35332,1,0,1:0:0:0:
256,192,35957,1,8,1:0:0:0:
256,192,36269,1,0,1:0:0:0:
256,192,36894,1,8,1:0:0:0:
256,192,37519,1,0,1:0:0:0:
256,192,37832,1,8,1:0:0:0:
256,192,38300,1,0,1:0:0:0:
256,192,38769,1,8,1:0:0:0:
256,192,39082,1,0,1:0:0:0:
256,192,39707,1,0,1:0:0:0:
256,192,40019,1,8,1:0:0:0:
256,192,40644,1,8,1:0:0:0:
256,192,41269,1,0,1:0:0:0:
256,192,41582,1,0,1:0:0:0:
256,192,42519,1,8,1:0:0:0:
256,192,42832,1,0,1:0:0:0:
256,192,43457,1,8,1:0:0:0:
256,192,44082,1,0,1:0:0:0:
256,192,44707,1,8,1:0:0:0:
256,192,45332,1,0,1:0:0:0:
256,192,45957,1,8,1:0:0:0:
256,192,46269,1,8,1:0:0:0:
256,192,46582,1,0,1:0:0:0:
256,192,47207,1,8,1:0:0:0:
256,192,47832,1,0,1:0:0:0:
256,192,48144,1,8,1:0:0:0:
256,192,49082,1,8,1:0:0:0:
257,192,49394,1,0,1:0:0:0:
257,192,49707,1,8,1:0:0:0:
257,192,50332,1,0,1:0:0:0:
257,192,50644,1,8,1:0:0:0:
257,192,51582,1,8,1:0:0:0:
257,193,52207,1,8,1:0:0:0:
257,193,52519,1,8,1:0:0:0:
257,193,52832,1,0,1:0:0:0:
257,193,53144,1,8,1:0:0:0:
257,193,53457,1,0,1:0:0:0:
257,193,53769,1,0,0:0:0:0:
257,193,54082,1,8,1:0:0:0:
257,193,54707,1,0,1:0:0:0:
257,193,55019,1,0,1:0:0:0:
257,193,55332,1,8,1:0:0:0:
257,193,55644,1,0,1:0:0:0:
257,193,55957,1,8,1:0:0:0:
257,193,56269,1,8,0:0:0:0:
257,193,56582,1,0,1:0:0:0:
256,192,57207,1,8,1:0:0:0:
256,192,57832,1,0,1:0:0:0:
256,192,58144,1,8,1:0:0:0:
257,192,59082,1,8,1:0:0:0:
257,192,59394,1,0,1:0:0:0:
257,192,59707,1,8,1:0:0:0:
257,192,60332,1,0,1:0:0:0:
257,192,60644,1,8,1:0:0:0:
257,192,61582,1,8,1:0:0:0:
257,193,62207,1,0,1:0:0:0:
257,193,62519,1,0,1:0:0:0:
257,193,62831,1,8,1:0:0:0:
257,193,63144,1,0,1:0:0:0:
257,193,63457,1,8,1:0:0:0:
257,193,63769,1,8,0:0:0:0:
257,193,64081,1,0,1:0:0:0:
257,193,64706,1,8,1:0:0:0:
257,193,65019,1,8,1:0:0:0:
257,193,65332,1,0,1:0:0:0:
257,193,65644,1,8,1:0:0:0:
257,193,65957,1,0,1:0:0:0:
257,193,66269,1,0,0:0:0:0:
257,193,66582,1,8,1:0:0:0:
256,192,67207,1,8,1:0:0:0:
