osu file format v14

[General]
AudioFilename: audio.mp3
AudioLeadIn: 0
PreviewTime: 2438
Countdown: 0
SampleSet: Normal
StackLeniency: 0.4
Mode: 0
LetterboxInBreaks: 0
WidescreenStoryboard: 1

[Editor]
DistanceSpacing: 1
BeatDivisor: 8
GridSize: 4
TimelineZoom: 1.2

[Metadata]
Title:Lake
TitleUnicode:Lake
Artist:Go Ichinose
ArtistUnicode:Gō Ichinose
Creator:Incomp
Version:Arceus
Source:Pokémon Diamond
Tags:pokemon pearl platinum gen 4 generation four nintendo rpg game freak hitomi sato junichi masuda morikazu aoki satoshi nohara 4th
BeatmapID:1755216
BeatmapSetID:838347

[Difficulty]
HPDrainRate:3
CircleSize:3.5
OverallDifficulty:8
ApproachRate:9.3
SliderMultiplier:3.51999990463257
SliderTickRate:1

[Events]
//Background and Video events
0,0,"bg.jpg",0,0
//Break Periods
//Storyboard Layer 0 (Background)
//Storyboard Layer 1 (Fail)
//Storyboard Layer 2 (Pass)
//Storyboard Layer 3 (Foreground)
//Storyboard Sound Samples

[TimingPoints]
563,937.5,3,2,1,25,1,0
563,-166.666666666667,3,2,1,25,0,0
875,-153.846153846154,3,2,1,25,0,0
1188,-142.857142857143,3,2,1,25,0,0
1500,-133.333333333333,3,2,1,25,0,0
1813,-125,3,2,1,25,0,0
2125,-117.647058823529,3,2,1,25,0,0
2438,937.5,4,1,1,25,1,0
47438,625,4,1,1,25,1,0
47438,-151.515151515152,4,1,1,25,0,0
67308,937.5,4,1,1,25,1,0
67308,-100,4,1,1,25,0,0
112308,625,4,1,1,25,1,0
112308,-151.515151515152,4,1,1,25,0,0
132151,937.5,4,1,1,25,1,0

[Colours]
Combo1 : 83,81,94
Combo2 : 101,59,73
Combo3 : 190,88,84
Combo4 : 69,56,63

[HitObjects]
256,192,563,6,0,L|264:225,1,35.199997972107
319,132,875,2,0,L|309:95,1,38.1333305545808
339,215,1188,2,0,L|349:254,1,41.0666643007915
236,109,1500,2,0,L|225:66,1,44.0000004863739
402,155,1813,2,0,L|446:167,1,46.9333320617676
173,169,2125,2,0,L|125:155,1,49.8666662667592
382,72,2438,5,6,0:0:0:0:
402,155,2594,1,0,0:0:0:0:
319,132,2750,1,0,0:0:0:0:
339,215,2906,1,0,0:0:0:0:
256,192,3063,1,0,0:0:0:0:
276,275,3219,1,0,0:0:0:0:
173,168,3375,5,8,0:0:0:0:
110,229,3531,1,0,0:0:0:0:
193,252,3688,1,0,0:0:0:0:
130,312,3844,1,0,0:0:0:0:
27,206,4000,6,0,P|37:181|63:157,1,58.6666650772095,2|0,0:0|0:0,0:0:0:0:
236,109,4313,2,0,L|263:116,2,29.3333325386048,2|0|0,0:0|0:0|0:0,0:0:0:0:
236,109,5250,1,8,0:0:0:0:
193,252,5563,1,2,0:0:0:0:
193,252,6188,5,6,0:0:0:0:
213,335,6344,1,0,0:0:0:0:
256,192,6500,1,0,0:0:0:0:
276,275,6656,1,0,0:0:0:0:
319,132,6813,1,0,0:0:0:0:
339,215,6969,1,0,0:0:0:0:
236,109,7125,5,8,0:0:0:0:
256,192,7281,1,0,0:0:0:0:
153,86,7438,1,0,0:0:0:0:
173,169,7594,1,0,0:0:0:0:
70,63,7750,6,0,B|70:88|70:88|80:123,1,58.6666650772095,2|0,0:0|0:0,0:0:0:0:
193,252,8063,2,0,P|245:278|301:267,1,117.333330154419,2|0,0:0|0:0,0:0:0:0:
256,192,8531,1,2,0:0:0:0:
130,312,8688,6,0,P|103:315|69:305,1,58.6666650772095,2|0,0:0|0:0,0:0:0:0:
110,229,9000,1,8,0:0:0:0:
114,233,9156,1,0,0:0:0:0:
276,275,9313,2,0,P|306:263|326:240,1,58.6666650772095,2|0,0:0|0:0,0:0:0:0:
386,183,9625,1,0,0:0:0:0:
406,266,9781,1,0,0:0:0:0:
256,192,9938,5,6,0:0:0:0:
276,275,10094,1,0,0:0:0:0:
173,169,10250,1,0,0:0:0:0:
193,252,10406,1,0,0:0:0:0:
90,146,10563,1,0,0:0:0:0:
110,229,10719,1,0,0:0:0:0:
236,109,10875,5,8,0:0:0:0:
256,192,11031,1,0,0:0:0:0:
319,132,11188,1,0,0:0:0:0:
339,215,11344,1,0,0:0:0:0:
465,94,11500,6,0,P|468:121|458:155,1,58.6666650772095,2|0,0:0|0:0,0:0:0:0:
359,298,11813,2,0,L|338:318,2,29.3333325386048,2|0|0,0:0|0:0|0:0,0:0:0:0:
276,275,12281,2,0,L|235:316,1,58.6666650772095
234,316,12750,1,8,0:0:0:0:
173,169,13063,1,2,0:0:0:0:
173,169,13688,5,6,0:0:0:0:
256,192,13844,1,2,0:0:0:0:
236,109,14000,1,0,0:0:0:0:
319,132,14156,1,2,0:0:0:0:
299,49,14313,1,2,0:0:0:0:
382,72,14469,1,0,0:0:0:0:
153,86,14625,5,8,0:0:0:0:
173,169,14781,1,0,0:0:0:0:
90,146,14938,1,0,0:0:0:0:
110,229,15094,1,0,0:0:0:0:
236,108,15250,6,0,P|262:105|296:115,1,58.6666650772095,2|0,0:0|0:0,0:0:0:0:
256,192,15563,2,0,P|198:186|158:146,1,117.333330154419,2|0,0:0|0:0,0:0:0:0:
138,63,16031,1,2,0:0:0:0:
319,131,16188,2,0,P|335:152|343:186,1,58.6666650772095,2|0,0:0|0:0,0:0:0:0:
276,275,16500,5,8,0:0:0:0:
256,192,16656,1,0,0:0:0:0:
359,298,16813,1,10,0:0:0:0:
193,252,16969,1,0,0:0:0:0:
339,215,17125,1,8,0:0:0:0:
213,335,17281,1,0,0:0:0:0:
173,169,17438,6,0,L|158:108,1,58.6666650772095,6|0,0:0|0:0,0:0:0:0:
236,109,17750,1,0,0:0:0:0:
256,192,17906,1,0,0:0:0:0:
319,132,18063,1,0,0:0:0:0:
339,215,18219,1,0,0:0:0:0:
173,169,18375,5,8,0:0:0:0:
193,252,18531,1,0,0:0:0:0:
110,229,18688,1,0,0:0:0:0:
130,312,18844,1,0,0:0:0:0:
27,206,19000,6,0,P|36:181|62:156,1,58.6666650772095,2|0,0:0|0:0,0:0:0:0:
236,109,19313,2,0,L|263:116,2,29.3333325386048,2|0|0,0:0|0:0|0:0,0:0:0:0:
236,109,20250,1,8,0:0:0:0:
276,275,20563,1,2,0:0:0:0:
276,275,21188,5,6,0:0:0:0:
296,358,21344,1,2,0:0:0:0:
193,252,21500,1,0,0:0:0:0:
213,335,21656,1,0,0:0:0:0:
110,229,21813,1,0,0:0:0:0:
130,312,21969,1,0,0:0:0:0:
256,192,22125,5,8,0:0:0:0:
276,275,22281,1,0,0:0:0:0:
319,132,22438,1,0,0:0:0:0:
339,215,22594,1,0,0:0:0:0:
382,72,22750,6,0,P|356:52|326:46,1,58.6666650772095,2|0,0:0|0:0,0:0:0:0:
153,86,23063,2,0,L|132:106,2,29.3333325386048,2|0|0,0:0|0:0|0:0,0:0:0:0:
153,86,23531,1,2,0:0:0:0:
193,252,23688,1,2,0:0:0:0:
216,26,24000,1,8,0:0:0:0:
173,169,24313,1,2,0:0:0:0:
90,146,24469,6,0,L|33:160,2,58.6666650772095
236,109,24938,5,6,0:0:0:0:
256,192,25094,1,0,0:0:0:0:
153,86,25250,1,0,0:0:0:0:
173,169,25406,1,2,0:0:0:0:
70,63,25563,1,2,0:0:0:0:
90,146,25719,1,0,0:0:0:0:
216,26,25875,5,8,0:0:0:0:
236,109,26031,1,0,0:0:0:0:
299,49,26188,1,0,0:0:0:0:
319,132,26344,1,0,0:0:0:0:
153,86,26500,6,0,P|122:98|102:121,1,58.6666650772095,2|0,0:0|0:0,0:0:0:0:
47,289,26813,2,0,L|38:316,2,29.3333325386048,2|0|0,0:0|0:0|0:0,0:0:0:0:
47,289,27750,1,8,0:0:0:0:
256,192,28063,1,0,0:0:0:0:
256,192,28375,6,0,L|198:176,1,58.6666650772095
7,123,28688,5,6,0:0:0:0:
27,206,28844,1,2,0:0:0:0:
90,146,29000,1,0,0:0:0:0:
110,229,29156,1,0,0:0:0:0:
173,169,29313,1,0,0:0:0:0:
193,252,29469,1,0,0:0:0:0:
319,132,29625,5,8,0:0:0:0:
339,215,29781,1,0,0:0:0:0:
402,155,29937,1,0,0:0:0:0:
422,238,30094,1,0,0:0:0:0:
465,95,30250,6,0,P|439:75|409:69,1,58.6666650772095,2|0,0:0|0:0,0:0:0:0:
236,109,30563,2,0,L|207:115,2,29.3333325386048,2|0|0,0:0|0:0|0:0,0:0:0:0:
236,109,31031,1,2,0:0:0:0:
110,229,31188,1,2,0:0:0:0:
299,49,31500,5,8,0:0:0:0:
382,72,31656,1,0,0:0:0:0:
402,155,31813,1,2,0:0:0:0:
339,215,31969,1,0,0:0:0:0:
256,192,32125,1,0,0:0:0:0:
173,169,32281,1,0,0:0:0:0:
319,132,32438,5,6,0:0:0:0:
339,215,32594,1,2,0:0:0:0:
256,192,32750,1,0,0:0:0:0:
276,275,32906,1,0,0:0:0:0:
193,252,33063,1,0,0:0:0:0:
213,335,33219,1,0,0:0:0:0:
339,215,33375,5,8,0:0:0:0:
359,298,33531,1,0,0:0:0:0:
402,155,33688,1,0,0:0:0:0:
422,238,33844,1,0,0:0:0:0:
256,192,34000,6,0,L|200:176,1,58.6666650772095,2|0,0:0|0:0,0:0:0:0:
70,63,34313,2,0,L|42:55,2,29.3333325386048,2|0|0,0:0|0:0|0:0,0:0:0:0:
70,63,35250,1,8,0:0:0:0:
173,169,35563,1,2,0:0:0:0:
173,169,36188,5,6,0:0:0:0:
193,252,36344,1,2,0:0:0:0:
236,109,36500,1,0,0:0:0:0:
256,192,36656,1,0,0:0:0:0:
299,49,36813,1,0,0:0:0:0:
319,132,36969,1,0,0:0:0:0:
153,86,37125,5,8,0:0:0:0:
236,109,37281,1,0,0:0:0:0:
173,169,37438,1,0,0:0:0:0:
256,192,37594,1,0,0:0:0:0:
90,146,37750,6,0,B|33:130,1,58.6666650772095,2|0,0:0|0:0,0:0:0:0:
193,252,38063,2,0,B|221:259,2,29.3333325386048,2|0|0,0:0|0:0|0:0,0:0:0:0:
193,252,38531,1,2,0:0:0:0:
27,206,38688,1,2,0:0:0:0:
256,192,39000,1,8,0:0:0:0:
47,289,39313,1,0,0:0:0:0:
27,206,39469,6,0,B|11:149,2,58.6666650772095
130,312,39938,5,6,0:0:0:0:
213,335,40094,1,0,0:0:0:0:
110,229,40250,1,0,0:0:0:0:
193,252,40406,1,0,0:0:0:0:
90,146,40563,1,0,0:0:0:0:
173,169,40719,1,0,0:0:0:0:
213,335,40875,5,8,0:0:0:0:
276,275,41031,1,0,0:0:0:0:
130,312,41188,1,0,0:0:0:0:
193,252,41344,1,0,0:0:0:0:
67,372,41500,6,0,B|51:315,1,58.6666650772095,2|0,0:0|0:0,0:0:0:0:
7,123,41813,2,0,B|0:94,2,29.3333325386048,2|0|0,0:0|0:0|0:0,0:0:0:0:
7,123,42750,1,8,0:0:0:0:
193,252,43063,1,2,0:0:0:0:
193,252,43375,6,0,L|251:224,1,58.6666650772095
402,155,43688,6,0,P|406:122|396:93,1,58.6666650772095,6|2,0:0|0:0,0:0:0:0:
338,37,44000,1,0,0:0:0:0:
339,215,44156,1,2,0:0:0:0:
153,86,44313,6,0,P|120:81|91:91,1,58.6666650772095,2|0,0:0|0:0,0:0:0:0:
33,149,44625,1,8,0:0:0:0:
37,153,44781,1,0,0:0:0:0:
236,108,44938,6,0,P|262:105|296:115,1,58.6666650772095,2|0,0:0|0:0,0:0:0:0:
375,136,45250,1,0,0:0:0:0:
256,192,45406,1,0,0:0:0:0:
438,76,45563,6,0,L|463:59,2,29.3333325386048,2|0|2,0:0|0:0|0:0,0:0:0:0:
438,76,46031,1,0,0:0:0:0:
339,215,46188,5,0,0:0:0:0:
256,192,46344,1,0,0:0:0:0:
319,132,46500,1,8,0:0:0:0:
276,275,46656,1,0,0:0:0:0:
173,169,46813,5,0,0:0:0:0:
185,142,46891,1,0,0:0:0:0:
205,121,46969,1,0,0:0:0:0:
231,108,47047,1,0,0:0:0:0:
260,104,47125,2,0,P|276:104|289:109,3,29.3333325386048
256,192,47438,6,0,L|213:231,2,58.0799982491913,6|2|0,0:0|0:0|0:0,0:0:0:0:
256,192,47906,1,0,0:0:0:0:
213,335,48063,2,0,P|235:353|266:362,1,58.0799982491913
276,275,48375,1,2,0:0:0:0:
130,312,48531,1,2,0:0:0:0:
256,192,48688,2,0,P|284:188|315:198,2,58.0799982491913,8|0|8,0:0|0:0|0:0,0:0:0:0:
256,192,49313,5,2,0:0:0:0:
193,252,49469,1,8,0:0:0:0:
236,109,49625,1,2,0:0:0:0:
276,275,49781,1,8,0:0:0:0:
110,229,49938,6,0,L|54:211,2,58.0799982491913,6|2|0,0:0|0:0|0:0,0:0:0:0:
193,252,50406,1,0,0:0:0:0:
153,86,50563,2,0,P|131:68|100:59,1,58.0799982491913
90,146,50875,1,2,0:0:0:0:
216,26,51031,1,2,0:0:0:0:
173,169,51188,2,0,L|155:223,1,58.0799982491913,8|0,0:0|0:0,0:0:0:0:
215,285,51500,2,0,L|232:339,1,58.0799982491913,8|0,0:0|0:0,0:0:0:0:
236,344,51813,5,8,0:0:0:0:
246,353,51891,1,8,0:0:0:0:
259,361,51969,1,8,0:0:0:0:
272,366,52047,1,8,0:0:0:0:
286,369,52125,5,0,0:0:0:0:
290,340,52203,1,0,0:0:0:0:
294,311,52281,1,0,0:0:0:0:
298,282,52359,1,0,0:0:0:0:
303,254,52438,6,0,L|307:224,3,29.0399991245957,6|0|2|0,0:0|0:0|0:0|0:0,0:0:0:0:
372,302,52750,6,0,L|367:331,3,29.0399991245957,8|0|0|0,0:0|0:0|0:0|0:0,0:0:0:0:
384,219,53063,6,0,L|388:189,3,29.0399991245957,8|0|0|0,0:0|0:0|0:0|0:0,0:0:0:0:
453,267,53375,6,0,L|448:296,3,29.0399991245957,2|0|2|0,0:0|0:0|0:0|0:0,0:0:0:0:
465,184,53688,5,8,0:0:0:0:
462,169,53766,1,0,0:0:0:0:
457,156,53844,1,0,0:0:0:0:
449,143,53922,1,0,0:0:0:0:
439,133,54000,2,0,L|393:100,3,29.0399991245957,8|0|0|0,0:0|0:0|0:0|0:0,0:0:0:0:
388,190,54313,5,2,0:0:0:0:
331,59,54469,1,8,0:0:0:0:
319,142,54625,1,2,0:0:0:0:
412,24,54781,1,8,0:0:0:0:
250,94,54938,5,6,0:0:0:0:
238,120,55016,1,0,0:0:0:0:
235,149,55094,1,2,0:0:0:0:
243,177,55172,1,0,0:0:0:0:
259,200,55250,1,8,0:0:0:0:
283,217,55328,1,0,0:0:0:0:
310,225,55406,1,0,0:0:0:0:
339,223,55484,1,0,0:0:0:0:
365,208,55563,5,8,0:0:0:0:
349,183,55641,1,0,0:0:0:0:
326,165,55719,1,0,0:0:0:0:
299,156,55797,1,0,0:0:0:0:
270,155,55875,1,2,0:0:0:0:
243,164,55953,1,0,0:0:0:0:
219,182,56031,1,2,0:0:0:0:
203,205,56109,1,0,0:0:0:0:
195,233,56188,6,0,L|190:261,3,29.0399991245957,8|0|0|0,0:0|0:0|0:0|0:0,0:0:0:0:
114,268,56500,6,0,L|109:296,3,29.0399991245957,8|0|0|0,0:0|0:0|0:0|0:0,0:0:0:0:
126,185,56813,5,2,0:0:0:0:
183,316,56969,1,8,0:0:0:0:
207,150,57125,1,2,0:0:0:0:
102,351,57281,1,8,0:0:0:0:
276,198,57438,6,0,P|290:170|291:142,2,58.0799982491913,6|0|8,0:0|0:0|0:0,0:0:0:0:
206,150,57906,1,0,0:0:0:0:
264,281,58063,2,0,P|295:280|320:268,1,58.0799982491913,8|0,0:0|0:0,0:0:0:0:
400,234,58375,1,0,0:0:0:0:
388,317,58531,1,0,0:0:0:0:
276,198,58688,2,0,P|268:170|272:140,2,58.0799982491913,8|0|8,0:0|0:0|0:0,0:0:0:0:
276,198,59313,5,2,0:0:0:0:
369,80,59469,1,8,0:0:0:0:
207,150,59625,1,2,0:0:0:0:
438,128,59781,1,8,0:0:0:0:
219,67,59938,6,0,P|188:68|161:80,2,58.0799982491913,2|0|8,0:0|0:0|0:0,0:0:0:0:
288,115,60406,1,0,0:0:0:0:
126,185,60563,2,0,P|112:213|111:242,1,58.0799982491913,8|0,0:0|0:0,0:0:0:0:
195,233,60875,1,0,0:0:0:0:
33,303,61031,1,0,0:0:0:0:
207,150,61188,2,0,L|263:126,1,58.0799982491913,8|0,0:0|0:0,0:0:0:0:
329,175,61500,2,0,L|385:199,1,58.0799982491913,8|0,0:0|0:0,0:0:0:0:
398,278,61813,5,8,0:0:0:0:
402,282,61891,1,8,0:0:0:0:
406,286,61969,1,8,0:0:0:0:
410,290,62047,1,8,0:0:0:0:
414,294,62125,5,0,0:0:0:0:
393,314,62203,1,0,0:0:0:0:
367,327,62281,1,0,0:0:0:0:
339,330,62359,1,0,0:0:0:0:
311,323,62438,6,0,L|286:305,3,29.0399991245957,6|0|2|0,0:0|0:0|0:0|0:0,0:0:0:0:
299,223,62750,6,0,L|286:196,3,29.0399991245957,8|0|0|0,0:0|0:0|0:0|0:0,0:0:0:0:
367,161,63063,6,0,L|369:131,3,29.0399991245957,8|0|0|0,0:0|0:0|0:0|0:0,0:0:0:0:
450,97,63375,6,0,L|467:72,3,29.0399991245957,2|0|2|0,0:0|0:0|0:0|0:0,0:0:0:0:
381,49,63688,5,8,0:0:0:0:
366,48,63766,1,0,0:0:0:0:
352,50,63844,1,0,0:0:0:0:
338,54,63922,1,0,0:0:0:0:
325,61,64000,2,0,L|307:83,3,29.0399991245957,8|0|0|0,0:0|0:0|0:0|0:0,0:0:0:0:
294,166,64313,5,2,0:0:0:0:
237,35,64469,1,8,0:0:0:0:
375,131,64625,1,2,0:0:0:0:
225,118,64781,1,8,0:0:0:0:
363,214,64938,5,6,0:0:0:0:
370,241,65016,1,0,0:0:0:0:
368,270,65094,1,2,0:0:0:0:
357,297,65172,1,0,0:0:0:0:
337,319,65250,1,8,0:0:0:0:
312,333,65328,1,0,0:0:0:0:
284,339,65406,1,0,0:0:0:0:
255,335,65484,1,0,0:0:0:0:
230,322,65563,5,8,0:0:0:0:
242,295,65641,1,0,0:0:0:0:
245,267,65719,1,0,0:0:0:0:
238,239,65797,1,0,0:0:0:0:
222,215,65875,1,2,0:0:0:0:
199,197,65953,1,0,0:0:0:0:
171,189,66031,1,2,0:0:0:0:
142,190,66109,1,0,0:0:0:0:
115,201,66188,5,8,0:0:0:0:
130,225,66266,1,0,0:0:0:0:
153,243,66344,1,0,0:0:0:0:
180,252,66422,1,0,0:0:0:0:
209,252,66500,1,8,0:0:0:0:
237,243,66578,1,0,0:0:0:0:
260,226,66656,1,0,0:0:0:0:
276,202,66734,1,0,0:0:0:0:
283,174,66813,6,0,L|286:146,5,29.0399991245957,8|0|0|0|0|0,0:0|0:0|0:0|0:0|0:0|0:0,0:0:0:0:
298,62,67308,5,6,0:0:0:0:
217,97,67464,1,0,0:0:0:0:
286,145,67620,1,0,0:0:0:0:
205,180,67776,1,0,0:0:0:0:
274,228,67933,1,0,0:0:0:0:
193,263,68089,1,0,0:0:0:0:
217,97,68245,5,8,0:0:0:0:
205,180,68401,1,0,0:0:0:0:
136,132,68558,1,0,0:0:0:0:
124,215,68714,1,0,0:0:0:0:
67,84,68870,6,0,P|90:60|126:48,1,58.6666650772095,2|0,0:0|0:0,0:0:0:0:
286,145,69183,2,0,L|309:161,2,29.3333325386048,2|0|0,0:0|0:0|0:0,0:0:0:0:
286,145,70120,1,8,0:0:0:0:
124,215,70433,1,2,0:0:0:0:
124,215,71058,5,6,0:0:0:0:
193,263,71214,1,0,0:0:0:0:
205,180,71370,1,0,0:0:0:0:
274,228,71526,1,0,0:0:0:0:
286,145,71683,1,0,0:0:0:0:
355,193,71839,1,0,0:0:0:0:
217,97,71995,5,8,0:0:0:0:
136,132,72151,1,0,0:0:0:0:
148,49,72307,1,0,0:0:0:0:
67,84,72464,1,0,0:0:0:0:
205,180,72620,6,0,P|238:178|271:160,1,58.6666650772095,2|0,0:0|0:0,0:0:0:0:
55,167,72933,2,0,P|40:225|66:276,1,117.333330154419,2|0,0:0|0:0,0:0:0:0:
133,322,73401,1,2,0:0:0:0:
205,180,73558,6,0,P|219:149|217:112,1,58.6666650772095,2|0,0:0|0:0,0:0:0:0:
181,44,73870,1,8,0:0:0:0:
185,48,74026,1,0,0:0:0:0:
274,228,74183,2,0,P|282:260|274:297,1,58.6666650772095,2|0,0:0|0:0,0:0:0:0:
217,348,74495,1,0,0:0:0:0:
193,263,74651,1,0,0:0:0:0:
331,359,74808,5,6,0:0:0:0:
343,276,74964,1,0,0:0:0:0:
412,324,75120,1,0,0:0:0:0:
424,241,75276,1,0,0:0:0:0:
493,289,75433,1,0,0:0:0:0:
505,206,75589,1,0,0:0:0:0:
343,276,75745,5,8,0:0:0:0:
331,359,75901,1,0,0:0:0:0:
274,228,76058,1,0,0:0:0:0:
262,311,76214,1,0,0:0:0:0:
193,263,76370,6,0,P|185:236|189:201,1,58.6666650772095,2|0,0:0|0:0,0:0:0:0:
298,62,76683,2,0,L|328:49,2,29.3333325386048,2|0|0,0:0|0:0|0:0,0:0:0:0:
286,145,77151,2,0,L|343:185,1,58.6666650772095
403,226,77620,1,8,0:0:0:0:
217,97,77933,1,2,0:0:0:0:
217,97,78558,5,6,0:0:0:0:
205,180,78714,1,2,0:0:0:0:
136,132,78870,1,0,0:0:0:0:
124,215,79026,1,2,0:0:0:0:
55,167,79183,1,2,0:0:0:0:
43,250,79339,1,0,0:0:0:0:
205,180,79495,5,8,0:0:0:0:
193,263,79651,1,0,0:0:0:0:
274,228,79808,1,0,0:0:0:0:
262,311,79964,1,0,0:0:0:0:
343,276,80120,6,0,P|357:245|355:208,1,58.6666650772095
217,97,80433,2,0,P|162:108|125:157,1,117.333330154419,2|0,0:0|0:0,0:0:0:0:
113,237,80901,1,2,0:0:0:0:
286,145,81058,2,0,P|312:153|339:177,1,58.6666650772095
205,180,81370,5,8,0:0:0:0:
298,62,81526,1,0,0:0:0:0:
274,228,81683,1,8,0:0:0:0:
229,14,81839,1,0,0:0:0:0:
355,193,81995,1,8,0:0:0:0:
217,97,82151,1,0,0:0:0:0:
192,263,82308,6,0,P|212:290|245:307,1,58.6666650772095,6|0,0:0|0:0,0:0:0:0:
274,228,82620,1,0,0:0:0:0:
205,180,82776,1,0,0:0:0:0:
286,145,82933,1,0,0:0:0:0:
217,97,83089,1,0,0:0:0:0:
379,27,83245,5,8,0:0:0:0:
448,75,83401,1,0,0:0:0:0:
367,110,83558,1,0,0:0:0:0:
436,158,83714,1,0,0:0:0:0:
355,193,83870,6,0,L|299:177,1,58.6666650772095,2|0,0:0|0:0,0:0:0:0:
136,132,84183,2,0,L|108:124,2,29.3333325386048,2|0|0,0:0|0:0|0:0,0:0:0:0:
136,132,85120,1,8,0:0:0:0:
343,276,85433,1,2,0:0:0:0:
343,276,86058,5,6,0:0:0:0:
262,311,86214,1,2,0:0:0:0:
355,193,86370,1,0,0:0:0:0:
274,228,86526,1,0,0:0:0:0:
367,110,86683,1,0,0:0:0:0:
286,145,86839,1,0,0:0:0:0:
343,276,86995,5,8,0:0:0:0:
424,241,87151,1,0,0:0:0:0:
355,193,87308,1,0,0:0:0:0:
436,158,87464,1,0,0:0:0:0:
367,109,87620,6,0,P|333:111|300:129,1,58.6666650772095,2|0,0:0|0:0,0:0:0:0:
193,263,87933,2,0,L|188:291,2,29.3333325386048,2|0|0,0:0|0:0|0:0,0:0:0:0:
193,263,88401,1,2,0:0:0:0:
331,359,88558,1,2,0:0:0:0:
205,180,88870,1,8,0:0:0:0:
367,110,89183,1,2,0:0:0:0:
436,158,89339,6,0,P|450:126|448:89,2,58.6666650772095
355,193,89808,5,6,0:0:0:0:
343,276,89964,1,0,0:0:0:0:
286,145,90120,1,0,0:0:0:0:
274,228,90276,1,2,0:0:0:0:
217,97,90433,1,2,0:0:0:0:
205,180,90589,1,0,0:0:0:0:
228,14,90745,5,8,0:0:0:0:
217,97,90901,1,0,0:0:0:0:
298,62,91058,1,0,0:0:0:0:
286,145,91214,1,0,0:0:0:0:
367,110,91370,6,0,P|374:136|369:171,1,58.6666650772095,2|0,0:0|0:0,0:0:0:0:
193,263,91683,2,0,L|166:274,2,29.3333325386048,2|0|0,0:0|0:0|0:0,0:0:0:0:
193,263,92620,1,8,0:0:0:0:
67,84,92933,1,2,0:0:0:0:
67,84,93245,2,0,L|124:78,1,58.6666650772095
298,62,93558,5,6,0:0:0:0:
286,145,93714,1,2,0:0:0:0:
367,110,93870,1,0,0:0:0:0:
355,193,94026,1,0,0:0:0:0:
436,158,94183,1,0,0:0:0:0:
424,241,94339,1,0,0:0:0:0:
286,145,94495,5,8,0:0:0:0:
274,228,94651,1,0,0:0:0:0:
205,180,94808,1,0,0:0:0:0:
193,263,94964,1,0,0:0:0:0:
136,132,95120,6,0,P|156:110|188:98,1,58.6666650772095,2|0,0:0|0:0,0:0:0:0:
367,110,95433,2,0,L|390:126,2,29.3333325386048,2|0|0,0:0|0:0|0:0,0:0:0:0:
367,110,95901,1,2,0:0:0:0:
262,311,96058,1,2,0:0:0:0:
262,311,96370,5,8,0:0:0:0:
181,346,96526,1,0,0:0:0:0:
112,298,96683,1,2,0:0:0:0:
274,228,96839,1,0,0:0:0:0:
343,276,96995,1,0,0:0:0:0:
331,359,97151,1,0,0:0:0:0:
193,263,97308,5,6,0:0:0:0:
181,346,97464,1,0,0:0:0:0:
124,215,97620,1,0,0:0:0:0:
112,298,97776,1,0,0:0:0:0:
55,167,97933,1,0,0:0:0:0:
43,250,98089,1,0,0:0:0:0:
205,180,98245,5,8,0:0:0:0:
193,263,98401,1,0,0:0:0:0:
286,145,98558,1,0,0:0:0:0:
274,228,98714,1,0,0:0:0:0:
367,110,98870,6,0,P|347:80|315:62,1,58.6666650772095,2|0,0:0|0:0,0:0:0:0:
148,49,99183,2,0,L|121:60,2,29.3333325386048,2|0|0,0:0|0:0|0:0,0:0:0:0:
148,49,100120,1,8,0:0:0:0:
193,263,100433,1,2,0:0:0:0:
193,263,101058,5,6,0:0:0:0:
262,311,101214,1,0,0:0:0:0:
205,180,101370,1,0,0:0:0:0:
274,228,101526,1,0,0:0:0:0:
217,97,101683,1,0,0:0:0:0:
286,145,101839,1,0,0:0:0:0:
124,215,101995,5,8,0:0:0:0:
55,167,102151,1,0,0:0:0:0:
136,132,102308,1,0,0:0:0:0:
67,84,102464,1,0,0:0:0:0:
217,97,102620,6,0,P|246:103|272:125,1,58.6666650772095,2|0,0:0|0:0,0:0:0:0:
343,276,102933,2,0,L|339:304,2,29.3333325386048,2|0|0,0:0|0:0|0:0,0:0:0:0:
343,276,103401,1,2,0:0:0:0:
205,180,103558,1,2,0:0:0:0:
424,241,103870,1,8,0:0:0:0:
193,263,104183,1,2,0:0:0:0:
124,215,104339,6,0,P|146:192|177:180,2,58.6666650772095
112,298,104808,5,6,0:0:0:0:
181,346,104964,1,0,0:0:0:0:
193,263,105120,1,0,0:0:0:0:
262,311,105276,1,0,0:0:0:0:
274,228,105433,1,0,0:0:0:0:
343,276,105589,1,0,0:0:0:0:
205,180,105745,5,8,0:0:0:0:
193,263,105901,1,0,0:0:0:0:
136,132,106058,1,0,0:0:0:0:
124,215,106214,1,0,0:0:0:0:
217,97,106370,6,0,P|236:74|268:63,1,58.6666650772095,2|0,0:0|0:0,0:0:0:0:
448,75,106683,2,0,L|476:79,2,29.3333325386048,2|0|0,0:0|0:0|0:0,0:0:0:0:
448,75,107620,1,8,0:0:0:0:
343,276,107933,1,2,0:0:0:0:
331,359,108245,6,0,P|302:351|277:329,1,58.6666650772095,2|0,0:0|0:0,0:0:0:0:
205,180,108558,6,0,L|213:120,1,58.6666650772095,6|2,0:0|0:0,0:0:0:0:
225,38,108870,1,0,0:0:0:0:
286,145,109026,1,0,0:0:0:0:
124,215,109183,6,0,L|68:237,1,58.6666650772095,2|0,0:0|0:0,0:0:0:0:
57,319,109495,1,8,0:0:0:0:
0,188,109651,1,0,0:0:0:0:
193,263,109808,6,0,L|247:284,1,58.6666650772095,2|0,0:0|0:0,0:0:0:0:
316,332,110120,1,2,0:0:0:0:
235,367,110276,1,0,0:0:0:0:
286,145,110433,6,0,L|292:116,2,29.3333325386048,2|0|2,0:0|0:0|0:0,0:0:0:0:
286,145,110901,1,8,0:0:0:0:
124,215,111058,5,2,0:0:0:0:
217,97,111214,1,2,0:0:0:0:
193,263,111370,1,8,0:0:0:0:
148,49,111526,1,8,0:0:0:0:
274,228,111683,5,0,0:0:0:0:
280,253,111761,1,0,0:0:0:0:
279,279,111839,1,0,0:0:0:0:
271,304,111917,1,0,0:0:0:0:
255,325,111995,2,0,L|229:342,3,29.3333325386048
193,263,112308,6,0,L|182:201,2,58.0799982491913,6|0|8,0:0|0:0|0:0,0:0:0:0:
193,263,112776,1,0,0:0:0:0:
100,173,112933,2,0,P|116:144|140:126,1,58.0799982491913
203,78,113245,1,2,0:0:0:0:
121,46,113401,1,2,0:0:0:0:
182,205,113558,6,0,L|203:259,2,58.0799982491913,8|0|8,0:0|0:0|0:0,0:0:0:0:
182,205,114183,1,2,0:0:0:0:
128,337,114339,1,8,0:0:0:0:
114,255,114495,1,2,0:0:0:0:
210,369,114652,1,8,0:0:0:0:
264,237,114808,6,0,P|271:209|264:176,2,58.0799982491913,6|0|8,0:0|0:0|0:0,0:0:0:0:
196,287,115276,1,0,0:0:0:0:
236,73,115433,2,0,P|251:45|278:27,1,58.0799982491913
318,105,115745,1,2,0:0:0:0:
154,41,115901,1,2,0:0:0:0:
332,187,116058,2,0,L|376:223,1,58.0799982491913,8|0,0:0|0:0,0:0:0:0:
250,155,116370,2,0,L|205:118,1,58.0799982491913,8|0,0:0|0:0,0:0:0:0:
264,237,116683,5,8,0:0:0:0:
267,257,116761,1,8,0:0:0:0:
270,277,116839,1,8,0:0:0:0:
274,297,116917,1,8,0:0:0:0:
277,317,116995,5,0,0:0:0:0:
247,305,117073,1,0,0:0:0:0:
217,294,117151,1,0,0:0:0:0:
187,283,117229,1,0,0:0:0:0:
163,304,117308,5,6,0:0:0:0:
134,303,117386,1,0,0:0:0:0:
107,292,117464,1,0,0:0:0:0:
85,273,117542,1,0,0:0:0:0:
71,248,117620,1,8,0:0:0:0:
67,219,117698,1,0,0:0:0:0:
73,191,117776,1,0,0:0:0:0:
88,166,117854,1,0,0:0:0:0:
110,148,117933,5,8,0:0:0:0:
130,168,118011,1,0,0:0:0:0:
155,182,118089,1,0,0:0:0:0:
184,188,118167,1,0,0:0:0:0:
212,187,118245,1,2,0:0:0:0:
240,178,118323,1,0,0:0:0:0:
269,176,118401,1,2,0:0:0:0:
298,181,118479,1,0,0:0:0:0:
324,192,118558,5,8,0:0:0:0:
350,181,118636,1,0,0:0:0:0:
372,162,118714,1,0,0:0:0:0:
387,137,118792,1,0,0:0:0:0:
391,109,118870,1,8,0:0:0:0:
386,80,118948,1,0,0:0:0:0:
371,55,119026,1,0,0:0:0:0:
349,37,119104,1,0,0:0:0:0:
322,27,119183,5,2,0:0:0:0:
242,160,119339,1,8,0:0:0:0:
310,110,119495,1,2,0:0:0:0:
160,128,119651,1,8,0:0:0:0:
324,192,119808,5,6,0:0:0:0:
336,217,119886,1,0,0:0:0:0:
339,246,119964,1,2,0:0:0:0:
333,274,120042,1,0,0:0:0:0:
317,299,120120,1,8,0:0:0:0:
295,316,120198,1,0,0:0:0:0:
267,325,120276,1,0,0:0:0:0:
238,325,120354,1,0,0:0:0:0:
211,315,120433,5,8,0:0:0:0:
216,286,120511,1,0,0:0:0:0:
213,258,120589,1,0,0:0:0:0:
201,231,120667,1,0,0:0:0:0:
180,211,120745,1,2,0:0:0:0:
155,198,120823,1,0,0:0:0:0:
126,194,120901,1,2,0:0:0:0:
98,199,120979,1,0,0:0:0:0:
73,214,121058,5,8,0:0:0:0:
100,203,121136,1,0,0:0:0:0:
122,185,121214,1,0,0:0:0:0:
136,160,121292,1,0,0:0:0:0:
141,131,121370,1,8,0:0:0:0:
135,103,121448,1,0,0:0:0:0:
121,78,121526,1,0,0:0:0:0:
98,59,121604,1,0,0:0:0:0:
71,50,121683,5,2,0:0:0:0:
17,182,121839,1,8,0:0:0:0:
3,100,121995,1,2,0:0:0:0:
99,214,122151,1,8,0:0:0:0:
153,82,122308,6,0,P|181:81|213:96,2,58.0799982491913,6|0|8,0:0|0:0|0:0,0:0:0:0:
85,132,122776,1,0,0:0:0:0:
249,196,122933,2,0,L|309:188,1,58.0799982491913
335,111,123245,1,2,0:0:0:0:
220,274,123401,1,2,0:0:0:0:
390,179,123558,2,0,P|410:158|420:126,2,58.0799982491913,8|0|8,0:0|0:0|0:0,0:0:0:0:
390,179,124183,5,2,0:0:0:0:
240,197,124339,1,8,0:0:0:0:
404,261,124495,1,2,0:0:0:0:
226,115,124651,1,8,0:0:0:0:
336,311,124808,6,0,L|364:361,2,58.0799982491913,6|0|8,0:0|0:0|0:0,0:0:0:0:
404,261,125276,1,0,0:0:0:0:
186,329,125433,2,0,L|131:346,1,58.0799982491913
48,314,125745,1,2,0:0:0:0:
268,361,125901,1,2,0:0:0:0:
172,247,126058,2,0,P|157:222|155:191,1,58.0799982491913,8|0,0:0|0:0,0:0:0:0:
208,61,126370,2,0,P|223:86|225:117,1,58.0799982491913,8|0,0:0|0:0,0:0:0:0:
240,197,126683,5,8,0:0:0:0:
243,217,126761,1,8,0:0:0:0:
246,237,126839,1,8,0:0:0:0:
250,257,126917,1,8,0:0:0:0:
253,277,126995,5,0,0:0:0:0:
276,259,127073,1,0,0:0:0:0:
299,242,127151,1,0,0:0:0:0:
322,224,127229,1,0,0:0:0:0:
346,207,127308,5,6,0:0:0:0:
351,178,127386,1,0,0:0:0:0:
348,150,127464,1,2,0:0:0:0:
335,123,127542,1,0,0:0:0:0:
315,103,127620,1,8,0:0:0:0:
289,90,127698,1,0,0:0:0:0:
261,86,127776,1,0,0:0:0:0:
232,91,127854,1,0,0:0:0:0:
207,105,127933,5,8,0:0:0:0:
185,85,128011,1,0,0:0:0:0:
159,73,128089,1,0,0:0:0:0:
130,71,128167,1,0,0:0:0:0:
102,79,128245,1,2,0:0:0:0:
79,96,128323,1,0,0:0:0:0:
63,120,128401,1,2,0:0:0:0:
55,147,128479,1,0,0:0:0:0:
57,176,128558,5,8,0:0:0:0:
84,185,128636,1,0,0:0:0:0:
112,190,128714,1,0,0:0:0:0:
141,188,128792,1,0,0:0:0:0:
169,179,128870,1,8,0:0:0:0:
193,163,128948,1,0,0:0:0:0:
220,152,129026,1,0,0:0:0:0:
249,150,129104,1,0,0:0:0:0:
277,154,129183,5,2,0:0:0:0:
223,286,129339,1,8,0:0:0:0:
291,236,129495,1,2,0:0:0:0:
141,254,129651,1,8,0:0:0:0:
305,318,129808,5,6,0:0:0:0:
332,307,129886,1,0,0:0:0:0:
353,289,129964,1,2,0:0:0:0:
368,263,130042,1,0,0:0:0:0:
372,235,130120,1,8,0:0:0:0:
367,206,130198,1,0,0:0:0:0:
352,182,130276,1,0,0:0:0:0:
330,163,130354,1,0,0:0:0:0:
303,154,130433,5,8,0:0:0:0:
290,128,130511,1,0,0:0:0:0:
286,99,130589,1,0,0:0:0:0:
293,71,130667,1,0,0:0:0:0:
308,46,130745,1,2,0:0:0:0:
331,29,130823,1,0,0:0:0:0:
359,20,130901,1,2,0:0:0:0:
388,20,130979,1,0,0:0:0:0:
414,31,131058,5,8,0:0:0:0:
426,56,131136,1,0,0:0:0:0:
430,85,131214,1,0,0:0:0:0:
423,113,131292,1,0,0:0:0:0:
408,138,131370,1,8,0:0:0:0:
385,155,131448,1,0,0:0:0:0:
358,165,131526,1,0,0:0:0:0:
329,164,131604,1,0,0:0:0:0:
302,154,131683,5,2,0:0:0:0:
256,178,131761,1,0,0:0:0:0:
234,224,131839,1,8,0:0:0:0:
243,274,131917,1,0,0:0:0:0:
280,310,131995,1,2,0:0:0:0:
331,316,132073,1,0,0:0:0:0:
376,291,132151,1,6,0:0:0:0:
