osu file format v14

[General]
AudioFilename: audio.mp3
AudioLeadIn: 0
PreviewTime: 6075
Countdown: 0
SampleSet: Soft
StackLeniency: 0.2
Mode: 0
LetterboxInBreaks: 0
WidescreenStoryboard: 1

[Editor]
Bookmarks: 26388
DistanceSpacing: 1
BeatDivisor: 3
GridSize: 4
TimelineZoom: 1.500001

[Metadata]
Title:Friendly Shop
TitleUnicode:フレンドリィショップ
Artist:Go Ichinose
ArtistUnicode:一之瀬剛
Creator:Linada
Version:leufeunada's Normal
Source:ポケットモンスター オメガルビー・アルファサファイア
Tags:Pokemon Pokémart Poké Poke Mart Shop Pokémon Omega Ruby & Alpha Sapphire 足立 美奈子 Minako Adachi gen6 generation oras Akitoshi Corinn -Laura- Shiinoha Kotone Tomadoi Kyuukai yaleufeu Kalibe Sotarks Hobbes2
BeatmapID:1697697
BeatmapSetID:779334

[Difficulty]
HPDrainRate:4
CircleSize:3.5
OverallDifficulty:4
ApproachRate:6
SliderMultiplier:1.2
SliderTickRate:1

[Events]
//Background and Video events
0,0,"awi.jpg",0,0
//Break Periods
2,33713,35463
2,39713,41463
//Storyboard Layer 0 (Background)
//Storyboard Layer 1 (Fail)
//Storyboard Layer 2 (Pass)
//Storyboard Layer 3 (Foreground)
//Storyboard Sound Samples

[TimingPoints]
513,375,4,2,1,40,1,0
5200,-100,4,2,1,5,0,0
5263,-100,4,2,1,40,0,0
6138,-100,4,2,1,45,0,0
6513,-100,4,2,1,50,0,0

[Colours]
Combo1 : 255,201,36
Combo2 : 2,200,242
Combo3 : 52,224,125
Combo4 : 244,72,98

[HitObjects]
40,80,513,6,0,L|119:70,1,80,2|0,0:1|0:0,0:0:0:0:
140,36,888,1,10,0:0:0:0:
259,51,1263,1,2,0:1:0:0:
380,68,1638,1,10,0:0:0:0:
303,163,2013,2,0,P|265:156|225:162,1,80,2|2,0:1|0:1,0:0:0:0:
188,172,2388,1,10,0:0:0:0:
200,292,2763,1,2,0:1:0:0:
292,367,3138,1,10,0:0:0:0:
412,368,3513,6,0,L|417:288,1,80,2|0,0:1|0:0,0:0:0:0:
456,272,3888,1,10,0:0:0:0:
448,152,4263,1,2,0:1:0:0:
436,32,4638,1,10,0:0:0:0:
316,52,5013,6,0,P|278:60|239:52,1,80,10|8,0:0|0:0,0:0:0:0:
201,40,5388,2,0,P|153:32|121:40,1,80,2|8,0:0|0:0,0:0:0:0:
86,55,5763,2,0,P|91:94|81:133,1,80,2|10,0:1|0:0,0:0:0:0:
61,168,6138,1,2,0:0:0:0:
132,264,6513,6,0,P|171:266|210:259,1,80,6|0,0:0|0:0,0:0:0:0:
244,235,6888,1,10,0:0:0:0:
324,240,7138,2,0,P|344:295|326:351,1,120,2|0,0:0|0:0,0:0:0:0:
304,384,7638,1,8,0:0:0:0:
187,351,8013,6,0,P|149:343|110:353,1,80,2|2,0:1|0:0,0:0:0:0:
76,376,8388,1,10,0:0:0:0:
4,348,8638,2,0,L|15:228,1,120,2|0,0:0|0:0,0:0:0:0:
20,188,9138,1,10,0:0:0:0:
108,108,9513,6,0,P|145:121|185:122,1,80,2|2,0:1|0:0,0:0:0:0:
224,116,9888,1,10,0:0:0:0:
248,39,10138,2,0,P|306:27|364:40,1,120,2|0,0:0|0:0,0:0:0:0:
400,56,10638,1,8,0:0:0:0:
508,104,11013,2,0,L|501:183,1,80,2|2,0:1|0:0,0:0:0:0:
470,209,11388,1,10,0:0:0:0:
478,288,11638,2,0,P|420:298|362:286,1,120,2|0,0:0|0:0,0:0:0:0:
324,272,12138,1,10,0:0:0:0:
240,184,12513,6,0,L|160:190,1,80,2|2,0:1|0:0,0:0:0:0:
130,163,12888,1,10,0:0:0:0:
51,220,13138,2,0,P|32:275|46:333,1,120,2|2,0:0|0:0,0:0:0:0:
68,368,13638,2,0,L|107:360,1,40,10|2,0:0|0:0,0:0:0:0:
144,344,13888,2,0,L|183:351,1,40,2|2,0:0|0:1,0:0:0:0:
300,372,14388,2,0,B|280:312|280:312|285:255,2,120,10|2|10,0:0|0:1|0:0,0:0:0:0:
420,372,15513,6,0,B|438:323|438:323|435:295,1,80,2|2,0:0|0:1,0:0:0:0:
428,256,15888,2,0,B|410:207|410:207|412:179,1,80,12|0,0:0|0:0,0:0:0:0:
416,140,16263,2,0,B|434:91|434:91|432:63,1,80,2|0,0:1|0:0,0:0:0:0:
454,30,16638,2,0,L|502:38,2,40,14|2|2,0:0|0:0|0:0,0:0:0:0:
425,1,17013,1,2,0:1:0:0:
320,44,17388,6,0,L|200:36,1,120,14|2,0:0|0:1,0:0:0:0:
160,36,17888,2,0,L|167:115,2,80,2|10|2,0:0|0:0|0:0,0:0:0:0:
123,19,18513,6,0,P|84:15|44:21,1,80,6|0,0:0|0:0,0:0:0:0:
10,42,18888,1,10,0:0:0:0:
68,96,19138,2,0,P|77:137|69:231,1,120,2|0,0:0|0:0,0:0:0:0:
62,253,19638,1,8,0:0:0:0:
136,346,20013,6,0,P|174:354|214:346,1,80,2|2,0:1|0:1,0:0:0:0:
248,327,20388,1,8,0:0:0:0:
292,260,20638,2,0,L|304:140,1,120,2|2,0:0|0:0,0:0:0:0:
292,102,21138,2,0,P|252:96|214:105,1,80,10|2,0:0|0:0,0:0:0:0:
180,127,21513,2,0,L|170:206,1,80,2|2,0:1|0:0,0:0:0:0:
167,246,21888,1,10,0:0:0:0:
224,301,22138,2,0,P|179:324|104:295,1,120,2|0,0:0|0:0,0:0:0:0:
86,277,22638,1,8,0:0:0:0:
10,183,23013,6,0,L|16:63,1,120,2|8,0:1|0:0,0:0:0:0:
80,15,23638,2,0,B|116:-1|116:-1|156:-1,1,80
195,9,24013,2,0,B|222:27|254:27|254:27|277:14|311:15,1,120,2|2,0:0|0:0,0:0:0:0:
343,36,24513,2,0,L|348:115,1,80,2|0,0:1|0:0,0:0:0:0:
351,156,24888,1,10,0:0:0:0:
429,140,25138,6,0,L|439:270,1,120,2|0,0:0|0:0,0:0:0:0:
452,297,25638,2,0,L|491:293,2,40,10|2|2,0:0|0:0|0:0,0:0:0:0:
424,326,26013,1,2,0:1:0:0:
312,281,26388,6,0,P|275:297|236:296,1,80,10|2,0:0|0:0,0:0:0:0:
197,305,26763,2,0,P|197:265|182:228,1,80,2|2,0:1|0:0,0:0:0:0:
163,192,27138,2,0,P|162:152|177:115,1,80,10|2,0:0|0:0,0:0:0:0:
201,82,27513,5,2,0:0:0:0:
278,173,27888,2,0,L|357:167,1,80,14|0,0:0|0:0,0:0:0:0:
396,156,28263,1,2,0:1:0:0:
443,266,28638,2,0,P|462:270|482:271,2,40,14|2|2,0:0|0:0|0:0,0:0:0:0:
408,247,29013,1,2,0:1:0:0:
300,292,29388,6,0,P|242:303|187:281,1,120,14|2,0:0|0:1,0:0:0:0:
170,245,29888,2,0,L|178:165,2,80,2|10|8,0:0|0:0|0:0,0:0:0:0:
136,267,30513,5,10,0:0:0:0:
23,290,30888,2,0,P|27:251|21:211,1,80,10|2,0:0|0:0,0:0:0:0:
1,177,31263,2,0,P|40:181|80:175,1,80,10|10,0:0|0:0,0:0:0:0:
105,143,31638,2,0,P|134:138|164:141,1,60,8|2,0:0|0:0,0:0:0:0:
310,245,32388,6,0,L|389:254,1,80,10|2,0:0|0:0,0:0:0:0:
427,243,32763,1,6,0:0:0:0:
484,137,33138,2,0,L|404:146,1,80,10|0,0:0|0:0,0:0:0:0:
367,135,33513,5,2,0:0:0:0:
284,79,36513,6,0,P|245:74|207:86,1,80,10|2,0:0|0:1,0:0:0:0:
183,118,36888,2,0,L|189:197,1,80,10|2,0:0|0:0,0:0:0:0:
220,222,37263,2,0,L|213:301,1,80,10|2,0:0|0:1,0:0:0:0:
197,338,37638,2,0,P|157:343|119:331,1,80,10|2,0:0|0:0,0:0:0:0:
28,199,38388,6,0,B|70:204|70:204|105:191,1,80,10|2,0:0|0:1,0:0:0:0:
128,158,38763,2,0,B|170:153|170:153|205:165,1,80,14|2,0:0|0:1,0:0:0:0:
238,188,39138,2,0,B|280:193|280:193|315:180,1,80,10|2,0:0|0:1,0:0:0:0:
350,160,39513,5,2,0:0:0:0:
68,96,42513,6,0,L|147:86,1,80,2|0,0:1|0:0,0:0:0:0:
168,52,42888,2,0,L|247:61,1,80,10|2,0:0|0:0,0:0:0:0:
288,68,43263,1,2,0:1:0:0:
387,135,43638,1,10,0:0:0:0:
316,232,44013,6,0,P|276:238|237:231,1,80,2|0,0:1|0:0,0:0:0:0:
211,200,44388,2,0,P|171:193|132:200,1,80,10|0,0:0|0:0,0:0:0:0:
98,223,44763,1,2,0:1:0:0:
154,328,45138,2,0,L|150:367,2,40,10|2|2,0:0|0:0|0:0,0:0:0:0:
185,303,45513,6,0,L|264:313,1,80,2|0,0:1|0:0,0:0:0:0:
292,342,45888,2,0,L|371:331,1,80,8|0,0:0|0:0,0:0:0:0:
408,346,46263,1,2,0:1:0:0:
453,234,46638,2,0,L|492:228,2,40,10|2|2,0:0|0:0|0:0,0:0:0:0:
418,213,47013,2,0,L|339:202,1,80,0|0,0:0|0:0,0:0:0:0:
303,181,47388,6,0,P|267:196|227:195,1,80,10|2,0:0|0:1,0:0:0:0:
189,204,47763,2,0,P|189:165|174:128,1,80,2|2,0:0|0:1,0:0:0:0:
144,100,48138,2,0,P|105:101|68:86,1,80,10|2,0:0|0:1,0:0:0:0:
38,62,48513,5,6,0:0:0:0:
