osu file format v14

[General]
AudioFilename: audio.mp3
AudioLeadIn: 0
PreviewTime: 6075
Countdown: 0
SampleSet: Soft
StackLeniency: 0.2
Mode: 0
LetterboxInBreaks: 0
WidescreenStoryboard: 0

[Editor]
Bookmarks: 5015,6513,18513,30513,38388,39513,42513,48513
DistanceSpacing: 1.9
BeatDivisor: 6
GridSize: 4
TimelineZoom: 2.8

[Metadata]
Title:Friendly Shop
TitleUnicode:フレンドリィショップ
Artist:Go Ichinose
ArtistUnicode:一之瀬剛
Creator:Linada
Version:Shopping
Source:ポケットモンスター オメガルビー・アルファサファイア
Tags:Pokemon Pokémart Poké Poke Mart Shop Pokémon Omega Ruby & Alpha Sapphire 足立 美奈子 Minako Adachi gen6 generation oras Akitoshi Corinn -Laura- Shiinoha Kotone Tomadoi Kyuukai yaleufeu Kalibe Sotarks Hobbes2
BeatmapID:1636565
BeatmapSetID:779334

[Difficulty]
HPDrainRate:5
CircleSize:4.4
OverallDifficulty:8.2
ApproachRate:9.5
SliderMultiplier:1.6
SliderTickRate:1

[Events]
//Background and Video events
0,0,"awi.jpg",0,0
//Break Periods
//Storyboard Layer 0 (Background)
//Storyboard Layer 1 (Fail)
//Storyboard Layer 2 (Pass)
//Storyboard Layer 3 (Foreground)
//Storyboard Sound Samples

[TimingPoints]
513,375,4,2,1,40,1,0
5200,-100,4,2,1,5,0,0
5263,-100,4,2,1,40,0,0
6138,-100,4,2,1,45,0,0
6513,-79.9999999999999,4,2,1,50,0,0
14388,-133.333333333333,4,2,1,50,0,0
14763,-100,4,2,1,50,0,0
15138,-79.9999999999999,4,2,1,50,0,0
15513,-66.6666666666667,4,2,1,50,0,0
18513,-80,4,2,1,50,0,0
26388,-80,4,2,1,50,0,1
27513,-66.6666666666667,4,2,1,50,0,0
30513,-80,4,2,1,50,0,0
38388,-80,4,2,1,50,0,1
39513,-100,4,2,1,50,0,0
42513,-80,4,2,1,50,0,0

[Colours]
Combo1 : 255,201,36
Combo2 : 2,200,242
Combo3 : 52,224,125
Combo4 : 244,72,98

[HitObjects]
103,311,513,6,0,L|156:306,1,53.3333333333333,2|0,0:1|0:0,0:0:0:0:
45,269,763,1,0,0:0:0:0:
202,359,888,2,0,P|226:314|212:264,1,106.666666666667,10|0,0:0|0:0,0:0:0:0:
156,306,1263,1,2,0:1:0:0:
294,218,1513,1,0,0:0:0:0:
291,228,1638,1,10,0:0:0:0:
159,161,1888,1,0,0:0:0:0:
156,151,2013,6,0,L|151:98,1,53.3333333333333,2|0,0:1|0:0,0:0:0:0:
114,209,2263,1,2,0:1:0:0:
204,52,2388,2,0,P|159:27|109:41,1,106.666666666667,10|0,0:0|0:0,0:0:0:0:
151,98,2763,1,2,0:1:0:0:
324,13,3013,5,2,0:1:0:0:
314,119,3138,2,0,L|324:13,1,106.666666666667,10|2,0:0|0:1,0:0:0:0:
354,215,3513,6,0,P|327:215|301:221,1,53.3333333333333,2|0,0:1|0:0,0:0:0:0:
411,264,3763,1,0,0:0:0:0:
250,163,3888,2,0,P|196:165|145:151,1,106.666666666667,10|0,0:0|0:0,0:0:0:0:
314,119,4263,1,2,0:1:0:0:
204,267,4513,1,0,0:0:0:0:
201,257,4638,1,10,0:0:0:0:
87,114,4888,1,0,0:0:0:0:
83,104,5013,6,0,P|74:142|78:182,1,80,10|0,0:0|0:0,0:0:0:0:
82,194,5263,1,8,0:0:0:0:
201,257,5388,6,0,P|227:256|255:252,2,53.3333333333333,2|2|8,0:0|0:1|0:0,0:1:0:0:
78,182,5763,1,2,0:1:0:0:
82,170,6013,1,10,0:0:0:0:
214,88,6138,5,2,0:0:0:0:
195,182,6263,1,2,0:1:0:0:
207,277,6388,1,2,0:1:0:0:
193,369,6513,6,0,B|234:376|261:353|261:353|296:347|334:367,1,133.333333333333,6|0,0:0|0:0,0:0:0:0:
211,298,6888,1,10,0:0:0:0:
308,187,7138,1,2,0:0:0:0:
194,182,7263,2,0,P|249:214|307:188,1,133.333333333333,2|0,0:1|0:0,0:0:0:0:
140,120,7638,1,8,0:0:0:0:
181,187,7763,5,2,0:0:0:0:
30,120,7888,1,2,0:0:0:0:
86,208,8013,6,0,P|85:274|75:340,1,133.333333333333,2|2,0:1|0:0,0:0:0:0:
30,120,8388,1,10,0:0:0:0:
159,384,8638,1,2,0:0:0:0:
285,326,8763,2,0,P|350:319|413:339,1,133.333333333333,2|0,0:1|0:0,0:0:0:0:
270,316,9138,5,10,0:0:0:0:
259,230,9263,1,2,0:0:0:0:
291,149,9388,1,2,0:0:0:0:
345,81,9513,6,0,P|378:90|411:90,1,66.6666666666667,2|0,0:1|0:0,0:0:0:0:
284,158,9763,1,2,0:0:0:0:
221,11,9888,1,10,0:0:0:0:
214,0,10138,1,2,0:0:0:0:
208,132,10263,2,0,P|214:66|214:0,1,133.333333333333,2|0,0:1|0:0,0:0:0:0:
255,220,10638,1,8,0:0:0:0:
100,120,10763,5,2,0:0:0:0:
205,144,10888,1,2,0:0:0:0:
15,195,11013,6,0,B|16:231|9:253|9:253|21:276|21:276|16:304|26:335,1,133.333333333333,2|2,0:1|0:0,0:0:0:0:
92,298,11388,1,10,0:0:0:0:
205,144,11638,1,2,0:0:0:0:
215,273,11763,2,0,P|222:207|205:144,1,133.333333333333,2|0,0:1|0:0,0:0:0:0:
240,297,12138,5,10,0:0:0:0:
316,338,12263,1,2,0:0:0:0:
390,293,12388,1,2,0:0:0:0:
471,323,12513,6,0,P|465:257|492:197,1,133.333333333333,2|2,0:1|0:0,0:0:0:0:
450,106,12888,2,0,L|384:100,1,66.6666666666667,10|0,0:0|0:0,0:0:0:0:
507,56,13138,1,2,0:0:0:0:
327,149,13263,1,2,0:1:0:0:
330,158,13513,1,2,0:0:0:0:
228,63,13638,5,10,0:0:0:0:
250,146,13763,1,2,0:0:0:0:
224,228,13888,1,2,0:0:0:0:
129,313,14013,6,0,P|96:307|62:304,1,66.6666666666667,2|0,0:1|0:0,0:0:0:0:
178,378,14263,1,0,0:0:0:0:
299,320,14388,6,0,P|338:320|377:309,1,80.0000030517579,10|0,0:0|0:0,0:0:0:0:
477,252,14763,6,0,P|424:251|382:219,1,106.666666666667,2|0,0:1|0:0,0:0:0:0:
247,165,15138,6,0,P|311:160|349:108,1,133.333333333333,10|0,0:0|0:0,0:0:0:0:
273,94,15513,5,2,0:0:0:0:
228,179,15638,1,0,0:0:0:0:
166,105,15763,1,2,0:1:0:0:
94,220,15888,6,0,B|69:274|107:328|107:328|107:301|131:258,1,160.000006103516,12|0,0:0|0:0,0:0:0:0:
181,328,16200,1,2,0:0:0:0:
181,328,16263,6,0,P|246:317|225:381,1,160.000006103516,2|0,0:1|0:0,0:0:0:0:
106,205,16638,5,14,0:0:0:0:
286,247,16763,1,2,0:0:0:0:
117,284,16888,1,2,0:0:0:0:
315,152,17013,1,2,0:1:0:0:
306,145,17388,5,14,0:0:0:0:
136,273,17513,1,2,0:0:0:0:
286,245,17638,1,2,0:0:0:0:
106,205,17763,1,2,0:1:0:0:
275,365,17888,6,0,P|278:305|286:246,1,120.000004577637,2|0,0:1|0:0,0:0:0:0:
289,221,18138,1,10,0:0:0:0:
68,278,18388,1,2,0:0:0:0:
98,71,18513,6,0,P|106:137|105:204,1,133.333333333333,6|0,0:0|0:0,0:0:0:0:
68,278,18888,1,10,0:0:0:0:
289,221,19138,1,2,0:0:0:0:
352,184,19263,2,0,P|293:147|232:175,1,133.333333333333,2|0,0:1|0:0,0:0:0:0:
188,254,19638,1,8,0:0:0:0:
211,99,19763,5,2,0:0:0:0:
289,221,19888,1,2,0:0:0:0:
359,118,20013,6,0,L|353:185,1,66.6666666666667,2|0,0:1|0:0,0:0:0:0:
321,58,20263,1,2,0:1:0:0:
391,245,20388,1,8,0:0:0:0:
396,257,20638,5,2,0:0:0:0:
450,147,20763,1,2,0:1:0:0:
445,135,21013,1,2,0:0:0:0:
289,221,21138,1,10,0:0:0:0:
284,233,21388,1,2,0:0:0:0:
179,112,21513,6,0,P|146:117|112:115,1,66.6666666666667,2|0,0:1|0:0,0:0:0:0:
238,165,21763,1,2,0:0:0:0:
51,61,21888,1,10,0:0:0:0:
45,53,22138,1,2,0:0:0:0:
55,171,22263,2,0,P|24:114|45:53,1,133.333333333333,2|0,0:1|0:0,0:0:0:0:
157,313,22638,1,8,0:0:0:0:
64,179,22763,5,2,0:0:0:0:
83,264,22888,1,2,0:0:0:0:
170,181,23013,6,0,P|161:247|158:313,1,133.333333333333,2|2,0:1|0:1,0:0:0:0:
128,118,23388,1,8,0:0:0:0:
264,280,23575,6,0,L|230:275,1,33.3333333333333,2|0,0:0|0:0,0:0:0:0:
158,313,23763,1,2,0:1:0:0:
151,320,24013,1,2,0:0:0:0:
296,370,24138,1,8,0:0:0:0:
318,183,24263,5,2,0:0:0:0:
264,280,24388,1,2,0:0:0:0:
251,95,24513,6,0,P|221:79|188:73,1,66.6666666666667,2|0,0:1|0:0,0:0:0:0:
316,60,24763,1,0,0:0:0:0:
123,108,24888,1,10,0:0:0:0:
128,118,25138,1,2,0:0:0:0:
25,33,25263,2,0,P|31:99|34:165,1,133.333333333333,2|0,0:1|0:0,0:0:0:0:
23,282,25638,5,10,0:0:0:0:
106,259,25763,1,2,0:0:0:0:
188,286,25888,1,2,0:0:0:0:
253,230,26013,6,0,P|287:229|319:221,1,66.6666666666667,2|0,0:1|0:0,0:0:0:0:
239,212,26263,1,0,0:0:0:0:
385,379,26388,5,8,0:0:0:0:
344,300,26513,1,2,0:0:0:0:
393,384,26638,1,2,0:0:0:0:
395,210,26763,5,2,0:1:0:0:
337,311,26888,1,2,0:0:0:0:
389,201,27013,1,2,0:0:0:0:
329,322,27138,5,8,0:0:0:0:
264,176,27263,1,2,0:0:0:0:
322,332,27388,1,2,0:0:0:0:
257,172,27513,6,0,B|200:136|153:164|153:164|180:170|200:194,1,160.000006103516,2|2,0:1|0:1,0:0:0:0:
94,280,27888,2,0,P|126:227|140:287,1,160.000006103516,14|0,0:0|0:0,0:0:0:0:
136,296,28200,1,2,0:0:0:0:
133,303,28263,6,0,B|179:279|212:286|212:286|231:327|288:328,1,160.000006103516,2|0,0:1|0:0,0:0:0:0:
416,224,28638,5,14,0:0:0:0:
282,254,28763,1,2,0:0:0:0:
414,305,28888,1,2,0:0:0:0:
257,172,29013,1,2,0:1:0:0:
257,172,29388,5,14,0:0:0:0:
166,289,29513,1,2,0:0:0:0:
255,162,29638,1,2,0:0:0:0:
273,327,29763,1,2,0:1:0:0:
407,155,29888,6,0,P|332:179|255:162,1,160.000006103516,2|10,0:1|0:0,0:0:0:0:
166,289,30263,1,8,0:0:0:0:
252,151,30388,1,8,0:0:0:0:
183,361,30513,6,0,B|141:365|115:342|115:342|82:357|49:353,1,133.333333333333,10|2,0:0|0:0,0:0:0:0:
32,273,30888,2,0,P|93:275|106:215,1,133.333333333333,10|2,0:0|0:0,0:0:0:0:
148,114,31263,2,0,P|133:178|139:245,1,133.333333333333,10|10,0:0|0:0,0:0:0:0:
90,59,31638,1,8,0:0:0:0:
196,299,31825,2,0,L|229:294,1,33.3333333333333,2|2,0:0|0:0,0:0:0:0:
139,245,32013,5,2,0:1:0:0:
361,210,32263,1,2,0:0:0:0:
363,223,32388,1,10,0:0:0:0:
277,72,32638,1,2,0:0:0:0:
230,147,32763,6,0,P|250:84|226:23,1,133.333333333333,6|0,0:0|0:0,0:0:0:0:
155,179,33138,2,0,P|218:171|259:221,1,133.333333333333,10|0,0:0|0:0,0:0:0:0:
155,360,33513,5,2,0:0:0:0:
192,236,33763,1,2,0:0:0:0:
193,252,33826,1,2,0:0:0:0:
195,268,33888,1,2,0:0:0:0:
75,142,34138,1,2,0:0:0:0:
7,114,34263,2,0,P|74:112|141:108,1,133.333333333333,2|2,0:0|0:0,0:0:0:0:
0,37,34638,1,2,0:0:0:0:
207,142,34888,1,2,0:0:0:0:
274,114,35013,6,0,P|207:112|140:108,1,133.333333333333,2|2,0:0|0:0,0:0:0:0:
75,142,35388,1,2,0:0:0:0:
298,92,35638,2,0,P|364:87|431:86,1,133.333333333333,2|0,0:0|0:0,0:0:0:0:
194,132,36013,1,2,0:0:0:0:
247,15,36138,1,2,0:0:0:0:
243,3,36388,1,2,0:0:0:0:
295,185,36513,6,0,P|231:184|194:132,1,133.333333333333,10|2,0:0|0:1,0:0:0:0:
265,122,36888,1,10,0:0:0:0:
274,114,37138,1,2,0:0:0:0:
348,222,37263,6,0,P|352:289|338:354,1,133.333333333333,10|2,0:0|0:1,0:0:0:0:
428,281,37638,1,10,0:0:0:0:
441,276,37888,1,2,0:0:0:0:
362,192,38013,5,8,0:0:0:0:
361,178,38075,1,8,0:0:0:0:
360,164,38138,2,8,P|391:161|442:147,1,66.6666666666667
296,103,38388,5,10,0:0:0:0:
201,116,38513,1,2,0:0:0:0:
296,103,38638,1,2,0:1:0:0:
168,190,38763,5,14,0:0:0:0:
306,214,38888,1,2,0:0:0:0:
168,190,39013,1,2,0:1:0:0:
296,103,39138,5,10,0:0:0:0:
120,129,39263,1,2,0:0:0:0:
296,103,39388,1,2,0:1:0:0:
74,65,39513,6,0,P|73:118|64:170,1,106.666666666667,2|0,0:0|0:0,0:0:0:0:
39,305,39888,1,2,0:0:0:0:
31,315,40138,2,0,P|106:322|147:258,1,160,2|0,0:0|0:0,0:0:0:0:
243,158,40638,1,2,0:0:0:0:
239,147,40888,2,0,B|313:112|317:181|394:145,1,160,2|0,0:0|0:0,0:0:0:0:
360,68,41388,1,2,0:0:0:0:
365,78,41638,2,0,P|321:144|392:223,1,160,2|2,0:0|0:0,0:0:0:0:
392,146,42138,1,0,0:0:0:0:
402,153,42388,1,2,0:0:0:0:
290,48,42513,6,0,P|224:48|158:38,1,133.333333333333,2|0,0:1|0:0,0:0:0:0:
355,0,42888,1,10,0:0:0:0:
100,95,43138,1,2,0:0:0:0:
154,157,43263,2,0,P|180:97|157:36,1,133.333333333333,2|0,0:1|0:0,0:0:0:0:
8,205,43638,2,0,B|54:181|87:188|87:188|106:229|163:230,1,133.333333333333,10|0,0:0|0:0,0:0:0:0:
131,227,43950,1,2,0:0:0:0:
138,232,44013,6,0,P|120:296|129:362,1,133.333333333333,2|0,0:1|0:0,0:0:0:0:
85,165,44388,1,10,0:0:0:0:
197,384,44638,1,0,0:0:0:0:
323,313,44763,2,0,P|257:310|191:304,1,133.333333333333,2|0,0:1|0:0,0:0:0:0:
328,68,45138,5,10,0:0:0:0:
295,190,45263,1,2,0:0:0:0:
323,313,45388,1,2,0:0:0:0:
438,177,45513,6,0,P|379:148|319:174,1,133.333333333333,2|0,0:1|0:0,0:0:0:0:
245,253,45888,2,0,P|185:278|126:250,1,133.333333333333,8|0,0:0|0:0,0:0:0:0:
56,146,46263,5,2,0:1:0:0:
65,121,46388,1,0,0:0:0:0:
67,94,46513,1,0,0:0:0:0:
12,32,46638,5,10,0:0:0:0:
135,49,46763,1,2,0:0:0:0:
12,32,46888,1,2,0:0:0:0:
135,49,47013,6,0,P|202:48|269:44,1,133.333333333333,2|0,0:1|0:0,0:0:0:0:
398,24,47388,5,10,0:0:0:0:
356,114,47513,1,2,0:0:0:0:
373,212,47638,1,2,0:1:0:0:
449,266,47763,5,2,0:1:0:0:
374,230,47888,1,2,0:0:0:0:
300,266,48013,1,2,0:1:0:0:
234,217,48138,5,10,0:0:0:0:
202,228,48263,1,2,0:0:0:0:
169,219,48388,1,2,0:1:0:0:
130,52,48513,5,6,0:0:0:0:
