osu file format v14

[General]
AudioFilename: audio.mp3
AudioLeadIn: 0
PreviewTime: 6075
Countdown: 0
SampleSet: Soft
StackLeniency: 0.2
Mode: 0
LetterboxInBreaks: 0
WidescreenStoryboard: 0

[Editor]
Bookmarks: 5015,6513,18513,30513,38388,39513,42513,48513
DistanceSpacing: 1.5
BeatDivisor: 6
GridSize: 4
TimelineZoom: 2.8

[Metadata]
Title:Friendly Shop
TitleUnicode:フレンドリィショップ
Artist:Go Ichinose
ArtistUnicode:一之瀬剛
Creator:Linada
Version:Kalitarks' Insane
Source:ポケットモンスター オメガルビー・アルファサファイア
Tags:Pokemon Pokémart Poké Poke Mart Shop Pokémon Omega Ruby & Alpha Sapphire 足立 美奈子 Minako Adachi gen6 generation oras Akitoshi Corinn -Laura- Shiinoha Kotone Tomadoi Kyuukai yaleufeu Kalibe Sotarks Hobbes2
BeatmapID:1679885
BeatmapSetID:779334

[Difficulty]
HPDrainRate:5
CircleSize:4.3
OverallDifficulty:8
ApproachRate:9.2
SliderMultiplier:1.62
SliderTickRate:1

[Events]
//Background and Video events
0,0,"awi.jpg",0,0
//Break Periods
//Storyboard Layer 0 (Background)
//Storyboard Layer 1 (Fail)
//Storyboard Layer 2 (Pass)
//Storyboard Layer 3 (Foreground)
//Storyboard Sound Samples

[TimingPoints]
513,375,4,2,1,40,1,0
5200,-100,4,2,1,5,0,0
5263,-100,4,2,1,40,0,0
6138,-100,4,2,1,45,0,0
6513,-79.9999999999999,4,2,1,50,0,0
14388,-133.333333333333,4,2,1,50,0,0
14763,-100,4,2,1,50,0,0
15138,-79.9999999999999,4,2,1,50,0,0
15513,-66.6666666666667,4,2,1,50,0,0
18513,-80,4,2,1,50,0,0
26388,-80,4,2,1,50,0,1
27513,-66.6666666666667,4,2,1,50,0,0
30513,-80,4,2,1,50,0,0
38388,-80,4,2,1,50,0,1
39513,-100,4,2,1,50,0,0
42513,-80,4,2,1,50,0,0

[Colours]
Combo1 : 255,201,36
Combo2 : 2,200,242
Combo3 : 52,224,125
Combo4 : 244,72,98

[HitObjects]
34,313,513,5,2,0:1:0:0:
151,220,763,1,0,0:0:0:0:
50,288,888,2,0,B|158:271|103:332|231:311,1,162,10|2,0:0|0:1,0:0:0:0:
401,200,1513,5,0,0:0:0:0:
323,219,1638,2,0,P|274:176|225:175,1,108,10|0,0:0|0:0,0:0:0:0:
72,128,2013,2,0,P|124:111|131:105,1,54,2|0,0:1|0:0,0:0:0:0:
184,44,2263,1,2,0:1:0:0:
281,105,2388,2,0,P|219:64|155:86,1,108,10|0,0:0|0:0,0:0:0:0:
277,228,2763,1,2,0:1:0:0:
390,62,3013,5,2,0:1:0:0:
312,201,3138,2,0,B|322:162|322:162|308:133|308:133|328:61,1,108,10|2,0:0|0:1,0:0:0:0:
408,272,3513,1,2,0:1:0:0:
412,283,3638,1,0,0:0:0:0:
366,346,3763,1,0,0:0:0:0:
287,301,3888,2,0,B|188:289|232:339|110:330,1,162,10|2,0:0|0:1,0:0:0:0:
70,145,4513,5,0,0:0:0:0:
115,212,4638,2,0,P|166:172|217:171,1,108,10|0,0:0|0:0,0:0:0:0:
423,308,5013,1,10,0:0:0:0:
424,325,5263,5,8,0:0:0:0:
350,257,5388,1,2,0:1:0:0:
386,179,5513,1,2,0:1:0:0:
362,83,5638,1,8,0:0:0:0:
375,52,5763,1,2,0:1:0:0:
477,248,6013,5,8,0:0:0:0:
386,179,6138,1,2,0:1:0:0:
291,156,6263,1,2,0:1:0:0:
385,141,6388,1,2,0:1:0:0:
258,193,6513,6,0,B|180:184|202:255|115:260,1,135,6|0,0:0|0:0,0:0:0:0:
268,270,6888,1,10,0:0:0:0:
87,104,7138,5,2,0:0:0:0:
56,168,7263,2,0,B|65:127|65:127|49:76|49:76|56:20,1,135,2|0,0:1|0:0,0:0:0:0:
186,180,7638,5,8,0:0:0:0:
226,122,7763,1,2,0:0:0:0:
306,80,7888,1,2,0:0:0:0:
403,99,8013,2,0,P|454:156|459:207,1,67.5,2|0,0:1|0:0,0:0:0:0:
402,291,8263,5,2,0:0:0:0:
330,278,8388,2,0,L|421:255,1,67.5,10|0,0:0|0:0,0:0:0:0:
246,347,8638,5,2,0:0:0:0:
195,282,8763,2,0,B|125:274|141:347|56:361,1,135,2|0,0:1|0:0,0:0:0:0:
212,206,9138,5,10,0:0:0:0:
256,145,9263,1,2,0:0:0:0:
251,59,9388,1,2,0:0:0:0:
169,14,9513,2,0,L|185:89,1,67.5,2|0,0:1|0:0,0:0:0:0:
364,28,9763,5,2,0:0:0:0:
337,103,9888,2,0,L|353:178,1,67.5,10|0,0:0|0:0,0:0:0:0:
443,305,10138,5,2,0:0:0:0:
377,270,10263,2,0,B|325:267|325:267|290:302|290:302|232:329,1,135,2|0,0:1|0:0,0:0:0:0:
112,255,10638,5,8,0:0:0:0:
177,220,10763,1,2,0:0:0:0:
95,204,10888,1,2,0:0:0:0:
208,205,11013,2,0,P|266:188|296:150,1,67.5,2|0,0:1|0:0,0:0:0:0:
153,96,11263,5,2,0:0:0:0:
266,95,11388,2,0,P|324:112|354:150,1,67.5,10|0,0:0|0:0,0:0:0:0:
359,142,11575,1,0,0:0:0:0:
354,150,11638,2,0,L|359:193,6,33.75,2|0|2|0|0|0|0,0:0|0:0|0:1|0:0|0:0|0:0|0:0,0:0:0:0:
315,279,12138,5,10,0:0:0:0:
275,217,12263,1,2,0:0:0:0:
195,177,12388,1,2,0:0:0:0:
95,188,12513,2,0,L|121:259,1,67.5,2|0,0:1|0:0,0:0:0:0:
221,145,12763,5,2,0:0:0:0:
275,217,12888,2,0,L|249:288,1,67.5,10|0,0:0|0:0,0:0:0:0:
114,155,13138,1,2,0:0:0:0:
158,93,13263,1,2,0:1:0:0:
167,78,13513,5,2,0:0:0:0:
221,145,13638,1,10,0:0:0:0:
185,212,13763,1,2,0:0:0:0:
202,247,13888,1,2,0:0:0:0:
197,264,14013,2,0,B|268:249|262:332|364:300,1,135,2|0,0:1|0:0,0:0:0:0:
400,151,14388,6,0,P|354:174|329:213,1,81.0000030899049,10|0,0:0|0:0,0:0:0:0:
320,307,14763,6,0,P|316:253|332:202,1,108,2|0,0:1|0:0,0:0:0:0:
413,91,15138,6,0,P|362:134|335:196,1,135,10|0,0:0|0:0,0:0:0:0:
294,61,15513,6,0,B|132:32|192:160|59:147,1,243.000009269715,2|12,0:1|0:0,0:0:0:0:
79,127,16138,6,0,P|118:154|122:165,1,40.5000015449524,0|2,0:0|0:0,0:0:0:0:
139,223,16263,6,0,B|197:230|197:230|257:294|257:294|328:323,1,202.500007724762,2|0,0:1|0:0,0:0:0:0:
377,277,16638,5,14,0:0:0:0:
331,213,16763,1,2,0:0:0:0:
408,137,16888,1,2,0:0:0:0:
327,29,17013,1,2,0:1:0:0:
340,8,17263,5,0,0:0:0:0:
279,99,17388,5,14,0:0:0:0:
147,126,17513,1,2,0:0:0:0:
254,62,17638,1,2,0:0:0:0:
196,126,17763,5,2,0:1:0:0:
363,184,17888,1,2,0:0:0:0:
17,280,18138,5,10,0:0:0:0:
302,364,18388,5,2,0:0:0:0:
289,353,18513,6,0,B|265:284|318:313|282:190,1,135,6|0,0:0|0:0,0:0:0:0:
196,126,18888,2,0,L|354:149,1,135,10|2,0:0|0:0,0:0:0:0:
427,123,19263,1,2,0:1:0:0:
218,262,19513,5,0,0:0:0:0:
200,336,19638,1,8,0:0:0:0:
115,261,19763,1,2,0:0:0:0:
60,364,19888,1,2,0:0:0:0:
18,286,20013,6,0,P|25:228|35:139,1,135,2|2,0:1|0:1,0:0:0:0:
128,94,20388,2,0,P|124:71|120:5,1,67.5,8|0,0:0|0:0,0:0:0:0:
224,164,20638,1,2,0:0:0:0:
269,101,20763,2,0,P|271:67|276:34,1,67.5,2|0,0:1|0:0,0:0:0:0:
439,208,21013,1,2,0:0:0:0:
397,110,21138,2,0,P|394:76|389:43,1,67.5,8|0,0:0|0:0,0:0:0:0:
253,181,21388,5,2,0:0:0:0:
323,252,21513,2,0,P|306:343|297:404,1,135,2|0,0:1|0:0,0:0:0:0:
391,310,21888,2,0,P|416:302|485:298,1,67.5,10|0,0:0|0:0,0:0:0:0:
337,172,22138,1,2,0:0:0:0:
307,244,22263,2,0,P|254:237|171:350,1,202.5,2|8,0:1|0:0,0:0:0:0:
95,273,22763,5,2,0:0:0:0:
159,191,22888,1,2,0:0:0:0:
83,138,23013,2,0,P|26:147|-21:151,1,67.5,2|0,0:1|0:0,0:0:0:0:
174,4,23263,5,2,0:1:0:0:
80,45,23388,1,8,0:0:0:0:
229,120,23575,5,2,0:0:0:0:
229,120,23638,2,0,P|313:130|384:141,1,135,0|0,0:0|0:0,0:0:0:0:
431,99,24013,1,0,0:0:0:0:
353,54,24138,1,10,0:0:0:0:
291,155,24263,1,2,0:0:0:0:
387,208,24388,1,2,0:0:0:0:
270,236,24513,6,0,P|224:238|168:313,1,135,2|0,0:1|0:0,0:0:0:0:
234,384,24888,2,0,P|243:337|268:298,1,67.5,10|0,0:0|0:0,0:0:0:0:
97,205,25138,1,2,0:0:0:0:
39,253,25263,2,0,L|51:343,1,67.5,2|0,0:1|0:0,0:0:0:0:
201,205,25513,1,0,0:0:0:0:
151,138,25638,1,10,0:0:0:0:
167,114,25763,1,2,0:0:0:0:
258,77,25888,1,2,0:0:0:0:
203,29,26013,2,0,B|120:37|155:62|71:74,1,135,2|0,0:1|0:0,0:0:0:0:
0,137,26388,5,10,0:0:0:0:
49,190,26513,1,2,0:0:0:0:
124,179,26638,1,2,0:1:0:0:
113,158,26763,5,2,0:1:0:0:
38,205,26888,1,2,0:0:0:0:
70,288,27013,1,2,0:1:0:0:
89,263,27138,5,10,0:0:0:0:
136,369,27263,1,2,0:0:0:0:
189,272,27388,1,2,0:1:0:0:
157,346,27513,2,0,B|287:360|248:246|373:269,1,243.000009269715,2|14,0:1|0:0,0:0:0:0:
506,184,28138,6,0,L|519:109,1,40.5000015449524,0|2,0:0|0:0,0:0:0:0:
434,153,28263,2,0,B|311:147|358:48|222:45,1,243.000009269715,2|14,0:1|0:0,0:0:0:0:
146,102,28763,1,2,0:0:0:0:
203,144,28888,1,2,0:0:0:0:
302,100,29013,6,0,L|403:88,1,81.0000030899049,2|0,0:1|0:0,0:0:0:0:
253,215,29263,1,0,0:0:0:0:
333,281,29388,1,14,0:0:0:0:
403,193,29513,1,2,0:0:0:0:
317,122,29638,1,2,0:0:0:0:
329,197,29763,5,2,0:1:0:0:
463,111,29888,2,0,P|454:75|446:17,1,81.0000030899049,2|0,0:0|0:0,0:0:0:0:
175,205,30138,2,0,P|184:169|192:111,1,81.0000030899049,10|8,0:0|0:0,0:0:0:0:
394,234,30388,1,8,0:0:0:0:
349,316,30513,6,0,P|291:325|223:369,1,135,10|2,0:0|0:0,0:0:0:0:
104,230,30888,2,0,P|141:261|226:275,1,135,10|2,0:0|0:0,0:0:0:0:
334,155,31263,2,0,P|266:199|198:193,1,135,10|10,0:0|0:0,0:0:0:0:
132,110,31638,6,0,P|142:78|146:24,1,67.5,8|0,0:0|0:0,0:0:0:0:
74,19,31888,2,0,B|189:-4|164:58|282:37,1,202.5,2|2,0:0|0:0,0:0:0:0:
323,124,32388,1,8,0:0:0:0:
475,26,32638,5,2,0:0:0:0:
458,30,32763,1,4,0:0:0:0:
374,222,33013,5,0,0:0:0:0:
397,229,33138,1,8,0:0:0:0:
411,122,33388,5,0,0:0:0:0:
341,104,33513,2,0,P|281:112|188:127,1,135,2|2,0:1|0:0,0:0:0:0:
145,214,33888,1,2,0:0:0:0:
266,384,34138,2,0,P|315:345|244:205,1,202.5,2|2,0:0|0:0,0:0:0:0:
234,138,34638,2,0,P|170:171|174:228,1,135,2|2,0:0|0:0,0:0:0:0:
186,314,35013,6,0,P|228:303|288:296,1,67.5,2|0,0:1|0:0,0:0:0:0:
384,197,35263,1,2,0:0:0:0:
474,237,35388,6,0,P|441:228|408:222,1,67.5,2|0,0:0|0:0,0:0:0:0:
319,130,35638,2,0,B|200:151|245:67|123:87,1,202.5,2|2,0:0|0:0,0:0:0:0:
59,154,36138,5,2,0:0:0:0:
45,128,36263,1,0,0:0:0:0:
0,197,36388,5,2,0:0:0:0:
80,249,36513,2,0,B|138:258|138:258|151:273|151:273|214:285,1,135,10|2,0:0|0:0,0:0:0:0:
134,384,36888,2,0,B|192:375|192:375|205:360|205:360|268:348,1,135,10|2,0:0|0:0,0:0:0:0:
359,234,37263,2,0,B|330:214|330:214|299:225,1,67.5,10|0,0:0|0:0,0:0:0:0:
383,338,37513,1,2,0:0:0:0:
445,294,37638,2,0,P|463:266|446:233,1,67.5,10|0,0:0|0:0,0:0:0:0:
334,101,37888,5,2,0:0:0:0:
258,62,38013,2,0,L|247:11,2,33.75,8|8|0,0:0|0:0|0:0,0:0:0:0:
362,87,38263,1,0,0:0:0:0:
242,164,38388,5,10,0:0:0:0:
171,188,38513,1,2,0:0:0:0:
224,237,38638,1,2,0:1:0:0:
199,152,38763,5,14,0:0:0:0:
153,259,38888,1,2,0:0:0:0:
273,303,39013,1,2,0:1:0:0:
318,149,39138,5,10,0:0:0:0:
263,188,39263,1,2,0:0:0:0:
315,238,39388,1,2,0:1:0:0:
256,102,39513,6,0,L|76:77,1,162,2|2,0:1|0:0,0:0:0:0:
103,374,40138,2,0,P|89:297|155:258,1,162,2|0,0:1|0:0,0:0:0:0:
203,200,40638,1,2,0:0:0:0:
217,188,40888,2,0,P|267:194|292:294,1,162,2|0,0:1|0:0,0:0:0:0:
337,355,41388,1,2,0:0:0:0:
359,364,41638,6,0,P|404:356|427:292,1,108,2|0,0:1|0:0,0:0:0:0:
377,218,42013,1,2,0:0:0:0:
377,218,42138,2,0,L|500:193,1,108,0|2,0:0|0:0,0:0:0:0:
417,94,42513,6,0,P|366:84|303:11,1,135,2|0,0:1|0:0,0:0:0:0:
231,154,42888,2,0,P|239:118|246:78,2,67.5,10|0|2,0:0|0:0|0:0,0:0:0:0:
46,183,43263,6,0,P|97:173|160:100,1,135,2|0,0:1|0:0,0:0:0:0:
314,252,43638,2,0,P|306:216|299:176,2,67.5,10|0|0,0:0|0:0|0:0,0:0:0:0:
319,284,43950,1,2,0:0:0:0:
319,284,44013,2,0,B|229:273|256:309|171:300,1,135,2|0,0:1|0:0,0:0:0:0:
57,358,44388,5,10,0:0:0:0:
103,298,44513,1,0,0:0:0:0:
65,227,44638,1,0,0:0:0:0:
163,144,44763,2,0,B|253:133|226:169|311:160,1,135,2|0,0:1|0:0,0:0:0:0:
425,218,45138,5,10,0:0:0:0:
379,158,45263,1,2,0:0:0:0:
417,87,45388,1,2,0:0:0:0:
331,13,45513,2,0,B|283:15|233:30|233:30|248:45|275:58,1,135,2|0,0:1|0:0,0:0:0:0:
379,158,45888,2,0,B|392:152|407:137|407:137|357:122|309:120,1,135,8|0,0:0|0:0,0:0:0:0:
189,170,46263,5,2,0:1:0:0:
171,190,46388,1,0,0:0:0:0:
161,227,46513,1,0,0:0:0:0:
93,191,46638,5,10,0:0:0:0:
64,260,46763,1,2,0:0:0:0:
87,331,46888,1,2,0:0:0:0:
157,376,47013,1,0,0:0:0:0:
226,348,47138,2,0,P|231:313|241:276,1,67.5
398,112,47388,5,10,0:0:0:0:
429,181,47513,1,2,0:0:0:0:
361,215,47638,1,2,0:1:0:0:
309,281,47763,5,2,0:0:0:0:
273,172,47888,1,2,0:0:0:0:
374,137,48013,1,2,0:1:0:0:
424,267,48138,5,10,0:0:0:0:
345,303,48263,1,2,0:1:0:0:
227,267,48388,1,2,0:1:0:0:
86,305,48513,5,6,0:0:0:0:
