osu file format v14

[General]
AudioFilename: audio.mp3
AudioLeadIn: 0
PreviewTime: 5170
Countdown: 0
SampleSet: Normal
StackLeniency: 0.7
Mode: 1
LetterboxInBreaks: 0
WidescreenStoryboard: 1

[Editor]
Bookmarks: 417,5467,19724,26555,28931,38436,41109
DistanceSpacing: 1.1
BeatDivisor: 6
GridSize: 32
TimelineZoom: 1.8

[Metadata]
Title:Champion Cynthia
TitleUnicode:チャンピオンシロナ
Artist:Go Ichinose
ArtistUnicode:一之瀬 剛
Creator:nevqr
Version:Futsuu
Source:ポケットモンスター ダイヤモンド・パール
Tags:cynthia シロナ shirona no gaburias cynthia's cynthias garchomp シロナのガブリアス ガブリアス pokémon pokemon ポケモン pocket monsters poketto monsuta monsutā ポケットモンスター ost original soundtrack track 144 disk 2 66 gō gou hitomi sato satō satou 佐藤仁美 junichi jun'ichi masuda 増田順一 diamond and & pearl platinum version ポケットモンスタープラチナ d p pt dp dppt black and & white 2 version bw bw2 ポケットモンスター ブラック・ホワイト ポケットモンスター ブラック2・ホワイト2 brilliant diamond and & shining pearl version bdsp ポケットモンスター ブリリアントダイヤモンド・シャイニングパール gen generation four 4 iv 第四世代 five 5 v 第五世代 eight 8 viii 第八世代 sinnoh シンオウ unova isshu イッシュ undella town sazanami town サザナミタウン before battle approaches! elite 4 four 任天堂 四天王 shitenno shitennō shitennou theme sinnoh league champion videogame video game vgm instrumental classical piano gamefreak game freak nintendo ds nds ニンテンドーDS ポケモン ダイヤモンド&パール スーパーミュージックコレクション super music collection complete
BeatmapID:4252534
BeatmapSetID:2038790

[Difficulty]
HPDrainRate:9
CircleSize:2
OverallDifficulty:4
ApproachRate:9
SliderMultiplier:1.4
SliderTickRate:1

[Events]
//Background and Video events
0,0,"cynthia.jpg",0,50
//Break Periods
//Storyboard Layer 0 (Background)
//Storyboard Layer 1 (Fail)
//Storyboard Layer 2 (Pass)
//Storyboard Layer 3 (Foreground)
//Storyboard Layer 4 (Overlay)
//Storyboard Sound Samples

[TimingPoints]
417,594.059405940594,4,1,0,70,1,8
417,-62.5,4,1,0,70,0,8
715,594.059405940594,4,1,0,80,1,0
715,-62.5,4,1,0,80,0,0
1012,-62.5,4,1,0,70,0,0
1309,-62.5,4,1,0,80,0,0
1606,-62.5,4,1,0,70,0,0
1903,-62.5,4,1,0,80,0,0
2200,-62.5,4,1,0,70,0,0
2497,-62.5,4,1,0,80,0,0
2794,-62.5,4,1,0,70,0,0
3388,-62.5,4,1,0,69,0,0
3685,-62.5,4,1,0,67,0,0
3982,-62.5,4,1,0,66,0,0
4279,-62.5,4,1,0,65,0,0
4576,-62.5,4,1,0,63,0,0
5170,-62.5,4,1,0,61,0,0
5467,-62.5,4,1,0,80,0,1
19724,594.059405940594,6,1,0,70,1,0
19724,-62.5,6,1,0,70,0,0
22397,-62.5,6,1,0,80,0,0
22991,-62.5,6,1,0,60,0,0
23288,-62.5,6,1,0,70,0,0
26555,594.059405940594,4,1,0,80,1,0
26555,-62.5,4,1,0,80,0,0
27149,-62.5,4,1,0,90,0,0
27743,-62.5,4,1,0,100,0,0
28337,-62.5,4,1,0,70,0,0
39030,-62.5,4,1,0,69,0,0
39327,-62.5,4,1,0,67,0,0
39624,-62.5,4,1,0,66,0,0
39921,-62.5,4,1,0,65,0,0
40218,-62.5,4,1,0,63,0,0
40515,-62.5,4,1,0,62,0,0
40812,-62.5,4,1,0,60,0,0
41109,594.059405940594,4,1,0,60,1,8
41109,-62.5,4,1,0,60,0,8
41208,-62.5,4,1,0,55,0,8
41703,-62.5,4,1,0,50,0,8
41802,-62.5,4,1,0,45,0,8
42297,-62.5,4,1,0,40,0,8
42396,-62.5,4,1,0,35,0,8
42891,-62.5,4,1,0,30,0,8
42990,-62.5,4,1,0,25,0,8
43485,-62.5,4,1,0,20,0,8
43584,-62.5,4,1,0,15,0,8

[HitObjects]
256,192,417,5,0,1:0:0:0:
256,192,715,1,12,1:0:0:0:
256,192,1012,1,0,1:0:0:0:
256,192,1309,1,12,1:0:0:0:
256,192,1606,1,0,1:0:0:0:
256,192,1903,1,12,1:0:0:0:
256,192,2200,1,0,1:0:0:0:
256,192,2497,1,12,1:0:0:0:
256,192,2794,1,0,1:0:0:0:
256,192,3091,1,8,1:0:0:0:
256,192,3388,1,8,1:0:0:0:
256,192,3685,1,0,1:0:0:0:
256,192,3982,1,8,1:0:0:0:
256,192,4279,1,0,1:0:0:0:
256,192,4576,1,8,1:0:0:0:
256,192,5170,1,0,1:0:0:0:
256,192,5467,1,8,1:0:0:0:
256,192,5566,1,8,1:0:0:0:
255,192,5764,1,0,1:0:0:0:
256,192,6061,1,8,1:0:0:0:
256,192,6160,1,8,1:0:0:0:
256,192,6655,1,0,1:0:0:0:
256,192,6754,1,0,1:0:0:0:
256,192,6952,1,0,1:0:0:0:
256,192,7249,1,8,1:0:0:0:
256,192,7348,1,8,1:0:0:0:
256,192,7843,1,0,1:0:0:0:
256,192,7942,1,0,1:0:0:0:
256,192,8140,1,8,1:0:0:0:
256,192,8437,1,0,1:0:0:0:
256,192,8536,1,0,1:0:0:0:
256,192,9031,1,8,1:0:0:0:
256,192,9130,1,8,1:0:0:0:
256,192,9328,1,8,1:0:0:0:
256,192,9625,1,0,1:0:0:0:
256,192,9724,1,0,1:0:0:0:
256,192,10219,1,8,1:0:0:0:
256,192,10318,1,8,1:0:0:0:
256,192,10516,1,0,1:0:0:0:
256,192,10814,1,8,1:0:0:0:
256,192,10913,1,8,1:0:0:0:
256,192,11408,1,0,1:0:0:0:
256,192,11507,1,0,1:0:0:0:
256,192,11705,1,0,1:0:0:0:
256,192,12002,1,8,1:0:0:0:
256,192,12101,1,8,1:0:0:0:
256,192,12596,1,0,1:0:0:0:
256,192,12695,1,0,1:0:0:0:
256,192,12893,1,8,1:0:0:0:
256,192,13190,1,0,1:0:0:0:
256,192,13289,1,0,1:0:0:0:
256,192,13784,1,8,1:0:0:0:
256,192,13883,1,8,1:0:0:0:
256,192,14081,1,8,1:0:0:0:
256,192,14378,1,0,1:0:0:0:
256,192,14477,1,0,1:0:0:0:
256,192,14972,1,8,1:0:0:0:
256,192,15071,1,8,1:0:0:0:
256,192,15269,1,0,1:0:0:0:
256,192,15566,1,8,1:0:0:0:
256,192,15665,1,8,1:0:0:0:
256,192,16160,1,0,1:0:0:0:
256,192,16259,1,0,1:0:0:0:
256,192,16457,1,0,1:0:0:0:
256,192,16754,1,8,1:0:0:0:
256,192,16853,1,8,1:0:0:0:
256,192,17348,1,0,1:0:0:0:
256,192,17447,1,0,1:0:0:0:
256,192,17645,1,8,1:0:0:0:
256,192,17942,1,0,1:0:0:0:
256,192,18041,1,0,1:0:0:0:
256,192,18536,1,8,1:0:0:0:
256,192,18635,1,8,1:0:0:0:
256,192,18833,1,8,1:0:0:0:
256,192,19130,1,0,1:0:0:0:
256,192,19229,1,0,1:0:0:0:
256,192,19724,1,8,1:0:0:0:
256,192,19922,1,0,1:0:0:0:
257,192,20219,1,0,1:0:0:0:
257,192,20516,1,8,1:0:0:0:
257,192,20813,1,0,1:0:0:0:
257,192,21110,1,8,1:0:0:0:
257,192,21407,1,8,1:0:0:0:
257,192,21704,1,0,1:0:0:0:
257,192,22001,1,8,1:0:0:0:
257,192,22199,1,0,1:0:0:0:
257,192,22397,1,12,1:0:0:0:
255,191,22694,1,12,1:0:0:0:
255,191,22991,1,0,1:0:0:0:
255,191,23288,1,8,1:0:0:0:
256,192,23486,1,0,1:0:0:0:
256,192,23783,1,8,1:0:0:0:
256,192,24080,1,0,1:0:0:0:
256,192,24377,1,8,1:0:0:0:
256,192,24674,1,8,1:0:0:0:
256,192,24971,1,0,1:0:0:0:
256,192,25268,1,8,1:0:0:0:
256,192,25565,1,0,1:0:0:0:
256,192,26159,1,8,1:0:0:0:
256,192,26357,1,0,1:0:0:0:
256,192,26555,1,12,1:0:0:0:
256,192,26852,1,12,1:0:0:0:
256,192,27149,1,4,1:0:0:0:
256,192,27446,1,4,1:0:0:0:
256,192,27743,1,12,1:0:0:0:
256,192,28040,1,12,1:0:0:0:
256,192,28337,1,0,1:0:0:0:
256,192,28931,1,0,1:0:0:0:
256,192,29030,1,0,1:0:0:0:
256,192,29228,1,8,1:0:0:0:
256,192,29525,1,8,1:0:0:0:
256,192,29822,1,0,1:0:0:0:
256,192,30119,1,8,1:0:0:0:
256,192,30218,1,8,1:0:0:0:
256,192,30416,1,0,1:0:0:0:
256,192,30713,1,0,1:0:0:0:
256,192,31010,1,8,1:0:0:0:
256,192,31307,1,0,1:0:0:0:
256,192,31406,1,0,1:0:0:0:
256,192,31604,1,0,1:0:0:0:
256,192,31901,1,8,1:0:0:0:
256,192,32198,1,0,1:0:0:0:
256,192,32495,1,8,1:0:0:0:
256,192,32594,1,8,1:0:0:0:
256,192,32792,1,0,1:0:0:0:
256,192,33089,1,8,1:0:0:0:
256,192,33683,1,0,1:0:0:0:
256,192,33782,1,0,1:0:0:0:
256,192,33980,1,0,1:0:0:0:
256,192,34277,1,8,1:0:0:0:
256,192,34574,1,0,1:0:0:0:
256,192,34871,1,8,1:0:0:0:
256,192,34970,1,8,1:0:0:0:
256,192,35168,1,8,1:0:0:0:
256,192,35465,1,0,1:0:0:0:
256,192,35762,1,8,1:0:0:0:
256,192,36059,1,0,1:0:0:0:
256,192,36158,1,0,1:0:0:0:
256,192,36356,1,8,1:0:0:0:
256,192,36654,1,8,1:0:0:0:
256,192,36951,1,0,1:0:0:0:
256,192,37248,1,8,1:0:0:0:
256,192,37347,1,8,1:0:0:0:
256,192,37545,1,0,1:0:0:0:
256,192,37842,1,8,1:0:0:0:
256,192,38436,1,0,1:0:0:0:
256,192,38733,1,8,1:0:0:0:
256,192,39030,1,8,1:0:0:0:
256,192,39327,1,0,1:0:0:0:
256,192,39624,1,8,1:0:0:0:
256,192,39921,1,0,1:0:0:0:
256,192,40218,1,0,1:0:0:0:
256,192,40515,1,8,1:0:0:0:
256,192,40812,1,0,1:0:0:0:
256,192,41109,1,8,1:0:0:0:
256,192,41208,1,8,1:0:0:0:
256,192,41703,1,0,1:0:0:0:
256,192,41802,1,0,1:0:0:0:
256,192,42297,1,8,1:0:0:0:
256,192,42396,1,8,1:0:0:0:
256,192,42891,1,0,1:0:0:0:
256,192,42990,1,0,1:0:0:0:
256,192,43485,1,8,1:0:0:0:
256,192,43584,1,8,1:0:0:0:
