osu file format v14

[General]
AudioFilename: audio.mp3
AudioLeadIn: 0
PreviewTime: 84715
Countdown: 0
SampleSet: None
StackLeniency: 0.4
Mode: 0
LetterboxInBreaks: 0
WidescreenStoryboard: 1

[Editor]
Bookmarks: 69350,69472,69715,69837,70081,70325,70569,70813
DistanceSpacing: 1
BeatDivisor: 4
GridSize: 4
TimelineZoom: 1.699999

[Metadata]
Title:Battle! (Kyurem)
TitleUnicode:戦闘!キュレム
Artist:Go Ichinose
ArtistUnicode:Go Ichinose
Creator:-BlastTheKidd-
Version:Ultra Ball
Source:Pokemon Black and White
Tags:Pokemon,Pokemon Go, Pokemon Black,Pokemon White, Nintendo, DS, Legendary, Battle, Sun, Moon, Sun and Moon, Omega Ruby, Alpha Sapphire
BeatmapID:1305193
BeatmapSetID:567131

[Difficulty]
HPDrainRate:7
CircleSize:4
OverallDifficulty:7
ApproachRate:8.6
SliderMultiplier:1.20000000596046
SliderTickRate:2

[Events]
//Background and Video events
0,0,"Background.jpg",0,0
//Break Periods
2,26378,28844
2,53696,56648
2,123695,128935
//Storyboard Layer 0 (Background)
//Storyboard Layer 1 (Fail)
//Storyboard Layer 2 (Pass)
//Storyboard Layer 3 (Foreground)
//Storyboard Sound Samples

[TimingPoints]
2764.75175039474,487.80487804878,4,3,0,100,1,0
2765,-100,4,3,0,100,0,0
6423,-66.6666666666667,4,3,0,100,0,0
10081,-66.6666666666667,4,3,0,100,0,0
12520,-76.9230769230769,4,3,0,100,0,0
13984,-66.6666666666667,4,3,0,100,0,0
15447,-100,4,3,0,100,0,0
18008,-66.6666666666667,4,3,0,100,0,0
29594,-66.6666666666667,4,3,0,100,0,1
41789,-66.6666666666667,4,3,0,100,0,0
49594,-50,4,3,0,100,0,0
51301,-66.6666666666667,4,3,0,100,0,0
59837,-50,4,3,0,100,0,0
60325,-66.6666666666667,4,3,0,100,0,0
69106,-66.6666666666667,4,3,0,100,0,1
76911,-50,4,3,0,100,0,0
84715,-50,4,3,0,100,0,1
92520,-100,4,3,0,100,0,0
96667,-66.6666666666667,4,3,0,100,0,0
100325,-66.6666666666667,4,3,0,100,0,1
104228,-50,4,3,0,100,0,1
108130,-66.6666666666667,4,3,0,100,0,1
112033,-100,4,3,0,100,0,0
129594,-66.6666666666667,4,3,0,100,0,0
131545,-66.6666666666667,4,3,0,100,0,1
139350,-66.6666666666667,4,3,0,100,0,0

[Colours]
Combo1 : 190,224,224
Combo2 : 192,192,192
Combo3 : 64,128,128
Combo4 : 128,128,128
Combo5 : 191,191,204

[HitObjects]
152,152,2764,6,0,B|168:128|168:128|200:156,1,60.000000298023
264,272,3252,2,0,B|292:292|292:292|316:260,1,60.000000298023
396,160,3740,2,0,B|368:140|368:140|344:172,1,60.000000298023
208,184,4228,2,0,L|180:216,2,30.0000001490115
256,100,4715,5,0,0:0:0:0:
328,176,4959,2,0,B|360:188|360:188,2,30.0000001490115
328,176,5447,2,0,L|288:212,2,30.0000001490115
328,176,5935,2,0,L|328:132,2,30.0000001490115
448,96,6423,2,0,P|412:108|404:48,1,90.0000038802622
212,236,7154,5,0,0:0:0:0:
360,8,7642,1,0,0:0:0:0:
456,184,8130,2,0,L|392:156,2,45.0000019401311
432,308,8618,2,0,L|432:368,3,45.0000019401311
432,353,9106,2,0,L|376:352,3,45.0000019401311
328,288,9715,2,0,B|352:256|352:256|364:248,2,45.0000019401311
292,344,10081,2,0,P|266:371|255:335,2,90.0000038802622
372,296,10813,5,0,0:0:0:0:
392,200,11057,1,0,0:0:0:0:
292,236,11301,1,0,0:0:0:0:
300,132,11545,1,0,0:0:0:0:
216,188,11789,1,0,0:0:0:0:
120,120,12033,1,0,0:0:0:0:
112,112,12154,2,0,P|112:92|152:120,1,90.0000038802622
168,108,12520,5,0,0:0:0:0:
168,212,12764,2,0,B|192:188|192:188|192:176|192:176|224:148,1,77.9999968168734
248,64,13252,2,0,B|272:40|272:40|272:28|272:28|304:0,1,77.9999968168734
152,84,13740,1,0,0:0:0:0:
144,84,13862,1,0,0:0:0:0:
136,84,13984,2,0,L|124:128,4,45.0000019401311
272,196,14715,6,0,L|312:232,1,45.0000019401311
348,252,14959,1,0,0:0:0:0:
304,296,15203,2,0,L|268:264,1,45.0000019401311
212,216,15447,2,0,L|180:188,3,30.0000001490115
180,184,15935,2,0,L|116:172,2,60.000000298023
352,292,16667,2,0,B|364:280|364:280|368:272|368:272|384:264,2,30.0000001490115
352,292,17154,2,0,B|336:272|336:272|344:260|344:260|328:244,1,60.000000298023
320,208,17642,2,0,P|308:180|308:180,2,30.0000001490115
384,228,18008,2,0,P|392:224|352:216,1,135.000005820393
220,188,18618,5,0,0:0:0:0:
220,188,18740,1,0,0:0:0:0:
220,188,18862,1,0,0:0:0:0:
128,92,19106,2,0,L|144:36,4,45.0000019401311
124,196,19837,2,0,B|168:200|168:200|152:256,2,90.0000038802622
268,228,20569,1,0,0:0:0:0:
268,228,20691,1,0,0:0:0:0:
268,228,20813,1,0,0:0:0:0:
416,224,21057,1,0,0:0:0:0:
284,360,21301,2,0,P|280:360|304:328,1,90.0000038802622
112,288,21789,2,0,L|64:264,3,45.0000019401311
256,192,22276,12,0,23252,0:0:0:0:
396,172,23496,6,0,L|384:228,1,45.0000019401311
364,296,23740,1,0,0:0:0:0:
276,264,23984,2,0,L|224:244,2,45.0000019401311
328,184,24472,2,0,P|372:152|376:144,1,45.0000019401311
376,84,24715,1,0,0:0:0:0:
336,4,24837,2,0,L|368:-32,2,45.0000019401311
284,72,25203,2,0,L|220:144,1,90.0000038802622
164,204,25691,2,0,L|88:140,1,90.0000038802622
44,100,26057,2,0,L|76:60,1,45.0000019401311
416,136,29594,6,0,B|388:184|388:184|344:176|344:176|312:220|312:220|296:240,1,180.000007760524
460,308,30325,2,0,P|408:356|384:344,1,90.0000038802622
440,224,30813,1,0,0:0:0:0:
296,239,31057,1,0,0:0:0:0:
368,136,31301,1,0,0:0:0:0:
220,156,31545,1,0,0:0:0:0:
184,48,31789,2,0,B|140:40|140:64|140:64|96:56,1,90.0000038802622
124,176,32276,1,0,0:0:0:0:
124,176,32398,1,0,0:0:0:0:
124,176,32520,1,0,0:0:0:0:
32,240,32764,2,0,P|20:288|16:292,1,45.0000019401311
4,312,33008,2,0,P|8:320|36:328,16,22.5000009700655
176,208,34228,6,0,B|152:208|136:208|136:208|120:216|120:228|136:236|144:256,1,90.0000038802622
192,112,34715,1,0,0:0:0:0:
272,184,34959,1,0,0:0:0:0:
176,228,35203,1,0,0:0:0:0:
264,116,35447,1,0,0:0:0:0:
120,176,35691,1,0,0:0:0:0:
288,232,35935,2,0,P|280:224|240:240,2,45.0000019401311
380,288,36423,2,0,P|396:304|436:312,2,45.0000019401311
368,204,36911,2,0,L|396:176,16,22.5000009700655
384,80,38130,6,0,P|332:64|328:88,1,90.0000038802622
352,168,38618,2,0,P|328:220|320:216,1,90.0000038802622
248,136,39106,2,0,P|196:132|204:160,2,90.0000038802622
304,264,39837,6,0,L|336:316,2,45.0000019401311
304,264,40325,2,0,L|276:216,2,45.0000019401311
304,264,40813,2,0,L|256:260,2,45.0000019401311
304,264,41301,2,0,L|328:224,3,45.0000019401311
392,176,41789,1,0,0:0:0:0:
340,108,42033,2,0,B|296:100|296:100|304:52,1,90.0000038802622
256,176,42520,1,0,0:0:0:0:
168,96,42764,2,0,P|172:72|192:52,3,45.0000019401311
128,208,43496,2,0,P|140:240|168:248,2,45.0000019401311
256,176,43984,5,0,0:0:0:0:
312,276,44228,1,0,0:0:0:0:
216,236,44472,1,0,0:0:0:0:
312,212,44715,2,0,P|280:256|272:260,4,45.0000019401311
192,204,45447,1,0,0:0:0:0:
368,116,45691,6,0,L|368:212,1,90.0000038802622
416,312,46179,2,0,L|316:312,1,90.0000038802622
240,248,46667,2,0,L|240:344,1,90.0000038802622
152,384,47154,2,0,L|48:384,1,90.0000038802622
72,152,47642,5,0,0:0:0:0:
72,152,47764,1,0,0:0:0:0:
72,152,47886,1,0,0:0:0:0:
72,152,48130,2,0,B|88:128|116:148|116:148|144:112,1,90.0000038802622
344,144,48618,2,0,B|356:184|384:184|384:184|372:232,1,90.0000038802622
192,296,49106,2,0,B|184:272|184:256|184:256|164:240|164:240|124:256,1,90.0000038802622
220,176,49594,6,0,P|220:172|256:204,1,120.000000596046
264,272,50081,1,0,0:0:0:0:
264,272,50203,1,0,0:0:0:0:
264,272,50325,1,0,0:0:0:0:
356,200,50569,1,0,0:0:0:0:
356,200,50691,1,0,0:0:0:0:
360,204,50813,2,0,P|360:216|384:184,2,120.000000596046
352,184,51545,6,0,P|404:184|388:212,2,90.0000038802622
352,260,52276,1,0,0:0:0:0:
296,360,52520,1,0,0:0:0:0:
256,200,52764,1,0,0:0:0:0:
184,296,53008,1,0,0:0:0:0:
120,384,53252,1,0,0:0:0:0:
56,296,53496,1,0,0:0:0:0:
432,96,57398,6,0,P|448:116|404:172,1,90.0000038802622
164,48,58130,1,0,0:0:0:0:
156,120,58374,2,0,P|200:152|196:120,1,112.500004850328
236,68,58862,1,0,0:0:0:0:
280,152,59106,1,0,0:0:0:0:
280,152,59228,1,0,0:0:0:0:
280,152,59350,2,0,B|272:168|272:168|260:188,4,22.5000009700655
416,144,59837,2,0,P|436:152|448:120,1,60.000000298023
380,224,60325,2,0,P|388:248|384:256,4,22.5000009700655
292,320,60813,2,0,L|248:304,3,45.0000019401311
256,192,61301,12,0,62764,0:0:0:0:
256,192,63252,12,0,64715,0:0:0:0:
256,192,65203,12,0,66667,0:0:0:0:
256,192,67154,12,0,68618,0:0:0:0:
184,112,69106,6,0,L|148:160,1,45.0000019401311
157,148,69350,2,0,L|197:188,1,45.0000019401311
188,179,69594,2,0,L|248:192,1,45.0000019401311
231,188,69837,2,0,L|224:248,1,45.0000019401311
320,312,70081,1,0,0:0:0:0:
328,192,70325,1,0,0:0:0:0:
208,256,70569,1,0,0:0:0:0:
384,252,70813,2,0,L|448:256,2,45.0000019401311
432,132,71301,6,0,P|416:96|404:92,1,45.0000019401311
392,88,71545,1,0,0:0:0:0:
248,100,71789,2,0,P|252:136|264:144,1,45.0000019401311
272,152,72033,1,0,0:0:0:0:
432,228,72276,2,0,P|416:264|404:268,1,45.0000019401311
376,288,72520,2,0,P|344:260|348:248,4,45.0000019401311
216,324,73252,6,0,B|200:308|200:308|224:280,1,45.0000019401311
316,248,73496,2,0,B|336:232|336:232|316:212,1,45.0000019401311
216,188,73740,2,0,B|200:172|200:172|224:144,1,45.0000019401311
324,120,73984,2,0,B|344:104|344:104|324:84,1,45.0000019401311
220,36,74228,2,0,P|216:32|196:60,5,45.0000019401311
128,192,74959,5,0,0:0:0:0:
220,140,75203,1,0,0:0:0:0:
256,284,75447,1,0,0:0:0:0:
352,208,75691,1,0,0:0:0:0:
256,284,75935,1,0,0:0:0:0:
348,348,76179,1,0,0:0:0:0:
456,312,76423,2,0,B|488:334|514:321|514:321|508:286,1,90.0000038802622
424,160,76911,6,0,B|408:128|408:128|452:112|452:112|448:104|444:88|432:80|432:52,1,120.000000596046
276,120,77398,1,0,0:0:0:0:
408,240,77642,2,0,B|400:192|348:240,1,60.000000298023
280,256,77886,1,0,0:0:0:0:
176,200,78130,2,4,L|252:184,2,60.000000298023
140,60,78618,2,0,B|100:54|72:76,1,60.000000298023
72,208,78862,2,0,P|68:196|36:172,4,30.0000001490115
244,216,79350,1,0,0:0:0:0:
244,216,79472,2,0,B|204:228|212:284,3,60.000000298023
424,196,80081,2,0,L|456:136,5,60.000000298023
376,236,80813,6,0,P|340:172|328:188,1,120.000000596046
248,244,81301,2,0,P|200:212|232:168,1,120.000000596046
332,132,81789,2,0,P|344:128|376:100,4,30.0000001490115
180,132,82276,1,0,0:0:0:0:
172,136,82398,2,0,B|144:152|144:152|160:192,3,60.000000298023
236,240,83008,2,0,B|272:236|272:236|312:216,1,60.000000298023
376,172,83252,2,0,B|398:149|398:149|435:180,1,60.000000298023
472,252,83496,2,0,P|472:272|448:288,4,30.0000001490115
408,208,83862,1,0,0:0:0:0:
352,240,83984,2,0,P|340:244|332:272,4,30.0000001490115
432,148,84350,2,0,B|484:120|484:120|456:64,1,120.000000596046
376,92,84715,5,0,0:0:0:0:
356,168,84959,2,0,B|352:192|292:212|292:212|252:248,1,120.000000596046
168,220,85325,2,0,B|172:216|180:212|180:212|208:208|216:176,2,60.000000298023
156,320,85691,2,0,P|212:356|216:356,1,60.000000298023
288,324,85935,2,0,B|296:308|336:316|336:316|356:292,1,60.000000298023
432,252,86179,2,0,B|428:224|428:224|388:256|336:204,2,120.000000596046
480,152,86911,6,0,L|404:176,1,60.000000298023
344,132,87276,2,0,L|300:184,1,60.000000298023
224,160,87642,2,0,L|188:220,1,60.000000298023
124,208,87886,2,0,L|168:144,1,60.000000298023
232,160,88130,2,0,L|192:220,1,60.000000298023
128,208,88374,2,0,L|120:292,2,60.000000298023
296,104,88862,6,0,B|308:136|308:136|352:152,2,60.000000298023
368,284,89350,2,0,B|348:312|348:312|300:316,2,60.000000298023
152,224,89837,2,0,B|136:200|136:200|160:168,5,60.000000298023
240,68,90813,2,0,L|304:120,1,60.000000298023
464,168,91179,2,0,L|384:184,1,60.000000298023
208,104,91545,2,0,L|268:148,1,60.000000298023
304,196,91789,2,0,L|224:220,1,60.000000298023
180,248,92033,2,0,L|244:288,1,60.000000298023
292,328,92276,2,0,L|212:352,1,60.000000298023
108,312,92520,6,0,L|88:256,1,60.000000298023
288,220,93008,2,0,L|256:164,1,60.000000298023
368,40,93496,2,0,L|404:92,1,60.000000298023
412,232,93984,2,0,L|388:256,3,30.0000001490115
400,344,94715,53,0,0:0:0:0:
328,280,94837,1,0,0:0:0:0:
216,344,95081,1,0,0:0:0:0:
132,280,95203,1,0,0:0:0:0:
216,68,95447,2,0,L|244:80,3,30.0000001490115
232,124,95935,2,0,L|196:104,4,30.0000001490115
340,152,96667,6,0,L|312:200,2,45.0000019401311
464,132,97154,2,0,L|512:96,2,45.0000019401311
316,76,97642,2,0,L|268:100,1,45.0000019401311
272,144,97886,2,0,L|244:184,3,45.0000019401311
208,240,98374,5,0,0:0:0:0:
344,328,98618,2,0,P|360:328|380:292,1,45.0000019401311
376,172,98984,2,0,B|320:184|320:184|296:176|288:168|272:168|256:204,1,135.000005820393
136,304,99594,1,0,0:0:0:0:
16,216,99837,2,0,B|32:180|32:180|28:156|28:156|40:128,2,90.0000038802622
128,304,100569,1,0,0:0:0:0:
264,144,100935,2,0,B|244:124|244:124|216:144|216:144|200:172|184:152|184:152|144:128,1,135.000005820393
296,260,101545,1,0,0:0:0:0:
500,204,101911,2,0,B|496:176|496:176|512:156|560:152|532:124,1,90.0000038802622
480,92,102276,6,0,L|452:56,2,45.0000019401311
404,132,102886,2,0,B|368:128|360:156|296:100|352:56|376:80,1,135.000005820393
288,220,103496,1,0,0:0:0:0:
160,220,103862,2,0,B|128:184|144:164|164:152|164:152|184:136,1,90.0000038802622
240,72,104228,6,0,P|240:64|276:88,2,90.0000004470345
224,120,104715,2,0,B|256:144|260:144|260:144|296:152|296:152|308:156,2,90.0000004470345
196,136,105203,2,0,P|192:132|180:176,2,90.0000004470345
228,172,105691,2,0,L|284:264,2,90.0000004470345
336,120,106179,2,0,L|340:184,2,60.000000298023
264,16,106667,1,0,0:0:0:0:
188,68,106911,1,0,0:0:0:0:
96,108,107154,2,0,B|80:108|72:108|44:148,2,60.000000298023
140,140,107642,2,0,B|144:136|148:136|152:136|160:136|180:188,1,60.000000298023
228,136,107886,2,0,B|232:140|236:140|240:144|260:93,1,60.000000298023
184,16,108130,6,0,B|192:28|208:36|224:48|248:52|276:44|300:32|300:32|420:40|508:92|508:108|508:124|500:156|488:188|472:208|472:208|472:212|424:276|388:284|356:260|336:228|336:228|368:196|388:156|344:116|344:116|268:160|296:212|256:248|256:312|240:164|236:152|236:152|200:200|148:228|148:228|80:164|0:228,1,1260.00005432367
0,112,112033,6,0,B|20:112|32:88|32:88|76:108|92:72|112:48|112:48|116:44|136:36|144:32|164:40|176:44|252:116|248:168|120:136|120:136|88:228|20:232|-32:176|-32:176|12:248|8:260|8:288|16:308|76:276|76:276|200:296,1,900.000004470345
320,300,115935,6,0,B|352:280|344:264|344:264|336:224|392:184|312:180|280:140|320:60|424:16|488:92|500:144|500:144|440:240|472:288|512:328|512:328|508:332|496:352|440:364|408:332|408:320|400:308|412:136,1,900.000004470345
384,40,119837,6,0,B|380:24|376:16|376:8|352:-16|352:-16|300:4|312:32|312:32|208:16|184:32|212:64|240:72|272:72|360:116|360:116|296:128|172:128|172:128|232:164|232:164|200:208|200:208|364:288,1,900.000004470345
176,88,129594,5,0,0:0:0:0:
280,332,130081,5,0,0:0:0:0:
488,132,130569,5,0,0:0:0:0:
400,128,131057,6,0,P|408:104|376:96,4,45.0000019401311
256,104,132033,1,0,0:0:0:0:
168,280,132520,1,0,0:0:0:0:
116,108,133008,1,0,0:0:0:0:
160,168,133252,2,0,L|244:124,1,90.0000038802622
404,52,133984,5,0,0:0:0:0:
276,180,134472,1,0,0:0:0:0:
452,208,134959,1,0,0:0:0:0:
440,120,135203,2,0,L|352:184,1,90.0000038802622
432,236,135691,6,0,B|448:268|448:268|408:312,1,90.0000038802622
324,288,136179,2,0,L|285:256,2,45.0000019401311
160,336,136667,2,0,L|114:346,2,45.0000019401311
396,232,137154,2,0,L|371:283,2,45.0000019401311
112,112,137642,2,0,L|146:146,2,45.0000019401311
40,296,138130,1,0,0:0:0:0:
164,328,138374,2,0,P|120:336|116:332,7,45.0000019401311
40,296,139350,1,0,0:0:0:0:
