osu file format v14

[General]
AudioFilename: Tokyo Teddy Bear.mp3
AudioLeadIn: 1500
PreviewTime: 46980
Countdown: 0
SampleSet: Normal
StackLeniency: 0.2
Mode: 0
LetterboxInBreaks: 0
WidescreenStoryboard: 1

[Editor]
Bookmarks: 76103
DistanceSpacing: 1.3
BeatDivisor: 4
GridSize: 4
TimelineZoom: 3.299998

[Metadata]
Title:Tokyo Teddy Bear
TitleUnicode:東京テディベア
Artist:Glutamine
ArtistUnicode:ぐるたみん
Creator:Dark Fang
Version:Hard
Source:
Tags:Neru vocaloid kagamine rin Last Note. happy623 Euny Aka pkk EvilElvis Jounzan Irreversible val0108
BeatmapID:1857272
BeatmapSetID:310681

[Difficulty]
HPDrainRate:5
CircleSize:4
OverallDifficulty:6
ApproachRate:7
SliderMultiplier:1.56
SliderTickRate:2

[Events]
//Background and Video events
0,0,"BG.jpg",0,0
//Break Periods
2,19827,28139
//Storyboard Layer 0 (Background)
//Storyboard Layer 1 (Fail)
//Storyboard Layer 2 (Pass)
//Storyboard Layer 3 (Foreground)
//Storyboard Sound Samples

[TimingPoints]
804,294.117647058824,4,2,99,30,1,0
1098,-133.333333333333,4,2,1,35,0,0
10215,-133.333333333333,4,2,1,45,0,0
17274,-100,4,1,1,50,0,0
29039,-100,4,1,1,50,0,0
38303,-133.333333333333,4,1,1,40,0,0
42127,-133.333333333333,4,1,1,40,0,0
43009,-133.333333333333,4,3,1,50,0,0
44186,-111.111111111111,4,3,1,55,0,0
45362,-100,4,3,1,60,0,0
47274,-86.9565217391304,4,2,1,55,0,0
47715,-86.9565217391304,4,1,1,65,0,1
66098,-86.9565217391304,4,3,1,55,0,1
66391,-133.333333333333,4,3,1,55,0,1
66686,-133.333333333333,4,2,1,55,0,0
76098,-133.333333333333,4,1,1,35,0,0
84186,-111.111111111111,4,1,1,45,0,0
84627,-111.111111111111,4,1,1,54,0,0
84921,-111.111111111111,4,1,1,60,0,0
84995,-111.111111111111,4,1,1,5,0,0
85068,-111.111111111111,4,1,1,68,0,0
85142,-111.111111111111,4,1,1,5,0,0
85362,-100,4,1,1,50,0,0
94480,-100,4,2,1,25,0,0
94774,-133.333333333333,4,2,1,50,0,0
94792,-133.333333333333,4,1,1,50,0,0
97127,-133.333333333333,4,1,1,50,0,0
99480,-133.333333333333,4,3,1,50,0,0
100656,-111.111111111111,4,3,1,55,0,0
101833,-100,4,3,1,60,0,0
103009,-133.333333333333,4,3,1,60,0,0
104186,-90.9090909090909,4,1,1,65,0,1
122421,-90.9090909090909,4,3,1,55,0,1
123009,-133.333333333333,4,1,99,55,0,0
137568,-100,4,1,99,55,0,0
140656,-133.333333333333,4,1,99,55,0,0
140803,-100,4,2,1,5,0,0
141833,-100,4,1,1,30,0,0
150804,-200,4,1,1,30,0,0
151171,-200,4,1,1,5,0,0
151245,-133.333333333333,4,2,1,40,0,0
158303,-100,4,1,1,40,0,0
160215,-66.6666666666667,4,1,1,40,0,0
160362,-66.6666666666667,4,1,1,5,0,0
160436,-90.9090909090909,4,1,1,40,0,0
160583,-90.9090909090909,4,1,1,5,0,0
160656,-125,4,1,1,40,0,0
161024,-125,4,1,1,5,0,0
161098,-50,4,1,1,60,0,1
161245,-50,4,1,1,5,0,1
161392,-83.3333333333333,4,1,1,70,0,1
179333,-133.333333333333,4,1,1,70,0,0
179627,-133.333333333333,4,1,1,70,0,1
179701,-133.333333333333,4,1,1,70,0,0

[Colours]
Combo1 : 166,111,129
Combo2 : 140,98,64
Combo3 : 155,72,66

[HitObjects]
136,200,804,5,2,0:0:0:0:
136,200,1098,2,0,L|113:314,2,117.000004463196,4|2|4,3:0|0:0|3:0,0:0:0:0:
200,140,1833,2,0,P|258:149|312:129,1,117.000004463196,2|0,0:0|0:0,0:0:0:0:
355,66,2274,2,0,P|386:113|376:169,2,117.000004463196,4|2|4,3:0|0:0|3:0,0:0:0:0:
279,58,3009,1,0,0:0:0:0:
223,110,3156,6,0,L|186:237,1,117.000004463196,2|4,0:0|3:0,0:0:0:0:
217,294,3598,2,0,P|160:294|119:253,1,117.000004463196,2|0,0:0|0:0,0:0:0:0:
124,178,4039,1,4,3:0:0:0:
52,148,4186,2,0,P|110:145|159:113,1,117.000004463196,2|0,0:0|0:0,0:0:0:0:
211,58,4627,2,0,L|269:58,1,58.500002231598,4|0,3:0|0:0,0:0:0:0:
331,101,4921,2,0,L|389:101,2,58.500002231598,2|0|4,0:0|0:0|3:0,0:0:0:0:
331,101,5509,6,0,P|328:158|289:199,1,117.000004463196,2|4,0:0|3:0,0:0:0:0:
214,177,5951,1,0,0:0:0:0:
142,151,6098,2,0,L|172:277,1,117.000004463196,2|4,0:0|3:0,0:0:0:0:
205,331,6539,2,0,P|258:352|314:338,1,117.000004463196,2|0,0:0|0:0,0:0:0:0:
392,332,6980,1,4,3:0:0:0:
392,332,7127,1,2,0:0:0:0:
348,269,7274,2,0,L|320:155,1,117.000004463196,0|4,0:0|3:0,0:0:0:0:
290,85,7715,1,0,0:0:0:0:
244,144,7862,6,0,P|191:167|138:146,1,117.000004463196,2|4,0:0|3:0,0:0:0:0:
85,91,8304,2,0,P|137:68|190:89,1,117.000004463196,2|0,0:0|0:0,0:0:0:0:
263,69,8745,1,4,3:0:0:0:
327,109,8892,2,0,L|318:225,1,117.000004463196,2|0,0:0|0:0,0:0:0:0:
261,275,9333,2,0,L|256:333,1,58.500002231598,4|0,3:0|0:0,0:0:0:0:
197,181,9627,2,0,L|193:240,2,58.500002231598,2|0|4,0:0|0:0|3:0,0:0:0:0:
196,180,10215,6,0,P|227:133|218:76,1,117.000004463196,4|4,0:0|3:0,0:0:0:0:
154,117,10656,1,0,0:0:0:0:
120,185,10804,2,0,L|124:302,1,117.000004463196,2|4,0:0|3:0,0:0:0:0:
87,369,11245,2,0,P|135:336|192:340,1,117.000004463196,2|0,0:0|0:0,0:0:0:0:
263,364,11686,2,0,L|326:369,1,58.500002231598,4|0,3:0|0:0,0:0:0:0:
437,314,11980,2,0,L|379:319,1,58.500002231598,2|0,0:0|0:0,0:0:0:0:
248,288,12274,2,0,L|307:293,1,58.500002231598,4|0,3:0|0:0,0:0:0:0:
422,238,12568,6,0,B|363:243|363:243|317:207,1,117.000004463196,2|4,0:0|3:0,0:0:0:0:
364,147,13009,2,0,P|306:132|248:172,1,117.000004463196,2|0,0:0|0:0,0:0:0:0:
243,232,13451,1,4,3:0:0:0:
186,181,13598,2,0,L|171:58,1,117.000004463196,2|0,0:0|0:0,0:0:0:0:
96,57,14039,2,0,L|88:-1,1,58.500002231598,4|0,3:0|0:0,0:0:0:0:
32,166,14333,2,0,L|40:108,1,58.500002231598,2|0,0:0|0:0,0:0:0:0:
101,268,14627,2,0,L|94:210,1,58.500002231598,4|0,3:0|0:0,0:0:0:0:
31,298,14921,6,0,P|68:340|125:341,1,117.000004463196,2|4,0:0|3:0,0:0:0:0:
176,284,15362,1,0,0:0:0:0:
249,301,15509,2,0,L|365:312,1,117.000004463196,2|4,0:0|3:0,0:0:0:0:
511,235,15951,2,0,P|456:253|399:244,1,117.000004463196,2|0,0:0|0:0,0:0:0:0:
366,175,16392,2,0,L|373:117,1,58.500002231598,4|0,3:0|0:0,0:0:0:0:
323,238,16686,1,4,1:0:0:0:
323,238,16980,5,2,0:0:0:0:
323,237,17274,2,0,L|170:272,1,156
107,350,17715,2,0,P|68:286|88:212,1,156
181,170,18156,1,0,0:0:0:0:
273,128,18304,6,0,B|352:128|352:128|424:156,1,156
466,247,18745,1,0,0:0:0:0:
392,316,18892,1,0,0:0:0:0:
392,316,18965,1,0,0:0:0:0:
392,316,19039,2,0,L|314:288,1,78
318,289,19627,5,4,2:0:0:0:
111,154,29039,5,4,2:0:0:0:
111,154,29333,6,0,L|187:76,1,78,8|0,0:0|0:0,0:0:0:0:
263,116,29627,2,0,P|339:132|412:107,1,156,4|0,0:0|0:0,0:0:0:0:
502,61,30068,2,0,L|487:236,1,156,4|4,0:0|0:0,0:0:0:0:
426,296,30509,2,0,P|461:315|499:316,1,78,8|0,0:0|0:0,0:0:0:0:
386,203,30804,2,0,P|353:223|332:256,1,78,4|4,0:0|0:0,0:0:0:0:
488,216,31098,1,8,0:0:0:0:
488,216,31392,6,0,L|323:195,1,156,4|8,0:0|0:0,0:0:0:0:
254,260,31833,2,0,P|228:189|261:120,1,156,4|0,0:0|0:0,0:0:0:0:
360,100,32274,1,8,0:0:0:0:
333,196,32421,2,0,B|360:228|360:288|336:320|336:320|343:358,1,156,4|4,0:0|0:0,0:0:0:0:
240,360,32862,2,0,L|132:347,1,78,8|0,0:0|0:0,0:0:0:0:
0,305,33156,2,0,L|77:296,1,78,4|4,0:0|0:0,0:0:0:0:
155,103,33451,2,0,P|186:173|168:248,1,156,8|4,0:0|2:0,0:0:0:0:
168,247,34039,6,0,L|273:238,1,78,8|0,0:0|0:0,0:0:0:0:
344,259,34333,2,0,P|370:186|349:112,1,156,4|8,0:0|0:0,0:0:0:0:
253,144,34774,2,0,P|177:156|109:119,1,156,4|4,0:0|0:0,0:0:0:0:
36,190,35215,2,8,L|36:280,1,78,8|12,0:0|0:0,0:0:0:0:
106,339,35509,2,0,P|142:355|181:354,1,78,4|4,0:0|0:0,0:0:0:0:
260,291,35804,2,0,P|296:275|335:276,1,78,8|0,0:0|0:0,0:0:0:0:
406,345,36098,6,0,P|432:274|403:203,1,156,4|8,2:0|0:0,0:0:0:0:
310,160,36539,2,0,L|132:168,1,156,4|0,2:0|0:0,0:0:0:0:
74,230,36980,1,0,0:0:0:0:
168,268,37127,2,0,L|323:260,1,156,4|4,2:0|0:0,0:0:0:0:
392,186,37568,2,0,P|396:147|383:111,1,78,8|4,0:0|0:0,0:0:0:0:
232,345,37862,2,0,L|309:341,1,78,4|4,0:0|0:0,0:0:0:0:
309,340,38304,6,0,L|330:225,1,117.000004463196,4|0,2:0|0:0,0:0:0:0:
376,164,38745,2,0,P|393:187|405:214,1,58.500002231598,4|0,0:0|0:0,0:0:0:0:
255,233,39039,2,0,P|195:238|133:211,1,117.000004463196,8|4,0:0|0:0,0:0:0:0:
99,154,39480,2,0,P|68:203|77:260,2,117.000004463196,4|0|4,0:0|0:0|0:0,0:0:0:0:
218,90,40215,6,0,L|338:85,1,117.000004463196,8|4,0:0|0:0,0:0:0:0:
410,95,40656,2,0,P|445:140|451:197,1,117.000004463196,4|0,0:0|0:0,0:0:0:0:
446,274,41098,2,0,L|467:344,1,58.500002231598,4|0,0:0|0:0,0:0:0:0:
382,230,41392,2,0,P|324:225|269:244,1,117.000004463196,8|0,0:0|0:0,0:0:0:0:
206,287,41833,2,0,B|148:304|148:304|91:296,2,117.000004463196,4|4|0,2:0|0:0|0:0,0:0:0:0:
269,243,42568,2,0,L|253:160,2,58.500002231598,8|4|4,0:0|0:0|0:0,0:0:0:0:
281,318,43009,6,0,P|338:316|387:285,1,117.000004463196,4|0,0:0|0:0,0:0:0:0:
393,208,43451,2,0,L|405:129,1,58.500002231598,8|4,0:0|0:0,0:0:0:0:
342,102,43745,2,0,L|354:23,2,58.500002231598,4|4|8,0:0|0:0|0:0,0:0:0:0:
