osu file format v14

[General]
AudioFilename: Bloody Scarlet Nightmare.mp3
AudioLeadIn: 0
PreviewTime: 123705
Countdown: 0
SampleSet: Normal
StackLeniency: 0.7
Mode: 0
LetterboxInBreaks: 1
WidescreenStoryboard: 0

[Editor]
Bookmarks: 1231,22261,42828,53189,63086,72983,84117,94014,103911,123705,143499
DistanceSpacing: 1.1
BeatDivisor: 4
GridSize: 4
TimelineZoom: 1

[Metadata]
Title:Bloody Scarlet Nightmare
TitleUnicode:Bloody Scarlet Nightmare
Artist:Glunwald
ArtistUnicode:Glunwald
Creator:RikiH_
Version:Ultimate Nightmare
Source:BMS
Tags:touhou day breaker remix lama poluna ximo xim regraz
BeatmapID:765740
BeatmapSetID:346964

[Difficulty]
HPDrainRate:8
CircleSize:4
OverallDifficulty:8.8
ApproachRate:9.6
SliderMultiplier:1.8
SliderTickRate:1

[Events]
//Background and Video events
0,0,"daffaqcreepybghelp.jpg",0,0
//Break Periods
//Storyboard Layer 0 (Background)
//Storyboard Layer 1 (Fail)
//Storyboard Layer 2 (Pass)
//Storyboard Layer 3 (Foreground)
//Storyboard Sound Samples

[TimingPoints]
1231,309.278350515464,4,1,0,30,1,0
2004,-133.333333333333,4,2,0,50,0,0
2468,-100,4,2,0,50,0,0
22261,-80,4,2,0,50,0,1
42055,-100,4,2,0,50,0,0
42828,-133.333333333333,4,2,0,30,0,0
53189,-100,4,2,0,50,0,0
65560,-66.6666666666667,4,2,0,50,0,0
68035,-100,4,2,0,50,0,0
70509,-66.6666666666667,4,2,0,50,0,0
72983,-100,4,2,0,50,0,0
75457,-66.6666666666667,4,2,0,50,0,0
77932,-100,4,2,0,50,0,0
84117,-200,4,2,0,50,0,0
86127,-200,4,2,0,5,0,0
86282,-200,4,2,0,50,0,0
88602,-200,4,2,0,5,0,0
88756,-200,4,2,0,50,0,0
91076,-200,4,2,0,5,0,0
91231,-200,4,2,0,50,0,0
92622,-200,4,2,0,5,0,0
92777,-200,4,2,0,50,0,0
93550,-200,4,2,0,5,0,0
93705,-200,4,2,0,50,0,0
94014,-133.333333333333,4,2,0,50,0,0
103911,-100,4,2,0,50,0,0
123705,-80,4,2,0,50,0,1
133524,-80,4,2,0,50,0,0
133602,-66.6666666666667,4,2,0,50,0,1
143499,-100,4,2,0,50,0,0

[Colours]
Combo1 : 0,102,51
Combo2 : 224,31,128
Combo3 : 0,96,191
Combo4 : 104,0,208

[HitObjects]
131,38,2004,6,0,P|94:43|61:55,2,67.5000025749208
139,44,2468,6,0,L|148:150,1,90
210,196,2777,1,0,0:0:0:0:
299,182,2932,1,0,0:0:0:0:
102,108,3086,2,0,L|146:204,1,90
220,226,3395,1,0,0:0:0:0:
299,182,3550,1,0,0:0:0:0:
299,91,3705,6,0,B|309:74|309:74|346:65|371:78|402:86|432:77|432:77|432:84|436:95|447:97|453:109,1,180
478,192,4169,1,0,0:0:0:0:
495,21,4323,1,0,0:0:0:0:
464,208,4478,5,0,0:0:0:0:
448,230,4633,1,0,0:0:0:0:
432,251,4787,1,0,0:0:0:0:
414,271,4942,6,0,P|375:293|306:279,1,90
262,233,5251,1,0,0:0:0:0:
239,145,5406,1,0,0:0:0:0:
328,342,5560,2,0,P|283:341|230:294,1,90
215,233,5869,1,0,0:0:0:0:
239,145,6024,1,0,0:0:0:0:
146,288,6179,5,0,0:0:0:0:
293,210,6334,1,0,0:0:0:0:
317,198,6411,1,0,0:0:0:0:
341,186,6488,1,0,0:0:0:0:
139,208,6643,1,0,0:0:0:0:
364,176,6798,1,0,0:0:0:0:
78,255,6952,6,0,P|63:211|74:166,2,90
149,310,7416,6,0,L|247:302,1,90
328,291,7725,1,0,0:0:0:0:
401,126,7880,1,0,0:0:0:0:
505,272,8035,1,0,0:0:0:0:
310,275,8189,5,0,0:0:0:0:
288,258,8344,1,0,0:0:0:0:
266,241,8499,1,0,0:0:0:0:
244,224,8653,6,0,L|174:163,1,90
108,105,8962,1,0,0:0:0:0:
167,275,9117,1,0,0:0:0:0:
285,138,9272,1,0,0:0:0:0:
86,117,9426,6,0,P|45:133|16:169,2,90
174,135,9890,6,0,L|276:127,1,90
349,158,10200,2,0,L|451:150,1,90
139,172,10509,2,0,L|241:164,1,90
314,195,10819,2,0,L|416:187,1,90
108,211,11127,6,0,B|85:213|85:213|70:243|75:276|99:299|106:318|106:318|98:342|98:342|120:368|167:371|189:352|195:333|195:333|209:347|209:347|216:339|216:339|231:346|247:344|275:332,1,360
229,252,11901,6,0,P|205:214|209:153,2,90
317,266,12365,5,0,0:0:0:0:
353,292,12442,1,0,0:0:0:0:
397,296,12519,1,0,0:0:0:0:
437,276,12596,1,0,0:0:0:0:
455,234,12674,1,0,0:0:0:0:
453,220,12751,1,0,0:0:0:0:
452,206,12828,1,0,0:0:0:0:
451,192,12906,1,0,0:0:0:0:
450,178,12983,1,0,0:0:0:0:
474,130,13060,1,0,0:0:0:0:
486,76,13138,1,0,0:0:0:0:
456,31,13215,1,0,0:0:0:0:
402,25,13292,1,0,0:0:0:0:
384,45,13370,1,0,0:0:0:0:
362,60,13447,1,0,0:0:0:0:
336,69,13524,1,0,0:0:0:0:
308,67,13602,5,0,0:0:0:0:
281,43,13679,1,0,0:0:0:0:
246,32,13756,1,0,0:0:0:0:
209,35,13834,1,0,0:0:0:0:
180,56,13911,1,0,0:0:0:0:
168,90,13988,1,0,0:0:0:0:
177,125,14066,1,0,0:0:0:0:
202,150,14143,1,0,0:0:0:0:
259,160,14220,1,0,0:0:0:0:
314,178,14298,1,0,0:0:0:0:
346,226,14375,1,0,0:0:0:0:
339,283,14452,1,0,0:0:0:0:
303,328,14529,1,0,0:0:0:0:
244,338,14607,1,0,0:0:0:0:
190,314,14684,1,0,0:0:0:0:
165,261,14761,1,0,0:0:0:0:
172,202,14839,5,0,0:0:0:0:
184,178,14916,1,0,0:0:0:0:
190,151,14993,1,0,0:0:0:0:
192,123,15071,1,0,0:0:0:0:
179,99,15148,1,0,0:0:0:0:
171,94,15225,1,0,0:0:0:0:
163,89,15303,1,0,0:0:0:0:
155,84,15380,1,0,0:0:0:0:
147,79,15457,1,0,0:0:0:0:
102,89,15535,1,0,0:0:0:0:
71,122,15612,1,0,0:0:0:0:
55,164,15689,1,0,0:0:0:0:
58,209,15767,1,0,0:0:0:0:
92,255,15844,1,0,0:0:0:0:
143,281,15921,1,0,0:0:0:0:
201,276,15999,1,0,0:0:0:0:
246,240,16076,5,0,0:0:0:0:
256,210,16153,1,0,0:0:0:0:
267,180,16231,1,0,0:0:0:0:
278,150,16308,1,0,0:0:0:0:
289,120,16385,1,0,0:0:0:0:
306,106,16462,1,0,0:0:0:0:
327,98,16540,1,0,0:0:0:0:
349,97,16617,1,0,0:0:0:0:
370,102,16694,1,0,0:0:0:0:
405,142,16772,1,0,0:0:0:0:
414,194,16849,1,0,0:0:0:0:
400,246,16926,1,0,0:0:0:0:
359,282,17004,1,0,0:0:0:0:
315,292,17081,1,0,0:0:0:0:
272,276,17158,1,0,0:0:0:0:
246,240,17236,1,0,0:0:0:0:
208,216,17313,6,0,P|164:186|118:184,1,90
327,98,17622,2,0,P|274:116|231:112,1,90
436,209,17932,2,0,L|332:197,1,90
150,290,18241,2,0,L|239:300,1,90
455,205,18550,6,0,P|473:153|468:114,1,90
250,39,18859,2,0,P|233:80|235:124,1,90
309,349,19169,2,0,P|327:297|322:258,1,90
104,183,19478,2,0,P|87:224|89:268,1,90
315,244,19787,5,0,0:0:0:0:
398,277,19942,1,0,0:0:0:0:
441,268,20019,1,0,0:0:0:0:
485,259,20096,1,0,0:0:0:0:
332,316,20251,1,0,0:0:0:0:
249,280,20406,1,0,0:0:0:0:
263,191,20560,1,0,0:0:0:0:
285,175,20638,1,0,0:0:0:0:
311,170,20715,1,0,0:0:0:0:
337,173,20792,1,0,0:0:0:0:
364,171,20870,1,0,0:0:0:0:
389,161,20947,1,0,0:0:0:0:
407,141,21024,5,0,0:0:0:0:
418,116,21102,1,0,0:0:0:0:
418,89,21179,1,0,0:0:0:0:
409,63,21256,1,0,0:0:0:0:
387,45,21334,1,0,0:0:0:0:
360,38,21411,1,0,0:0:0:0:
333,40,21488,1,0,0:0:0:0:
308,51,21566,2,0,P|284:61|254:64,1,45
179,36,21798,1,0,0:0:0:0:
95,69,21952,1,0,0:0:0:0:
99,83,22029,2,0,L|96:132,1,45
85,240,22261,5,0,0:0:0:0:
167,317,22416,1,0,0:0:0:0:
222,324,22493,1,0,0:0:0:0:
278,331,22571,2,0,B|310:325|310:325|354:335|354:335|391:325,1,112.5
471,250,22880,2,0,L|474:190,1,56.25
362,216,23035,2,0,L|359:156,1,56.25
254,253,23189,2,0,L|257:193,1,56.25
145,219,23344,2,0,L|142:159,1,56.25
42,255,23499,6,0,B|29:265|29:265|46:297|27:316|34:344|34:344|56:348,1,112.5
69,182,23808,2,0,B|63:157|63:157|75:131|74:104|64:93|64:93|97:76,1,112.5
183,36,24117,5,0,0:0:0:0:
238,32,24194,1,0,0:0:0:0:
287,60,24272,1,0,0:0:0:0:
307,112,24349,1,0,0:0:0:0:
279,173,24426,5,0,0:0:0:0:
266,239,24504,1,0,0:0:0:0:
292,300,24581,1,0,0:0:0:0:
346,339,24658,1,0,0:0:0:0:
414,336,24736,6,0,B|433:332|433:332|458:298|451:256|451:256|451:259|466:275,1,112.5
477,155,25045,1,0,0:0:0:0:
466,111,25122,1,0,0:0:0:0:
455,66,25200,1,0,0:0:0:0:
445,22,25277,1,0,0:0:0:0:
414,55,25354,2,0,B|357:65|357:65|321:41|321:41|291:52,1,112.5
231,89,25663,2,0,B|197:97|197:97|170:78|140:74|140:74|161:63,1,112.5
137,156,25973,5,0,0:0:0:0:
153,170,26050,1,0,0:0:0:0:
165,188,26127,1,0,0:0:0:0:
170,210,26205,1,0,0:0:0:0:
170,232,26282,1,0,0:0:0:0:
165,254,26359,1,0,0:0:0:0:
156,274,26437,1,0,0:0:0:0:
142,291,26514,1,0,0:0:0:0:
122,302,26591,5,0,0:0:0:0:
137,344,26669,1,0,0:0:0:0:
174,368,26746,1,0,0:0:0:0:
218,370,26823,1,0,0:0:0:0:
256,346,26901,5,0,0:0:0:0:
274,281,26978,1,0,0:0:0:0:
292,216,27055,1,0,0:0:0:0:
311,150,27133,1,0,0:0:0:0:
328,85,27210,6,0,B|337:56|337:56|347:72|347:72|373:69|373:69|397:88|419:89|439:82|463:63,1,168.75
483,117,27519,2,0,L|488:176,1,56.25
417,230,27674,2,0,L|401:287,1,56.25
321,325,27829,5,0,0:0:0:0:
294,335,27906,1,0,0:0:0:0:
284,308,27983,1,0,0:0:0:0:
310,298,28061,1,0,0:0:0:0:
294,335,28138,5,0,0:0:0:0:
261,357,28215,1,0,0:0:0:0:
221,360,28292,1,0,0:0:0:0:
188,337,28370,1,0,0:0:0:0:
177,299,28447,5,0,0:0:0:0:
123,314,28524,1,0,0:0:0:0:
68,297,28602,1,0,0:0:0:0:
34,252,28679,1,0,0:0:0:0:
27,196,28756,1,0,0:0:0:0:
139,204,28911,1,0,0:0:0:0:
190,180,28988,1,0,0:0:0:0:
225,135,29066,2,0,B|242:106|246:73|235:48|235:48|229:59|229:78,1,112.5
315,141,29375,2,0,P|337:151|373:158,1,56.25
418,54,29529,2,0,P|389:60|366:77,1,56.25
312,226,29684,5,0,0:0:0:0:
320,258,29761,1,0,0:0:0:0:
339,285,29839,1,0,0:0:0:0:
368,301,29916,1,0,0:0:0:0:
401,301,29993,2,0,P|423:294|458:297,1,56.25
483,226,30148,5,0,0:0:0:0:
478,209,30225,1,0,0:0:0:0:
473,192,30303,5,0,0:0:0:0:
434,151,30380,1,0,0:0:0:0:
379,138,30457,1,0,0:0:0:0:
325,157,30535,1,0,0:0:0:0:
282,193,30612,1,0,0:0:0:0:
227,206,30689,1,0,0:0:0:0:
172,189,30767,1,0,0:0:0:0:
132,149,30844,1,0,0:0:0:0:
122,93,30921,5,0,0:0:0:0:
127,83,30999,1,0,0:0:0:0:
133,73,31076,1,0,0:0:0:0:
139,63,31153,1,0,0:0:0:0:
145,53,31231,1,0,0:0:0:0:
185,34,31308,1,0,0:0:0:0:
229,34,31385,1,0,0:0:0:0:
269,52,31462,1,0,0:0:0:0:
295,89,31540,5,0,0:0:0:0:
304,144,31617,1,0,0:0:0:0:
282,195,31694,1,0,0:0:0:0:
260,247,31772,1,0,0:0:0:0:
271,301,31849,2,0,L|274:333,7,28.125
256,351,32158,6,0,B|235:365|235:365|218:354|192:348|161:358|139:357|139:357|166:341|169:324,1,168.75
185,269,32468,2,0,P|189:240|185:202,1,56.25
107,172,32622,2,0,P|103:201|107:239,1,56.25
210,182,32777,5,0,0:0:0:0:
259,136,32854,1,0,0:0:0:0:
326,124,32932,1,0,0:0:0:0:
412,195,33086,2,0,L|442:326,1,112.5
490,116,33395,6,0,B|477:99|477:99|454:107|431:110|406:102|406:102|408:116|390:127,1,112.5
349,19,33705,2,0,B|362:36|362:36|385:28|408:25|433:33|433:33|431:19|449:8,1,112.5
330,102,34014,5,0,0:0:0:0:
287,65,34091,1,0,0:0:0:0:
232,48,34169,1,0,0:0:0:0:
176,49,34246,1,0,0:0:0:0:
127,76,34323,5,0,0:0:0:0:
97,137,34401,1,0,0:0:0:0:
101,204,34478,1,0,0:0:0:0:
134,262,34555,1,0,0:0:0:0:
196,289,34633,6,0,B|219:294|219:294|238:284|261:284|288:299|288:299|268:308,1,112.5
146,353,34942,1,0,0:0:0:0:
101,358,35019,1,0,0:0:0:0:
60,338,35096,1,0,0:0:0:0:
39,297,35174,1,0,0:0:0:0:
46,252,35251,2,0,B|36:231|38:209|38:209|34:191|34:191|41:160|41:160|43:163|51:162|58:151,1,112.5
35,66,35560,2,0,B|19:54|19:54|40:61|60:61|94:51|109:26,1,112.5
186,71,35870,5,0,0:0:0:0:
206,80,35947,1,0,0:0:0:0:
227,86,36024,1,0,0:0:0:0:
249,87,36102,1,0,0:0:0:0:
271,85,36179,1,0,0:0:0:0:
292,79,36256,1,0,0:0:0:0:
313,70,36334,1,0,0:0:0:0:
331,57,36411,1,0,0:0:0:0:
346,41,36488,5,0,0:0:0:0:
389,28,36566,1,0,0:0:0:0:
433,32,36643,1,0,0:0:0:0:
470,57,36720,1,0,0:0:0:0:
488,98,36798,5,0,0:0:0:0:
472,163,36875,1,0,0:0:0:0:
427,213,36952,1,0,0:0:0:0:
366,242,37029,1,0,0:0:0:0:
297,241,37107,6,0,B|256:224|230:221|230:221|196:230|169:216|169:216|174:208|206:207,1,168.75
224,259,37416,2,0,P|232:282|229:324,1,56.25
150,353,37571,2,0,L|90:357,1,56.25
31,292,37725,5,0,0:0:0:0:
32,286,37803,1,0,0:0:0:0:
33,280,37880,1,0,0:0:0:0:
35,274,37957,1,0,0:0:0:0:
64,247,38035,5,0,0:0:0:0:
93,220,38112,1,0,0:0:0:0:
106,183,38189,1,0,0:0:0:0:
105,143,38267,1,0,0:0:0:0:
88,107,38344,5,0,0:0:0:0:
120,61,38421,1,0,0:0:0:0:
173,41,38499,1,0,0:0:0:0:
228,42,38576,1,0,0:0:0:0:
275,71,38653,1,0,0:0:0:0:
382,36,38808,1,0,0:0:0:0:
434,56,38885,1,0,0:0:0:0:
459,105,38962,2,0,L|462:163,1,56.25
364,156,39117,2,0,L|361:214,1,56.25
262,204,39272,2,0,L|265:262,1,56.25
167,255,39427,2,0,L|164:313,1,56.25
71,301,39581,6,0,P|37:248|159:130,1,225
228,130,40045,2,0,B|286:119|286:119|390:170|390:170|457:152,1,225
37,38,40509,5,0,0:0:0:0:
256,192,40586,12,0,42055,0:0:0:0:
470,101,42828,6,0,L|466:30,2,67.5000025749208
447,179,43292,6,0,P|416:209|373:221,1,67.5000025749208
367,140,43602,2,0,P|325:150|281:139,1,67.5000025749208
263,265,43911,2,0,P|294:250|317:226,1,67.5000025749208
237,187,44221,2,0,P|195:197|151:186,1,67.5000025749208
113,137,44529,5,0,0:0:0:0:
142,61,44684,1,0,0:0:0:0:
50,181,44839,1,0,0:0:0:0:
188,124,44993,1,0,0:0:0:0:
40,106,45148,1,0,0:0:0:0:
161,195,45303,6,0,P|205:199|241:178,2,67.5000025749208
97,245,45767,6,0,P|105:285|140:323,1,67.5000025749208
193,272,46076,2,0,P|219:302|269:318,1,67.5000025749208
282,242,46385,2,0,P|320:255|371:243,1,67.5000025749208
352,172,46694,2,0,P|391:164|430:129,1,67.5000025749208
396,69,47004,5,0,0:0:0:0:
322,35,47158,1,0,0:0:0:0:
315,37,47236,1,0,0:0:0:0:
308,39,47313,1,0,0:0:0:0:
463,29,47468,1,0,0:0:0:0:
398,148,47622,1,0,0:0:0:0:
469,263,47777,6,0,L|468:339,2,67.5000025749208
398,148,48241,6,0,P|362:138|321:140,1,67.5000025749208
264,182,48550,2,0,L|188:188,1,67.5000025749208
121,157,48859,1,0,0:0:0:0:
156,83,49014,6,0,P|169:50|172:11,2,67.5000025749208
121,157,49478,6,0,L|127:240,1,67.5000025749208
182,282,49787,2,0,P|224:294|258:291,1,67.5000025749208
319,256,50096,1,0,0:0:0:0:
394,286,50251,6,0,L|468:283,2,67.5000025749208
319,256,50715,5,0,0:0:0:0:
294,178,50870,1,0,0:0:0:0:
233,124,51024,1,0,0:0:0:0:
152,113,51179,1,0,0:0:0:0:
341,252,51334,5,0,0:0:0:0:
310,166,51488,1,0,0:0:0:0:
238,105,51643,1,0,0:0:0:0:
147,93,51798,1,0,0:0:0:0:
367,246,51952,6,0,B|401:290|390:345|390:345|343:359|318:342|318:342|298:354|298:354|277:351|277:351|261:364|229:356,1,270.000010299683
161,319,52725,6,0,P|118:313|73:326,2,67.5000025749208
233,273,53189,5,0,0:0:0:0:
254,256,53267,1,0,0:0:0:0:
269,234,53344,1,0,0:0:0:0:
277,208,53421,1,0,0:0:0:0:
278,180,53499,1,0,0:0:0:0:
271,153,53576,1,0,0:0:0:0:
258,129,53653,1,0,0:0:0:0:
237,111,53731,1,0,0:0:0:0:
210,104,53808,1,0,0:0:0:0:
169,123,53885,1,0,0:0:0:0:
157,166,53962,1,0,0:0:0:0:
168,209,54040,1,0,0:0:0:0:
195,244,54117,1,0,0:0:0:0:
232,268,54194,1,0,0:0:0:0:
276,278,54272,1,0,0:0:0:0:
320,275,54349,1,0,0:0:0:0:
362,261,54426,5,0,0:0:0:0:
370,244,54504,1,0,0:0:0:0:
378,228,54581,1,0,0:0:0:0:
386,212,54658,1,0,0:0:0:0:
394,195,54736,1,0,0:0:0:0:
402,179,54813,1,0,0:0:0:0:
410,163,54890,1,0,0:0:0:0:
418,146,54968,1,0,0:0:0:0:
426,130,55045,1,0,0:0:0:0:
418,76,55122,1,0,0:0:0:0:
375,41,55200,1,0,0:0:0:0:
321,33,55277,1,0,0:0:0:0:
274,59,55354,1,0,0:0:0:0:
221,71,55432,1,0,0:0:0:0:
169,53,55509,1,0,0:0:0:0:
120,28,55586,1,0,0:0:0:0:
66,33,55663,5,0,0:0:0:0:
46,52,55741,1,0,0:0:0:0:
38,77,55818,1,0,0:0:0:0:
44,103,55895,1,0,0:0:0:0:
60,124,55973,1,0,0:0:0:0:
79,142,56050,1,0,0:0:0:0:
87,167,56127,1,0,0:0:0:0:
87,194,56205,1,0,0:0:0:0:
77,218,56282,1,0,0:0:0:0:
48,258,56359,1,0,0:0:0:0:
56,307,56437,1,0,0:0:0:0:
93,338,56514,1,0,0:0:0:0:
142,341,56591,1,0,0:0:0:0:
185,317,56669,1,0,0:0:0:0:
210,274,56746,1,0,0:0:0:0:
208,224,56823,1,0,0:0:0:0:
181,181,56901,5,0,0:0:0:0:
186,118,56978,1,0,0:0:0:0:
233,76,57055,1,0,0:0:0:0:
296,76,57133,1,0,0:0:0:0:
345,115,57210,1,0,0:0:0:0:
332,240,57365,2,0,P|323:261|320:292,1,45
363,345,57519,2,0,L|409:342,3,45
479,276,57828,2,0,L|433:273,3,45
400,206,58138,5,0,0:0:0:0:
420,188,58215,1,0,0:0:0:0:
435,165,58292,1,0,0:0:0:0:
439,138,58370,1,0,0:0:0:0:
436,111,58447,1,0,0:0:0:0:
429,84,58524,1,0,0:0:0:0:
410,63,58602,1,0,0:0:0:0:
386,49,58679,1,0,0:0:0:0:
342,40,58756,1,0,0:0:0:0:
299,54,58834,1,0,0:0:0:0:
273,90,58911,1,0,0:0:0:0:
264,133,58988,1,0,0:0:0:0:
277,176,59066,1,0,0:0:0:0:
285,220,59143,1,0,0:0:0:0:
273,263,59220,1,0,0:0:0:0:
244,297,59298,1,0,0:0:0:0:
203,315,59375,5,0,0:0:0:0:
185,316,59452,1,0,0:0:0:0:
167,312,59529,1,0,0:0:0:0:
150,304,59607,1,0,0:0:0:0:
136,292,59684,1,0,0:0:0:0:
125,277,59761,1,0,0:0:0:0:
116,261,59839,1,0,0:0:0:0:
112,243,59916,1,0,0:0:0:0:
137,195,59993,1,0,0:0:0:0:
180,161,60071,1,0,0:0:0:0:
231,146,60148,1,0,0:0:0:0:
284,145,60225,1,0,0:0:0:0:
336,159,60303,1,0,0:0:0:0:
383,183,60380,1,0,0:0:0:0:
422,219,60457,1,0,0:0:0:0:
451,264,60535,1,0,0:0:0:0:
461,316,60612,5,0,0:0:0:0:
441,334,60689,1,0,0:0:0:0:
417,346,60767,1,0,0:0:0:0:
390,352,60844,1,0,0:0:0:0:
363,353,60921,1,0,0:0:0:0:
335,350,60999,1,0,0:0:0:0:
311,337,61076,1,0,0:0:0:0:
290,319,61153,1,0,0:0:0:0:
277,294,61231,1,0,0:0:0:0:
299,255,61308,1,0,0:0:0:0:
316,213,61385,1,0,0:0:0:0:
316,168,61462,1,0,0:0:0:0:
304,124,61540,1,0,0:0:0:0:
277,87,61617,1,0,0:0:0:0:
237,65,61694,1,0,0:0:0:0:
192,57,61772,1,0,0:0:0:0:
148,67,61849,6,0,P|126:76|97:79,1,45
146,150,62004,2,0,P|134:171|114:191,1,45
202,211,62158,2,0,P|207:234|204:263,1,45
283,227,62313,2,0,P|301:241|318:265,1,45
363,193,62468,2,0,P|411:201|446:234,1,90
477,309,62777,1,0,0:0:0:0:
434,322,62854,1,0,0:0:0:0:
390,335,62932,1,0,0:0:0:0:
347,348,63009,1,0,0:0:0:0:
305,364,63086,6,0,L|211:355,1,90
132,319,63395,1,0,0:0:0:0:
87,313,63472,1,0,0:0:0:0:
82,358,63549,1,0,0:0:0:0:
127,363,63627,1,0,0:0:0:0:
132,319,63705,1,0,0:0:0:0:
155,281,63782,1,0,0:0:0:0:
195,261,63859,2,0,P|242:251|289:260,1,90
367,291,64169,1,0,0:0:0:0:
367,291,64246,1,0,0:0:0:0:
367,291,64323,6,0,L|468:285,1,90
479,197,64633,1,0,0:0:0:0:
468,153,64710,1,0,0:0:0:0:
442,116,64787,1,0,0:0:0:0:
405,88,64865,1,0,0:0:0:0:
361,76,64942,2,0,P|311:70|260:81,1,90
230,93,65174,2,0,P|177:103|112:82,1,90
102,74,65406,1,0,0:0:0:0:
44,199,65560,6,0,B|56:265|56:265|6:337,1,135.000005149842
199,244,65792,2,0,B|135:221|135:221|98:142,1,135.000005149842
82,358,66024,2,0,L|131:309,1,67.5000025749208
199,244,66179,6,0,B|211:178|211:178|161:106,1,135.000005149842
354,199,66411,2,0,B|290:221|290:221|253:300,1,135.000005149842
237,85,66643,2,0,L|286:134,1,67.5000025749208
354,199,66798,6,0,B|423:221|423:221|493:197,1,135.000005149842
353,346,67029,2,0,B|284:324|284:324|214:348,1,135.000005149842
416,298,67261,2,0,L|483:316,1,67.5000025749208
344,273,67416,5,0,0:0:0:0:
307,256,67493,1,0,0:0:0:0:
285,221,67571,1,0,0:0:0:0:
284,180,67648,1,0,0:0:0:0:
329,130,67725,1,0,0:0:0:0:
331,61,67803,1,0,0:0:0:0:
275,22,67880,1,0,0:0:0:0:
208,34,67957,1,0,0:0:0:0:
177,93,68035,6,0,P|189:141|230:176,1,90
256,249,68344,1,0,0:0:0:0:
248,293,68421,1,0,0:0:0:0:
213,322,68499,1,0,0:0:0:0:
168,329,68576,1,0,0:0:0:0:
127,310,68653,1,0,0:0:0:0:
105,270,68731,1,0,0:0:0:0:
113,226,68808,2,0,P|157:203|200:212,1,90
280,181,69117,1,0,0:0:0:0:
316,155,69194,1,0,0:0:0:0:
361,155,69272,6,0,L|466:162,1,90
486,243,69581,1,0,0:0:0:0:
483,251,69658,1,0,0:0:0:0:
480,259,69736,1,0,0:0:0:0:
478,267,69813,1,0,0:0:0:0:
475,275,69890,2,0,L|458:323,1,45
394,275,70045,2,0,L|355:308,1,45
330,231,70200,2,0,L|279:240,1,45
289,161,70354,2,0,L|241:144,1,45
289,78,70509,6,0,B|352:50|352:50|418:72,1,135.000005149842
223,37,70741,2,0,B|160:65|160:65|94:43,1,135.000005149842
163,147,70973,2,0,L|224:118,1,67.5000025749208
289,161,71127,6,0,B|352:189|352:189|418:167,1,135.000005149842
223,202,71359,2,0,B|160:174|160:174|94:196,1,135.000005149842
285,239,71591,2,0,L|346:267,1,67.5000025749208
220,276,71746,6,0,B|155:293|155:293|86:267,1,135.000005149842
202,357,71978,2,0,B|267:340|267:340|336:366,1,135.000005149842
458,352,72210,2,0,L|396:323,1,67.5000025749208
335,286,72365,1,0,0:0:0:0:
299,267,72442,1,0,0:0:0:0:
263,248,72519,1,0,0:0:0:0:
227,229,72596,1,0,0:0:0:0:
190,209,72674,1,0,0:0:0:0:
190,141,72751,1,0,0:0:0:0:
226,84,72828,1,0,0:0:0:0:
292,67,72906,1,0,0:0:0:0:
350,94,72983,6,0,P|401:109|448:99,1,90
495,172,73292,1,0,0:0:0:0:
492,199,73370,1,0,0:0:0:0:
489,225,73447,1,0,0:0:0:0:
486,251,73524,1,0,0:0:0:0:
483,278,73602,1,0,0:0:0:0:
417,338,73756,1,0,0:0:0:0:
400,329,73834,2,0,L|352:333,1,45
286,274,74066,1,0,0:0:0:0:
334,198,74220,6,0,P|361:160|363:108,1,90
307,48,74529,2,0,P|280:86|278:138,1,90
254,157,74761,1,0,0:0:0:0:
232,186,74839,5,0,0:0:0:0:
202,205,74916,1,0,0:0:0:0:
166,205,74993,1,0,0:0:0:0:
134,187,75071,1,0,0:0:0:0:
115,156,75148,1,0,0:0:0:0:
112,120,75225,1,0,0:0:0:0:
125,86,75303,1,0,0:0:0:0:
150,61,75380,1,0,0:0:0:0:
183,49,75457,6,0,B|248:35|248:35|336:54,1,135.000005149842
460,122,75689,2,0,B|395:136|395:136|307:117,1,135.000005149842
168,147,75921,2,0,L|234:133,1,67.5000025749208
378,214,76076,6,0,B|313:200|313:200|225:219,1,135.000005149842
101,287,76308,2,0,B|166:301|166:301|254:282,1,135.000005149842
393,312,76540,2,0,L|326:298,1,67.5000025749208
473,231,76694,6,0,B|488:166|488:166|473:96,1,135.000005149842
327,29,76926,2,0,B|312:94|312:94|327:164,1,135.000005149842
402,305,77158,2,0,L|335:291,1,67.5000025749208
263,271,77313,5,0,0:0:0:0:
225,285,77390,1,0,0:0:0:0:
184,288,77468,1,0,0:0:0:0:
145,275,77545,1,0,0:0:0:0:
114,249,77622,2,0,P|88:234|49:229,1,67.5000025749208
107,161,77777,2,0,P|140:157|170:141,1,67.5000025749208
222,88,77932,6,0,L|324:84,1,90
383,139,78241,1,0,0:0:0:0:
404,178,78318,1,0,0:0:0:0:
402,222,78395,1,0,0:0:0:0:
380,262,78473,1,0,0:0:0:0:
340,282,78550,1,0,0:0:0:0:
254,252,78705,1,0,0:0:0:0:
259,240,78782,2,0,L|255:184,1,45
248,105,79014,1,0,0:0:0:0:
245,96,79091,1,0,0:0:0:0:
242,87,79169,6,0,L|229:39,1,45
152,34,79323,2,0,L|163:77,1,45
141,187,79478,2,0,L|128:139,1,45
51,134,79632,2,0,L|62:177,1,45
105,266,79787,1,0,0:0:0:0:
105,266,79865,1,0,0:0:0:0:
105,266,79942,1,0,0:0:0:0:
105,266,80019,1,0,0:0:0:0:
105,266,80096,5,0,0:0:0:0:
120,288,80174,1,0,0:0:0:0:
143,301,80251,1,0,0:0:0:0:
169,303,80328,1,0,0:0:0:0:
194,294,80406,5,0,0:0:0:0:
217,266,80483,1,0,0:0:0:0:
244,242,80560,1,0,0:0:0:0:
276,226,80638,1,0,0:0:0:0:
311,220,80715,5,0,0:0:0:0:
353,233,80792,1,0,0:0:0:0:
398,232,80870,1,0,0:0:0:0:
436,208,80947,1,0,0:0:0:0:
451,165,81024,5,0,0:0:0:0:
429,115,81102,1,0,0:0:0:0:
384,84,81179,1,0,0:0:0:0:
330,84,81256,1,0,0:0:0:0:
281,108,81334,2,0,L|254:110,7,22.5
232,101,81643,6,0,P|203:88|179:53,2,60
153,147,81952,2,0,L|88:153,2,60
225,181,82261,1,0,0:0:0:0:
251,205,82365,2,0,L|261:271,1,60
315,321,82571,1,0,0:0:0:0:
351,344,82674,2,0,P|384:347|416:340,1,60
468,290,82880,5,0,0:0:0:0:
468,281,82957,1,0,0:0:0:0:
468,271,83035,1,0,0:0:0:0:
468,262,83112,1,0,0:0:0:0:
468,253,83189,1,0,0:0:0:0:
469,243,83267,1,0,0:0:0:0:
469,234,83344,1,0,0:0:0:0:
470,225,83421,1,0,0:0:0:0:
471,215,83499,1,0,0:0:0:0:
472,206,83576,1,0,0:0:0:0:
473,197,83653,1,0,0:0:0:0:
474,187,83731,1,0,0:0:0:0:
474,178,83808,2,0,L|477:88,1,90
422,39,84117,6,0,P|393:59|297:30,1,135
238,72,84736,2,0,L|153:66,1,67.5
71,111,85200,2,0,B|45:110|22:97|22:97|40:130|43:165|32:197|32:197|45:225|35:260|22:273|22:273|65:254,1,270
122,280,86282,2,0,L|171:278,1,45
231,311,86591,6,0,B|270:309|323:348|323:348|295:308,1,135
292,248,87210,2,0,P|256:237|214:238,1,67.5
313,171,87674,2,0,B|355:179|378:221|371:269|371:269|445:281|478:240|482:188,1,270
459,133,88756,2,0,L|462:87,1,45
408,38,89066,6,0,L|266:42,1,135
220,91,89684,2,0,P|205:113|157:137,1,67.5
88,205,90148,2,0,B|116:235|148:248|194:244|194:244|189:239|189:239|232:229|259:242|278:266|319:268|347:263,1,270
391,226,91231,2,0,L|447:223,1,45
483,169,91540,5,0,0:0:0:0:
461,100,91694,1,0,0:0:0:0:
395,69,91849,1,0,0:0:0:0:
328,96,92004,2,0,P|287:114|157:60,1,180
110,118,92777,2,0,B|88:205|88:205|103:294|103:294|69:254,1,225
23,311,93705,2,0,L|55:348,1,45
125,363,94014,6,0,L|208:370,1,67.5000025749208
265,334,94323,1,0,0:0:0:0:
343,354,94478,1,0,0:0:0:0:
362,349,94555,1,0,0:0:0:0:
382,345,94633,1,0,0:0:0:0:
353,270,94787,1,0,0:0:0:0:
372,265,94864,1,0,0:0:0:0:
392,261,94942,1,0,0:0:0:0:
362,186,95096,1,0,0:0:0:0:
381,181,95173,1,0,0:0:0:0:
401,177,95251,5,0,0:0:0:0:
366,103,95406,1,0,0:0:0:0:
340,71,95483,1,0,0:0:0:0:
304,52,95560,1,0,0:0:0:0:
263,46,95638,1,0,0:0:0:0:
223,55,95715,1,0,0:0:0:0:
193,82,95792,1,0,0:0:0:0:
179,120,95870,5,0,0:0:0:0:
132,330,96024,1,0,0:0:0:0:
109,102,96179,1,0,0:0:0:0:
201,351,96334,1,0,0:0:0:0:
45,138,96488,5,0,0:0:0:0:
78,211,96643,1,0,0:0:0:0:
89,217,96720,1,0,0:0:0:0:
101,221,96798,1,0,0:0:0:0:
114,223,96875,1,0,0:0:0:0:
127,224,96952,1,0,0:0:0:0:
140,223,97029,1,0,0:0:0:0:
153,220,97107,1,0,0:0:0:0:
177,208,97184,1,0,0:0:0:0:
202,200,97261,1,0,0:0:0:0:
228,196,97339,1,0,0:0:0:0:
254,198,97416,1,0,0:0:0:0:
278,208,97493,1,0,0:0:0:0:
297,226,97571,1,0,0:0:0:0:
308,250,97648,1,0,0:0:0:0:
308,276,97725,5,0,0:0:0:0:
327,304,97803,1,0,0:0:0:0:
358,316,97880,1,0,0:0:0:0:
391,316,97957,1,0,0:0:0:0:
420,299,98035,1,0,0:0:0:0:
441,273,98112,1,0,0:0:0:0:
447,239,98189,1,0,0:0:0:0:
438,206,98267,1,0,0:0:0:0:
411,175,98344,5,0,0:0:0:0:
371,165,98421,1,0,0:0:0:0:
330,170,98499,1,0,0:0:0:0:
297,193,98576,1,0,0:0:0:0:
264,226,98653,5,0,0:0:0:0:
221,248,98731,1,0,0:0:0:0:
174,250,98808,1,0,0:0:0:0:
130,231,98885,1,0,0:0:0:0:
100,194,98962,6,0,P|88:158|174:26,1,202.500007724762
246,80,99581,2,0,P|291:98|352:84,1,101.250003862381
475,40,100045,1,0,0:0:0:0:
479,49,100354,5,0,0:0:0:0:
483,61,100432,1,0,0:0:0:0:
485,74,100509,1,0,0:0:0:0:
485,87,100586,1,0,0:0:0:0:
482,100,100663,1,0,0:0:0:0:
476,112,100741,1,0,0:0:0:0:
468,123,100818,1,0,0:0:0:0:
458,132,100895,1,0,0:0:0:0:
446,138,100973,1,0,0:0:0:0:
433,142,101050,1,0,0:0:0:0:
419,143,101127,1,0,0:0:0:0:
405,142,101205,1,0,0:0:0:0:
391,139,101282,1,0,0:0:0:0:
378,134,101359,1,0,0:0:0:0:
367,124,101437,6,0,P|349:114|331:108,3,33.7500012874604
323,107,101746,1,0,0:0:0:0:
309,106,101823,1,0,0:0:0:0:
296,110,101901,1,0,0:0:0:0:
285,117,101978,1,0,0:0:0:0:
274,125,102055,2,0,P|259:139|244:160,3,33.7500012874604
243,161,102365,1,0,0:0:0:0:
238,173,102442,1,0,0:0:0:0:
236,186,102519,1,0,0:0:0:0:
236,199,102596,1,0,0:0:0:0:
239,212,102674,6,0,P|244:238|261:264,2,45.0000017166138
179,272,102983,2,0,L|173:327,2,45.0000017166138
159,198,103292,1,0,0:0:0:0:
148,190,103602,6,0,L|146:119,1,67.5000025749208
207,56,103911,6,0,P|257:45|301:52,1,90
363,108,104220,2,0,L|458:104,1,90
280,134,104529,1,0,0:0:0:0:
239,212,104684,1,0,0:0:0:0:
230,255,104761,1,0,0:0:0:0:
244,298,104839,2,0,L|342:311,1,90
434,181,105148,6,0,P|432:225|411:265,1,90
377,111,105457,2,0,L|373:21,1,90
349,194,105767,1,0,0:0:0:0:
267,231,105921,1,0,0:0:0:0:
222,241,105999,1,0,0:0:0:0:
178,231,106076,2,0,P|133:220|82:225,1,90
35,151,106385,6,0,L|27:58,1,90
111,30,106694,2,0,P|155:52|206:54,1,90
283,33,107004,1,0,0:0:0:0:
369,55,107158,1,0,0:0:0:0:
404,83,107236,1,0,0:0:0:0:
417,125,107313,2,0,L|415:221,1,90
354,281,107622,5,0,0:0:0:0:
53,341,107777,1,0,0:0:0:0:
330,210,107932,1,0,0:0:0:0:
346,205,108241,1,0,0:0:0:0:
259,180,108395,2,0,L|207:177,1,45
144,200,108550,1,0,0:0:0:0:
140,212,108627,1,0,0:0:0:0:
136,225,108705,1,0,0:0:0:0:
132,237,108782,1,0,0:0:0:0:
128,250,108859,6,0,L|98:346,1,90
185,368,109169,2,0,P|231:359|285:371,1,90
355,329,109478,1,0,0:0:0:0:
407,255,109633,1,0,0:0:0:0:
421,212,109710,1,0,0:0:0:0:
408,169,109787,2,0,P|395:122|405:79,1,90
479,34,110096,6,0,P|492:81|482:124,1,90
408,169,110406,2,0,L|313:162,1,90
253,99,110715,1,0,0:0:0:0:
164,79,110870,1,0,0:0:0:0:
119,87,110947,1,0,0:0:0:0:
82,112,111024,2,0,P|45:151|25:212,1,90
40,273,111334,5,0,0:0:0:0:
161,349,111488,1,0,0:0:0:0:
155,150,111643,1,0,0:0:0:0:
321,342,111798,1,0,0:0:0:0:
104,218,111952,5,0,0:0:0:0:
281,130,112107,1,0,0:0:0:0:
238,266,112261,1,0,0:0:0:0:
308,209,112416,1,0,0:0:0:0:
383,258,112571,5,0,0:0:0:0:
462,217,112725,1,0,0:0:0:0:
463,203,112803,1,0,0:0:0:0:
465,189,112880,2,0,L|472:97,1,90
403,40,113189,1,0,0:0:0:0:
357,45,113267,1,0,0:0:0:0:
312,50,113344,1,0,0:0:0:0:
267,55,113421,1,0,0:0:0:0:
222,62,113499,1,0,0:0:0:0:
177,69,113576,1,0,0:0:0:0:
132,76,113653,1,0,0:0:0:0:
87,83,113731,1,0,0:0:0:0:
43,93,113808,6,0,P|27:140|41:188,1,90
95,245,114117,1,0,0:0:0:0:
183,262,114272,1,0,0:0:0:0:
194,237,114349,1,0,0:0:0:0:
206,213,114426,1,0,0:0:0:0:
268,303,114581,1,0,0:0:0:0:
279,278,114658,1,0,0:0:0:0:
291,254,114735,1,0,0:0:0:0:
355,344,114890,1,0,0:0:0:0:
366,319,114967,1,0,0:0:0:0:
378,295,115044,5,0,0:0:0:0:
459,255,115200,1,0,0:0:0:0:
482,216,115277,1,0,0:0:0:0:
486,171,115354,1,0,0:0:0:0:
468,129,115432,1,0,0:0:0:0:
432,101,115509,1,0,0:0:0:0:
387,95,115586,1,0,0:0:0:0:
345,111,115663,5,0,0:0:0:0:
99,169,115818,1,0,0:0:0:0:
341,39,115973,1,0,0:0:0:0:
104,244,116127,1,0,0:0:0:0:
347,184,116282,5,0,0:0:0:0:
429,147,116437,1,0,0:0:0:0:
443,156,116514,1,0,0:0:0:0:
451,171,116591,1,0,0:0:0:0:
456,188,116669,1,0,0:0:0:0:
458,205,116746,1,0,0:0:0:0:
456,222,116823,1,0,0:0:0:0:
441,255,116901,1,0,0:0:0:0:
418,282,116978,1,0,0:0:0:0:
383,290,117055,1,0,0:0:0:0:
346,286,117133,1,0,0:0:0:0:
317,264,117210,1,0,0:0:0:0:
300,232,117287,1,0,0:0:0:0:
299,195,117365,1,0,0:0:0:0:
315,163,117442,1,0,0:0:0:0:
320,127,117519,5,0,0:0:0:0:
306,84,117596,1,0,0:0:0:0:
277,48,117674,1,0,0:0:0:0:
233,37,117751,1,0,0:0:0:0:
188,44,117828,1,0,0:0:0:0:
154,74,117906,1,0,0:0:0:0:
140,116,117983,1,0,0:0:0:0:
147,160,118060,1,0,0:0:0:0:
176,194,118138,5,0,0:0:0:0:
205,238,118215,1,0,0:0:0:0:
205,291,118292,1,0,0:0:0:0:
172,335,118370,1,0,0:0:0:0:
120,350,118447,5,0,0:0:0:0:
63,323,118524,1,0,0:0:0:0:
37,264,118602,1,0,0:0:0:0:
45,201,118679,1,0,0:0:0:0:
84,152,118756,6,0,P|132:134|195:139,1,90
343,174,119066,2,0,L|254:168,1,90
430,150,119375,1,0,0:0:0:0:
481,223,119529,1,0,0:0:0:0:
470,267,119607,1,0,0:0:0:0:
433,293,119684,2,0,P|384:300|336:281,1,90
271,237,119993,5,0,0:0:0:0:
299,151,120148,1,0,0:0:0:0:
293,133,120225,1,0,0:0:0:0:
281,119,120303,1,0,0:0:0:0:
265,109,120380,1,0,0:0:0:0:
247,103,120457,1,0,0:0:0:0:
228,101,120535,1,0,0:0:0:0:
210,104,120612,1,0,0:0:0:0:
195,114,120689,1,0,0:0:0:0:
182,127,120767,1,0,0:0:0:0:
173,143,120844,1,0,0:0:0:0:
171,160,120921,1,0,0:0:0:0:
173,177,120999,1,0,0:0:0:0:
179,193,121076,1,0,0:0:0:0:
188,208,121153,1,0,0:0:0:0:
202,219,121231,6,0,P|222:233|239:251,3,45
251,270,121540,1,0,0:0:0:0:
255,296,121617,1,0,0:0:0:0:
249,322,121694,1,0,0:0:0:0:
231,343,121772,1,0,0:0:0:0:
207,356,121849,2,0,P|182:361|157:358,3,45
136,350,122158,1,0,0:0:0:0:
116,331,122236,1,0,0:0:0:0:
104,306,122313,1,0,0:0:0:0:
100,279,122390,1,0,0:0:0:0:
107,252,122468,5,0,0:0:0:0:
128,223,122545,1,0,0:0:0:0:
159,206,122622,1,0,0:0:0:0:
195,203,122700,1,0,0:0:0:0:
228,215,122777,1,0,0:0:0:0:
257,235,122854,1,0,0:0:0:0:
290,248,122932,1,0,0:0:0:0:
325,248,123009,1,0,0:0:0:0:
358,235,123086,5,0,0:0:0:0:
381,196,123163,1,0,0:0:0:0:
384,150,123241,1,0,0:0:0:0:
364,109,123318,1,0,0:0:0:0:
325,85,123395,1,0,0:0:0:0:
237,107,123550,1,0,0:0:0:0:
237,107,123627,1,0,0:0:0:0:
237,107,123705,6,0,P|213:116|172:117,1,56.25
67,62,123859,2,0,P|91:53|132:52,1,56.25
182,211,124014,2,0,P|158:220|117:221,1,56.25
12,166,124168,2,0,P|36:157|77:156,1,56.25
149,310,124323,1,0,0:0:0:0:
188,351,124401,1,0,0:0:0:0:
242,363,124478,1,0,0:0:0:0:
295,346,124555,1,0,0:0:0:0:
338,309,124633,1,0,0:0:0:0:
358,256,124710,1,0,0:0:0:0:
342,202,124787,1,0,0:0:0:0:
303,159,124865,1,0,0:0:0:0:
251,137,124942,6,0,P|219:135|174:147,2,75
305,85,125251,1,0,0:0:0:0:
334,67,125354,2,0,L|411:62,1,75
470,104,125560,5,0,0:0:0:0:
485,158,125638,1,0,0:0:0:0:
485,214,125715,1,0,0:0:0:0:
465,266,125792,1,0,0:0:0:0:
424,306,125870,1,0,0:0:0:0:
369,318,125947,1,0,0:0:0:0:
313,311,126024,1,0,0:0:0:0:
265,279,126102,1,0,0:0:0:0:
233,232,126179,6,0,L|231:203,7,28.125
228,161,126488,1,0,0:0:0:0:
223,105,126566,1,0,0:0:0:0:
279,100,126643,1,0,0:0:0:0:
284,156,126720,1,0,0:0:0:0:
228,161,126798,6,0,P|201:155|167:156,1,56.25
68,231,126952,2,0,P|95:237|129:236,1,56.25
56,125,127107,1,0,0:0:0:0:
73,71,127184,1,0,0:0:0:0:
121,42,127261,1,0,0:0:0:0:
177,42,127339,1,0,0:0:0:0:
226,67,127416,6,0,P|247:78|287:88,1,56.25
404,53,127571,2,0,P|383:42|343:32,1,56.25
344,163,127725,1,0,0:0:0:0:
374,211,127803,1,0,0:0:0:0:
381,266,127880,1,0,0:0:0:0:
360,318,127957,1,0,0:0:0:0:
311,346,128035,6,0,P|289:356|250:357,1,56.25
140,308,128189,2,0,L|196:313,1,56.25
73,358,128344,1,0,0:0:0:0:
35,315,128421,1,0,0:0:0:0:
22,259,128499,1,0,0:0:0:0:
33,204,128576,1,0,0:0:0:0:
66,158,128653,5,0,0:0:0:0:
94,154,128731,1,0,0:0:0:0:
121,150,128808,1,0,0:0:0:0:
148,146,128885,1,0,0:0:0:0:
187,166,128962,1,0,0:0:0:0:
232,161,129040,1,0,0:0:0:0:
276,156,129117,1,0,0:0:0:0:
320,151,129194,1,0,0:0:0:0:
371,186,129272,1,0,0:0:0:0:
393,243,129349,1,0,0:0:0:0:
383,303,129426,1,0,0:0:0:0:
335,343,129504,1,0,0:0:0:0:
273,341,129581,2,0,L|232:348,2,37.5
286,301,129736,2,0,L|295:242,1,56.25
305,172,129890,5,0,0:0:0:0:
298,144,129968,1,0,0:0:0:0:
283,119,130045,1,0,0:0:0:0:
259,104,130122,1,0,0:0:0:0:
231,96,130200,1,0,0:0:0:0:
203,102,130277,1,0,0:0:0:0:
179,116,130354,1,0,0:0:0:0:
162,139,130432,1,0,0:0:0:0:
161,195,130509,1,0,0:0:0:0:
187,244,130586,1,0,0:0:0:0:
230,278,130663,1,0,0:0:0:0:
284,295,130741,1,0,0:0:0:0:
339,291,130818,1,0,0:0:0:0:
388,264,130895,1,0,0:0:0:0:
425,221,130973,1,0,0:0:0:0:
440,167,131050,1,0,0:0:0:0:
430,111,131127,6,0,L|424:56,1,56.25
331,147,131282,2,0,L|325:92,1,56.25
239,189,131437,2,0,L|233:134,1,56.25
140,225,131592,2,0,L|134:170,1,56.25
70,281,131746,6,0,P|92:302|127:313,1,56.25
245,289,131901,2,0,P|218:293|191:286,1,56.25
279,218,132055,2,0,P|305:210|328:193,1,56.25
338,72,132210,2,0,P|327:97|307:117,1,56.25
229,151,132365,5,0,0:0:0:0:
213,127,132442,1,0,0:0:0:0:
188,112,132519,1,0,0:0:0:0:
160,110,132596,1,0,0:0:0:0:
133,119,132674,1,0,0:0:0:0:
113,139,132751,1,0,0:0:0:0:
102,165,132828,1,0,0:0:0:0:
104,193,132906,1,0,0:0:0:0:
135,239,132983,1,0,0:0:0:0:
184,264,133060,1,0,0:0:0:0:
240,271,133138,1,0,0:0:0:0:
294,260,133215,1,0,0:0:0:0:
338,225,133292,1,0,0:0:0:0:
370,178,133370,1,0,0:0:0:0:
383,123,133447,1,0,0:0:0:0:
374,67,133524,1,0,0:0:0:0:
332,31,133602,6,0,P|302:25|262:32,1,67.5000025749208
194,190,133756,2,0,P|224:196|264:189,1,67.5000025749208
171,46,133911,2,0,P|141:40|101:47,1,67.5000025749208
33,205,134065,2,0,P|63:211|103:204,1,67.5000025749208
241,110,134220,5,0,0:0:0:0:
283,76,134298,1,0,0:0:0:0:
336,72,134375,1,0,0:0:0:0:
386,90,134452,1,0,0:0:0:0:
418,132,134529,1,0,0:0:0:0:
417,186,134607,1,0,0:0:0:0:
391,233,134684,1,0,0:0:0:0:
343,257,134761,1,0,0:0:0:0:
289,245,134839,6,0,P|271:235|242:197,1,67.5000025749208
218,33,134993,2,0,P|209:61|177:93,1,67.5000025749208
117,246,135148,2,0,L|141:181,1,67.5000025749208
54,37,135303,2,0,P|63:69|86:101,1,67.5000025749208
38,260,135457,5,0,0:0:0:0:
54,312,135535,1,0,0:0:0:0:
100,339,135612,1,0,0:0:0:0:
153,347,135689,1,0,0:0:0:0:
205,332,135767,1,0,0:0:0:0:
251,304,135844,1,0,0:0:0:0:
303,291,135921,1,0,0:0:0:0:
355,304,135999,1,0,0:0:0:0:
399,334,136076,6,0,L|433:353,7,33.7500012874604
455,344,136385,2,0,P|477:327|491:279,1,67.5000025749208
465,219,136540,1,0,0:0:0:0:
445,168,136617,1,0,0:0:0:0:
457,115,136694,2,0,P|466:88|396:20,1,135.000005149842
343,65,136926,2,0,L|273:60,1,67.5000025749208
91,38,137158,1,0,0:0:0:0:
52,76,137236,1,0,0:0:0:0:
39,128,137313,6,0,P|59:196|32:261,1,135.000005149842
64,325,137545,2,0,P|94:340|133:344,1,67.5000025749208
310,314,137777,2,0,L|380:309,1,67.5000025749208
429,257,137932,1,0,0:0:0:0:
429,250,138009,1,0,0:0:0:0:
429,243,138086,1,0,0:0:0:0:
429,236,138163,1,0,0:0:0:0:
429,229,138241,1,0,0:0:0:0:
429,222,138318,1,0,0:0:0:0:
429,215,138395,1,0,0:0:0:0:
429,208,138473,1,0,0:0:0:0:
429,201,138550,5,0,0:0:0:0:
422,182,138627,1,0,0:0:0:0:
408,167,138705,1,0,0:0:0:0:
389,158,138782,1,0,0:0:0:0:
368,156,138859,1,0,0:0:0:0:
348,161,138937,1,0,0:0:0:0:
331,173,139014,1,0,0:0:0:0:
321,190,139091,1,0,0:0:0:0:
310,222,139169,5,0,0:0:0:0:
294,251,139246,1,0,0:0:0:0:
267,271,139323,1,0,0:0:0:0:
233,278,139401,1,0,0:0:0:0:
200,270,139478,1,0,0:0:0:0:
172,250,139555,1,0,0:0:0:0:
159,218,139633,1,0,0:0:0:0:
162,184,139710,1,0,0:0:0:0:
178,154,139787,5,0,0:0:0:0:
217,127,139865,1,0,0:0:0:0:
263,117,139942,1,0,0:0:0:0:
308,126,140019,1,0,0:0:0:0:
346,153,140096,1,0,0:0:0:0:
372,192,140174,1,0,0:0:0:0:
382,237,140251,1,0,0:0:0:0:
370,282,140328,1,0,0:0:0:0:
343,321,140406,5,0,0:0:0:0:
287,345,140483,1,0,0:0:0:0:
227,353,140560,1,0,0:0:0:0:
166,342,140638,1,0,0:0:0:0:
115,309,140715,1,0,0:0:0:0:
85,255,140792,1,0,0:0:0:0:
76,194,140870,1,0,0:0:0:0:
89,134,140947,1,0,0:0:0:0:
128,79,141024,6,0,P|149:65|194:54,1,67.5000025749208
346,153,141179,2,0,P|325:167|280:178,1,67.5000025749208
94,234,141334,2,0,P|115:220|160:209,1,67.5000025749208
312,308,141489,2,0,P|291:322|246:333,1,67.5000025749208
412,280,141643,6,0,P|440:291|484:296,1,67.5000025749208
410,134,141798,2,0,P|379:147|346:153,1,67.5000025749208
220,261,141952,2,0,P|248:272|292:277,1,67.5000025749208
218,115,142107,2,0,P|187:128|154:134,1,67.5000025749208
88,212,142261,6,0,L|84:251,3,33.7500012874604
80,283,142416,1,0,0:0:0:0:
118,346,142493,1,0,0:0:0:0:
189,369,142571,1,0,0:0:0:0:
262,367,142648,1,0,0:0:0:0:
323,325,142725,1,0,0:0:0:0:
359,259,142803,1,0,0:0:0:0:
353,185,142880,1,0,0:0:0:0:
317,119,142957,1,0,0:0:0:0:
252,81,143035,1,0,0:0:0:0:
178,78,143112,1,0,0:0:0:0:
111,109,143189,1,0,0:0:0:0:
63,166,143267,1,0,0:0:0:0:
52,239,143344,1,0,0:0:0:0:
67,311,143421,1,0,0:0:0:0:
122,362,143499,5,0,0:0:0:0:
