osu file format v14

[General]
AudioFilename: audio.mp3
AudioLeadIn: 0
PreviewTime: 46253
Countdown: 1
SampleSet: Normal
StackLeniency: 0.2
Mode: 0
LetterboxInBreaks: 0
WidescreenStoryboard: 0

[Editor]
DistanceSpacing: 1
BeatDivisor: 8
GridSize: 8
TimelineZoom: 1.7

[Metadata]
Title:Casin
TitleUnicode:Casin
Artist:Glue70
ArtistUnicode:Glue70
Creator:spookem
Version:Two to the One to the One to the Three
Source:
Tags:
BeatmapID:1879922
BeatmapSetID:900014

[Difficulty]
HPDrainRate:5
CircleSize:4.2
OverallDifficulty:8
ApproachRate:9.6
SliderMultiplier:2.7
SliderTickRate:1

[Events]
//Background and Video events
0,0,"bg.png",0,0
//Break Periods
//Storyboard Layer 0 (Background)
//Storyboard Layer 1 (Fail)
//Storyboard Layer 2 (Pass)
//Storyboard Layer 3 (Foreground)
//Storyboard Layer 4 (Overlay)
//Storyboard Sound Samples

[TimingPoints]
100,576.923076923077,4,1,0,44,1,0
100,-133.333333333333,4,1,0,15,0,0
316,-133.333333333333,4,1,0,5,0,0
388,-66.6666666666667,4,1,0,15,0,0
604,-133.333333333333,4,1,0,5,0,0
676,-133.333333333333,4,1,0,15,0,0
893,-133.333333333333,4,1,0,5,0,0
965,-66.6666666666667,4,1,0,15,0,0
1181,-66.6666666666667,4,1,0,5,0,0
1253,-133.333333333333,4,1,0,20,0,0
1470,-66.6666666666667,4,1,0,5,0,0
1542,-66.6666666666667,4,1,0,20,0,0
1758,-66.6666666666667,4,1,0,5,0,0
1830,-133.333333333333,4,1,0,20,0,0
2047,-133.333333333333,4,1,0,5,0,0
2119,-66.6666666666667,4,1,0,20,0,0
2335,-66.6666666666667,4,1,0,5,0,0
2407,-133.333333333333,4,1,0,25,0,0
2624,-133.333333333333,4,1,0,5,0,0
2696,-66.6666666666667,4,1,0,25,0,0
2912,-66.6666666666667,4,1,0,5,0,0
2984,-133.333333333333,4,1,0,25,0,0
3200,-133.333333333333,4,1,0,5,0,0
3273,-66.6666666666667,4,1,0,25,0,0
3489,-66.6666666666667,4,1,0,5,0,0
3561,-133.333333333333,4,1,0,30,0,0
3777,-133.333333333333,4,1,0,5,0,0
3838,-66.6666666666667,4,1,0,35,0,0
4066,-66.6666666666667,4,1,0,5,0,0
4138,-133.333333333333,4,1,0,40,0,0
4571,-133.333333333333,4,1,0,44,0,0
4715,-66.6666666666667,4,1,0,44,0,0
6734,-50,4,1,0,44,0,0
8176,-200,4,1,0,44,0,0
8321,-200,4,1,0,5,0,0
8465,-200,4,1,0,44,0,0
8753,-50,4,1,0,44,0,0
9907,-66.6666666666667,4,1,0,44,0,0
10917,-66.6666666666667,4,1,0,5,0,0
11061,-133.333333333333,4,1,0,44,0,0
11638,-66.6666666666667,4,1,0,44,0,0
12503,-50,4,1,0,44,0,0
12792,-200,4,1,0,44,0,0
12936,-200,4,1,0,5,0,0
13080,-200,4,1,0,44,0,0
13801,-200,4,1,0,5,0,0
13946,-66.6666666666667,4,1,0,44,0,0
15100,-66.6666666666667,4,1,0,44,0,0
15965,-50,4,1,0,44,0,0
16758,-50,4,1,0,5,0,0
16830,-200,4,1,0,44,0,0
17407,-200,4,1,0,44,0,0
17984,-50,4,1,0,44,0,0
19138,-66.6666666666667,4,1,0,44,0,0
20003,-133.333333333333,4,1,0,44,0,0
20148,-66.6666666666667,4,1,0,5,0,0
20292,-66.6666666666667,4,1,0,44,0,0
21157,-50,4,1,0,44,0,0
21301,-50,4,1,0,5,0,0
21446,-200,4,1,0,44,0,0
21590,-200,4,1,0,5,0,0
21734,-50,4,1,0,44,0,1
22023,-133.333333333333,4,1,0,44,0,1
23176,-66.6666666666667,4,1,0,44,0,0
24330,-133.333333333333,4,1,0,44,0,0
25196,-200,4,1,0,44,0,0
25340,-133.333333333333,4,1,0,5,0,0
25484,-66.6666666666667,4,1,0,44,0,0
26061,-133.333333333333,4,1,0,44,0,0
26638,-133.333333333333,4,1,0,44,0,0
26782,-133.333333333333,4,1,0,5,0,0
26926,-133.333333333333,4,1,0,44,0,0
27215,-50,4,1,0,44,0,0
28369,-66.6666666666667,4,1,0,44,0,0
29234,-133.333333333333,4,1,0,44,0,0
29378,-133.333333333333,4,1,0,5,0,0
29523,-66.6666666666667,4,1,0,44,0,0
29667,-66.6666666666667,4,1,0,5,0,0
29811,-66.6666666666667,4,1,0,44,0,0
30965,-50,4,1,0,44,0,0
31109,-50,4,1,0,5,0,0
31253,-133.333333333333,4,1,0,44,0,0
31398,-133.333333333333,4,1,0,5,0,0
31542,-133.333333333333,4,1,0,44,0,0
32263,-133.333333333333,4,1,0,5,0,0
32407,-133.333333333333,4,1,0,44,0,0
33561,-66.6666666666667,4,1,0,44,0,0
33705,-133.333333333333,4,1,0,5,0,0
33850,-133.333333333333,4,1,0,44,0,0
34138,-50,4,1,0,44,0,0
34426,-50,4,1,0,44,0,0
35292,-200,4,1,0,44,0,0
36446,-50,4,1,0,44,0,0
37600,-66.6666666666667,4,1,0,44,0,0
38609,-66.6666666666667,4,1,0,5,0,0
38753,-66.6666666666667,4,1,0,44,0,0
39619,-50,4,1,0,44,0,0
39763,-50,4,1,0,5,0,0
39907,-200,4,1,0,44,0,0
40051,-200,4,1,0,5,0,0
40196,-50,4,1,0,44,0,0
41061,-133.333333333333,4,1,0,44,0,0
42215,-66.6666666666667,4,1,0,44,0,0
42792,-133.333333333333,4,1,0,44,0,0
45100,-100,4,1,0,44,0,0
45676,-66.6666666666667,4,1,0,44,0,0
46253,-100,4,1,0,44,0,0
46975,-100,4,1,0,5,0,0
47119,-100,4,1,0,44,0,0
47551,-100,4,1,0,5,0,0
47696,-100,4,1,0,44,0,0
48128,-100,4,1,0,5,0,0
48273,-100,4,1,0,44,0,0
48561,-133.333333333333,4,1,0,44,0,0
49859,-133.333333333333,4,1,0,5,0,0
50003,-133.333333333333,4,1,0,44,0,0
50436,-133.333333333333,4,1,0,5,0,0
50580,-133.333333333333,4,1,0,44,0,0
50869,-133.333333333333,4,1,0,44,0,1
52888,-66.6666666666667,4,1,0,44,0,1
52960,-66.6666666666667,4,1,0,5,0,1
53032,-66.6666666666667,4,1,0,44,0,1
53104,-66.6666666666667,4,1,0,5,0,1
53176,-66.6666666666667,4,1,0,44,0,0
53898,-66.6666666666667,4,1,0,5,0,0
54042,-66.6666666666667,4,1,0,44,0,0
54114,-66.6666666666667,4,1,0,5,0,0
54186,-66.6666666666667,4,1,0,44,0,0
54258,-66.6666666666667,4,1,0,5,0,0
54330,-66.6666666666667,4,1,0,44,0,0
54907,-40,4,1,0,44,0,0
56061,-66.6666666666667,4,1,0,44,0,0
56494,-66.6666666666667,4,1,0,44,0,0
56999,-66.6666666666667,4,1,0,5,0,0
57071,-66.6666666666667,4,1,0,44,0,0
57143,-66.6666666666667,4,1,0,5,0,0
57215,-50,4,1,0,44,0,0
57792,-50,4,1,0,44,0,0
57936,-50,4,1,0,5,0,0
58080,-66.6666666666667,4,1,0,44,0,0
58152,-66.6666666666667,4,1,0,5,0,0
58225,-66.6666666666667,4,1,0,44,0,0
58297,-66.6666666666667,4,1,0,5,0,0
58369,-66.6666666666667,4,1,0,44,0,0
58946,-50,4,1,0,44,0,0
59811,-133.333333333333,4,1,0,44,0,0
59955,-133.333333333333,4,1,0,5,0,0
60100,-133.333333333333,4,1,0,44,0,0
61830,-50,4,1,0,44,0,0
62119,-66.6666666666667,4,1,0,44,0,0
62191,-50,4,1,0,5,0,0
62263,-66.6666666666667,4,1,0,44,0,0
62335,-133.333333333333,4,1,0,5,0,0
62407,-50,4,1,0,44,0,0
62984,-133.333333333333,4,1,0,44,0,0
63128,-133.333333333333,4,1,0,5,0,0
63273,-66.6666666666667,4,1,0,44,0,0
63345,-66.6666666666667,4,1,0,5,0,0
63417,-66.6666666666667,4,1,0,44,0,0
63489,-66.6666666666667,4,1,0,5,0,0
63561,-50,4,1,0,44,0,0
64138,-40,4,1,0,44,0,0
65292,-50,4,1,0,44,0,0
66157,-66.6666666666667,4,1,0,44,0,0
66229,-66.6666666666667,4,1,0,5,0,0
66301,-66.6666666666667,4,1,0,44,0,0
66374,-66.6666666666667,4,1,0,5,0,0
66446,-133.333333333333,4,1,0,44,0,0
67023,-40,4,1,0,44,0,0
67167,-50,4,1,0,5,0,0
67311,-50,4,1,0,44,0,0
67455,-50,4,1,0,5,0,0
67600,-66.6666666666667,4,1,0,44,0,0
67744,-100,4,1,0,5,0,0
67888,-40,4,1,0,44,0,0
68753,-66.6666666666667,4,1,0,44,0,0
70917,-28.5714285714286,4,1,0,44,0,0
71205,-25,4,1,0,44,0,0
71350,-66.6666666666667,4,1,0,44,0,0
71422,-66.6666666666667,4,1,0,5,0,0
71494,-66.6666666666667,4,1,0,44,0,0
71566,-66.6666666666667,4,1,0,5,0,0
71638,-66.6666666666667,4,1,0,44,0,0
72215,-133.333333333333,4,1,0,44,0,0
72792,-66.6666666666667,4,1,0,44,0,0
73369,-50,4,1,0,44,0,0
75821,-133.333333333333,4,1,0,44,0,0
75965,-133.333333333333,4,1,0,5,0,0
76109,-133.333333333333,4,1,0,44,0,0
77407,-66.6666666666667,4,1,0,44,0,0
80869,-66.6666666666667,4,1,0,44,0,0
81446,-100,4,1,0,44,0,0
82023,-66.6666666666667,4,1,0,44,0,0
82600,-40,4,1,0,44,0,0

[Colours]
Combo1 : 170,85,138
Combo2 : 52,150,114
Combo3 : 152,96,176
Combo4 : 220,193,46

[HitObjects]
0,117,100,6,0,P|49:104|76:112,1,75.9375028967858,8|0,0:0|0:0,0:0:0:0:
117,175,388,2,0,P|189:164|223:99,1,151.875005793572,2|0,0:0|0:0,0:0:0:0:
150,92,676,6,0,P|199:105|226:97,1,75.9375028967858,8|0,0:0|0:0,0:0:0:0:
267,34,965,2,0,P|339:44|373:109,1,151.875005793572,2|0,0:0|0:0,0:0:0:0:
373,109,1253,6,0,P|324:96|297:104,1,75.9375028967858,8|0,0:0|0:0,0:0:0:0:
256,167,1541,2,0,P|183:156|149:91,1,151.875005793572,2|0,0:0|0:0,0:0:0:0:
223,84,1830,6,0,P|174:97|147:89,1,75.9375028967858,8|0,0:0|0:0,0:0:0:0:
106,26,2119,2,0,P|33:36|0:101,1,151.875005793572,2|0,0:0|0:0,0:0:0:0:
49,154,2407,6,0,P|35:125|-4:100,1,75.9375028967858,8|0,0:0|0:0,0:0:0:0:
3,226,2696,2,0,P|80:227|137:163,1,151.875005793572,2|0,0:0|0:0,0:0:0:0:
204,234,2984,6,0,P|218:263|257:288,1,75.9375028967858,8|0,0:0|0:0,0:0:0:0:
332,187,3273,2,0,P|254:185|198:250,1,151.875005793572,2|0,0:0|0:0,0:0:0:0:
139,272,3561,2,0,L|150:356,1,75.9375028967858,8|0,0:0|0:0,0:0:0:0:
217,384,3850,2,0,L|232:229,1,151.875005793572,2|0,0:0|0:0,0:0:0:0:
319,268,4138,2,2,B|312:304|282:315|259:314|259:314|173:302,1,151.875005793572
337,297,4715,6,2,B|314:319|278:317|278:317|212:309,1,101.250003862381
195,231,5003,5,0,0:0:0:0:
139,329,5148,1,0,0:0:0:0:
87,184,5292,5,0,0:0:0:0:
116,250,5437,1,0,0:0:0:0:
181,124,5580,5,0,0:0:0:0:
172,166,5725,1,0,0:0:0:0:
106,132,5869,2,2,P|140:59|256:108,2,202.500007724762
261,87,6734,6,2,P|218:43|109:173,1,270
181,124,7311,5,2,0:0:0:0:
181,124,7455,5,2,0:0:0:0:
357,89,7600,1,0,0:0:0:0:
181,124,7888,5,2,0:0:0:0:
273,0,8176,6,0,L|276:46,1,33.75,2|0,0:0|0:0,0:0:0:0:
275,33,8465,5,0,0:0:0:0:
275,33,8753,6,2,B|299:-50|466:-73|485:138|404:200|300:113|342:271|362:300,1,405
488,122,9330,5,2,0:0:0:0:
500,203,9475,5,2,0:0:0:0:
468,266,9619,5,2,0:0:0:0:
464,316,9763,5,2,0:0:0:0:
478,346,9907,6,0,P|421:332|278:363,1,202.500007724762,0|2,0:0|0:0,0:0:0:0:
304,264,10340,5,2,0:0:0:0:
201,307,10484,1,2,0:0:0:0:
138,148,10628,5,0,0:0:0:0:
199,248,10773,2,0,P|269:252|271:198,1,101.250003862381,2|0,0:0|0:0,0:0:0:0:
127,334,11061,2,0,B|130:371|130:371|108:356,1,50.6250019311906,8|0,0:0|0:0,0:0:0:0:
28,302,11350,5,2,0:0:0:0:
28,302,11494,1,2,0:0:0:0:
265,281,11638,6,2,P|216:362|127:334,2,202.500007724762
334,362,12503,2,2,P|265:337|272:271,1,135
334,362,12792,6,0,L|339:321,1,33.75,2|0,0:0|0:0,0:0:0:0:
353,202,13080,1,0,0:0:0:0:
476,303,13369,5,0,0:0:0:0:
476,303,13513,1,0,0:0:0:0:
449,23,13657,6,0,L|451:56,1,33.75,2|0,0:0|0:0,0:0:0:0:
459,208,13946,5,2,0:0:0:0:
386,123,14090,1,2,0:0:0:0:
294,215,14234,1,2,0:0:0:0:
310,140,14378,1,0,0:0:0:0:
198,251,14523,1,2,0:0:0:0:
162,165,14667,1,2,0:0:0:0:
67,191,14811,1,0,0:0:0:0:
91,94,14955,1,2,0:0:0:0:
31,269,15100,6,2,B|83:310|148:260|83:252|197:191|227:283,2,202.500007724762
232,325,15965,6,2,B|215:188|71:263|169:274|65:317|19:275,1,270,2|10,0:0|0:0,0:0:0:0:
65,200,16398,1,0,0:0:0:0:
109,368,16542,1,0,0:0:0:0:
176,235,16686,1,0,0:0:0:0:
266,382,16830,2,2,P|309:366|328:343,1,67.5
471,113,17407,6,2,L|464:184,1,67.5
455,338,17840,1,0,0:0:0:0:
384,170,17984,2,2,B|341:102|246:111|173:183|208:299|354:381|320:155|445:261|463:313,1,405
316,265,18561,5,2,0:0:0:0:
239,292,18706,5,2,0:0:0:0:
198,341,18850,5,2,0:0:0:0:
150,358,18994,5,2,0:0:0:0:
114,354,19138,6,0,P|75:278|91:155,1,202.500007724762,0|2,0:0|0:0,0:0:0:0:
179,245,19571,5,2,0:0:0:0:
308,184,19715,1,2,0:0:0:0:
314,258,19859,1,0,0:0:0:0:
225,169,20003,2,2,P|242:138|273:121,1,50.6250019311906
377,130,20292,2,2,P|303:100|202:177,2,202.500007724762
435,23,21157,6,2,P|366:48|373:114,1,135
435,23,21446,6,2,L|440:64,1,33.75
448,210,21734,2,6,B|478:186|479:106|366:92|345:154|327:183|266:309|62:191|134:39|220:16,1,540,2|6,0:0|0:0,0:0:0:0:
292,39,22455,5,8,0:0:0:0:
67,96,22600,1,8,0:0:0:0:
236,111,22744,1,8,0:0:0:0:
62,173,22888,1,8,0:0:0:0:
255,249,23032,1,8,0:0:0:0:
132,266,23176,6,0,P|124:328|148:365,1,101.250003862381,2|2,0:0|0:0,0:0:0:0:
255,249,23465,5,2,0:0:0:0:
211,353,23610,1,0,0:0:0:0:
143,196,23753,5,2,0:0:0:0:
176,272,23899,1,0,0:0:0:0:
251,127,24042,5,2,0:0:0:0:
241,176,24187,1,2,0:0:0:0:
208,51,24330,6,2,P|256:41|302:60,1,101.250003862381
325,154,24763,1,2,0:0:0:0:
413,101,24907,1,0,0:0:0:0:
444,147,25051,1,0,0:0:0:0:
494,137,25196,2,2,L|490:180,1,33.75
512,299,25484,6,2,P|468:276|309:326,1,202.500007724762
386,196,25917,1,0,0:0:0:0:
325,307,26061,6,2,P|279:326|231:317,1,101.250003862381
162,62,26638,6,2,L|157:123,1,50.6250019311906
157,113,26926,1,0,0:0:0:0:
158,113,27215,6,2,B|110:38|7:33|-112:156|112:355|116:84|207:247|230:298,1,405
112,218,27792,5,2,0:0:0:0:
43,276,27936,5,2,0:0:0:0:
53,362,28080,5,2,0:0:0:0:
101,384,28225,5,2,0:0:0:0:
169,384,28369,6,0,P|216:362|375:393,1,202.500007724762
324,277,28801,5,2,0:0:0:0:
450,339,28946,1,0,0:0:0:0:
337,373,29090,1,2,0:0:0:0:
453,288,29234,6,2,L|449:347,1,50.6250019311906,10|2,0:0|0:0,0:0:0:0:
312,180,29523,2,2,P|306:231|332:288,1,101.250003862381,6|2,0:0|0:0,0:0:0:0:
420,179,29811,5,0,0:0:0:0:
420,179,29955,1,0,0:0:0:0:
459,12,30100,6,2,P|403:89|309:69,2,202.500007724762,10|2|2,0:0|0:0|0:0,0:0:0:0:
234,156,30965,2,2,P|271:75|329:74,1,135
234,156,31253,2,0,L|165:149,1,50.6250019311906,10|0,0:0|0:0,0:0:0:0:
0,132,31542,1,2,0:0:0:0:
154,264,31830,1,2,0:0:0:0:
57,278,31975,1,2,0:0:0:0:
76,3,32119,6,2,L|81:57,1,50.6250019311906
160,228,32407,5,2,0:0:0:0:
233,76,32551,1,2,0:0:0:0:
287,323,32696,5,0,0:0:0:0:
235,224,32840,1,0,0:0:0:0:
421,251,32984,5,2,0:0:0:0:
341,272,33128,1,2,0:0:0:0:
404,123,33273,5,0,0:0:0:0:
383,188,33417,1,2,0:0:0:0:
323,57,33561,6,2,B|319:6|233:-58|183:96|118:-7,2,202.500007724762
105,17,34426,2,2,B|225:102|227:-59|344:33|305:93,1,270
386,10,34859,5,0,0:0:0:0:
408,167,35003,1,2,0:0:0:0:
503,141,35148,1,2,0:0:0:0:
451,279,35292,2,2,L|444:354,1,67.5
195,230,35869,6,0,P|240:214|272:221,1,67.5,2|0,0:0|0:0,0:0:0:0:
163,150,36301,1,0,0:0:0:0:
288,314,36446,2,2,B|352:284|405:120|75:94|224:288|15:245,1,405
0,111,37023,5,2,0:0:0:0:
75,42,37167,5,2,0:0:0:0:
163,41,37311,5,2,0:0:0:0:
215,72,37455,5,2,0:0:0:0:
238,117,37600,6,0,P|323:76|462:115,1,202.500007724762,2|0,0:0|0:0,0:0:0:0:
512,246,38032,6,2,P|499:219|408:233,1,101.250003862381
372,282,38321,1,2,0:0:0:0:
459,185,38465,2,0,P|392:160|391:133,1,101.250003862381
450,351,38753,6,2,P|365:315|264:377,2,202.500007724762
272,362,39619,6,2,P|203:352|202:288,1,135
272,362,39907,2,2,L|277:316,1,33.75
392,183,40196,2,2,B|391:201|389:279|190:290|217:198|195:106|146:124|-23:57|-71:244|3:367|180:298,1,675
28,358,41061,6,0,P|106:341|144:355,1,101.250003862381
245,90,42215,6,2,P|199:61|16:84,1,202.500007724762
31,160,42648,1,0,0:0:0:0:
96,285,42792,2,2,L|165:279,1,50.6250019311906
32,348,43080,1,0,0:0:0:0:
201,383,43225,2,2,P|231:343|238:294,1,101.250003862381
233,207,43657,2,2,L|297:214,1,50.6250019311906
369,360,43946,5,0,0:0:0:0:
379,244,44090,1,0,0:0:0:0:
388,130,44234,2,2,P|405:114|444:123,1,50.6250019311906
512,334,44523,6,2,L|400:343,1,101.250003862381
476,254,44955,1,0,0:0:0:0:
366,264,45100,2,2,L|224:273,1,135
426,174,45531,1,0,0:0:0:0:
232,188,45676,2,2,L|86:193,1,101.250003862381
380,98,45965,1,2,0:0:0:0:
309,327,46109,1,2,0:0:0:0:
170,156,46253,6,2,P|200:122|286:142,1,135
141,74,46686,1,0,0:0:0:0:
231,283,46830,2,2,L|239:369,1,67.5
307,126,47119,5,0,0:0:0:0:
307,126,47263,1,0,0:0:0:0:
343,254,47407,2,2,L|335:340,1,67.5
409,166,47696,5,0,0:0:0:0:
409,166,47840,1,0,0:0:0:0:
441,223,47984,2,2,L|449:309,1,67.5
510,195,48273,5,2,0:0:0:0:
510,195,48417,1,2,0:0:0:0:
398,386,48561,2,0,P|442:362|490:375,1,101.250003862381
318,331,49138,1,2,0:0:0:0:
490,375,49426,1,0,0:0:0:0:
198,355,49715,6,0,L|261:358,1,50.6250019311906
490,375,50003,1,2,0:0:0:0:
198,355,50292,6,0,L|261:358,1,50.6250019311906
490,375,50580,1,2,0:0:0:0:
47,355,50869,5,0,0:0:0:0:
7,189,51013,1,0,0:0:0:0:
139,249,51157,1,2,0:0:0:0:
168,129,51301,1,2,0:0:0:0:
271,186,51446,1,0,0:0:0:0:
353,118,51590,1,0,0:0:0:0:
432,166,51734,1,2,0:0:0:0:
512,130,51878,1,2,0:0:0:0:
424,252,52023,6,2,P|384:239|325:264,1,101.250003862381
346,106,52455,1,0,0:0:0:0:
331,272,52600,2,2,L|325:328,1,50.6250019311906
228,268,52888,2,0,P|216:265|235:242,1,50.6250019311906,10|0,0:0|0:0,0:0:0:0:
303,127,53032,2,0,L|298:178,1,50.6250019311906,10|0,0:0|0:0,0:0:0:0:
185,369,53176,6,2,P|266:342|385:393,1,202.500007724762
96,332,53609,1,0,0:0:0:0:
372,380,53753,2,2,B|392:337|392:337|360:250,1,101.250003862381
133,249,54042,6,0,L|139:184,1,50.6250019311906,8|0,0:0|0:0,0:0:0:0:
171,68,54186,2,0,P|193:68|190:90,1,50.6250019311906,8|0,0:0|0:0,0:0:0:0:
219,195,54330,6,2,P|300:221|419:170,1,202.500007724762
379,285,54763,1,0,0:0:0:0:
385,86,54907,2,2,B|326:-29|176:-15|102:28|152:132|17:75|165:273|-13:255,1,506.25
0,85,55484,5,2,0:0:0:0:
108,278,55628,5,2,0:0:0:0:
31,203,55773,5,2,0:0:0:0:
203,293,55917,5,2,0:0:0:0:
9,384,56061,2,0,P|102:308|188:300,1,202.500007724762,0|2,0:0|0:0,0:0:0:0:
304,311,56494,1,2,0:0:0:0:
5,282,56638,1,0,0:0:0:0:
207,384,56782,1,0,0:0:0:0:
369,199,56926,6,2,L|319:204,1,50.6250019311906
200,212,57070,2,2,L|150:217,1,50.6250019311906
25,214,57215,2,0,L|343:189,1,270,0|2,0:0|0:0,0:0:0:0:
254,0,57648,1,2,0:0:0:0:
473,98,57792,6,0,P|416:51|344:70,1,135
430,206,58080,2,0,P|407:202|404:225,1,50.6250019311906,2|0,0:0|0:0,0:0:0:0:
357,349,58225,2,0,L|344:299,1,50.6250019311906
304,137,58369,2,0,P|214:98|135:154,1,202.500007724762,2|0,0:0|0:0,0:0:0:0:
168,11,58801,1,0,0:0:0:0:
132,247,58946,2,0,P|240:255|359:384,2,270,2|0|2,0:0|0:0|0:0,0:0:0:0:
342,198,59667,1,0,0:0:0:0:
139,332,59811,6,0,L|81:321,1,50.6250019311906
96,57,60100,5,2,0:0:0:0:
34,262,60244,1,2,0:0:0:0:
158,191,60388,1,0,0:0:0:0:
186,333,60532,1,0,0:0:0:0:
283,265,60677,1,2,0:0:0:0:
361,345,60821,1,2,0:0:0:0:
435,289,60965,1,0,0:0:0:0:
511,331,61109,1,0,0:0:0:0:
512,153,61253,6,0,P|431:162|404:188,1,101.250003862381,2|0,0:0|0:0,0:0:0:0:
431,55,61686,1,0,0:0:0:0:
362,242,61830,2,0,P|313:260|234:226,1,135,2|0,0:0|0:0,0:0:0:0:
274,63,62119,2,0,L|332:59,1,50.6250019311906
193,142,62263,2,0,P|165:144|172:118,1,50.6250019311906
347,132,62407,6,2,P|381:229|343:288,1,135
479,193,62696,1,0,0:0:0:0:
307,343,62840,1,0,0:0:0:0:
483,343,62984,6,0,L|413:338,1,50.6250019311906
158,307,63273,2,0,P|145:311|172:338,1,50.6250019311906
288,361,63417,1,0,0:0:0:0:
374,208,63561,6,2,P|321:151|171:236,1,270
277,326,63994,1,0,0:0:0:0:
455,149,64138,2,2,B|396:34|246:48|160:160|246:273|166:314|166:314|121:324|138:265,1,506.25
165,114,64715,5,2,0:0:0:0:
298,259,64859,5,2,0:0:0:0:
262,171,65003,5,2,0:0:0:0:
260,337,65148,5,2,0:0:0:0:
458,249,65292,6,2,P|346:239|238:352,1,270
414,363,65725,1,0,0:0:0:0:
242,210,65869,1,0,0:0:0:0:
127,315,66013,1,0,0:0:0:0:
18,142,66157,6,0,L|68:138,1,50.6250019311906
168,131,66301,2,0,L|218:127,1,50.6250019311906
326,300,66446,2,0,P|259:273|225:286,1,101.250003862381
298,186,66879,1,0,0:0:0:0:
201,356,67023,6,0,P|161:375|46:325,1,168.75
7,92,67311,2,2,P|7:156|61:189,1,135
181,0,67600,2,2,P|137:-9|75:27,1,101.250003862381
239,299,67888,2,0,B|317:328|459:257|512:137|345:-46|284:43|233:30|132:150|193:140|204:184|107:239|0:178|91:44|123:103,1,675
143,278,68609,1,2,0:0:0:0:
226,65,68753,5,8,0:0:0:0:
269,201,68898,1,8,0:0:0:0:
129,6,69042,1,8,0:0:0:0:
93,129,69186,1,8,0:0:0:0:
333,0,69330,6,0,P|394:1|449:30,1,101.250003862381
481,164,69619,1,0,0:0:0:0:
316,107,69763,1,0,0:0:0:0:
274,257,69907,1,0,0:0:0:0:
208,113,70051,1,0,0:0:0:0:
155,175,70196,1,0,0:0:0:0:
170,13,70340,1,0,0:0:0:0:
139,17,70484,6,0,B|32:36|113:134|-22:150,1,202.500007724762,0|0,0:0|0:0,0:0:0:0:
0,0,70917,1,0,0:0:0:0:
147,197,71061,1,0,0:0:0:0:
116,301,71205,1,0,0:0:0:0:
0,373,71350,2,0,P|22:378|50:376,1,50.6250019311906
260,297,71494,2,0,P|234:299|212:309,1,50.6250019311906
176,378,71638,1,0,0:0:0:0:
0,253,71782,5,0,0:0:0:0:
65,367,71926,1,0,0:0:0:0:
128,177,72071,1,0,0:0:0:0:
184,264,72215,2,0,B|244:261|223:290|279:291,1,101.250003862381
229,130,72648,1,0,0:0:0:0:
271,271,72792,2,0,B|350:316|388:224|466:256,1,202.500007724762
512,44,73225,1,0,0:0:0:0:
257,80,73369,2,2,B|328:8|436:55|473:159|382:222|432:272|432:272|463:290|464:242,1,405
328,148,73946,5,0,0:0:0:0:
192,204,74090,1,0,0:0:0:0:
110,155,74234,1,0,0:0:0:0:
36,189,74378,1,0,0:0:0:0:
107,39,74523,2,0,P|254:38|334:175,1,270
436,37,74955,5,0,0:0:0:0:
475,112,75100,1,0,0:0:0:0:
270,329,75244,1,0,0:0:0:0:
335,199,75388,1,0,0:0:0:0:
498,304,75532,1,0,0:0:0:0:
375,342,75676,1,0,0:0:0:0:
225,262,75821,6,0,B|156:267,1,50.6250019311906
37,322,76109,1,0,0:0:0:0:
41,363,76253,2,0,L|153:355,1,101.250003862381
62,195,76686,1,0,0:0:0:0:
111,20,76830,2,0,L|227:31,1,101.250003862381
253,170,77263,1,0,0:0:0:0:
309,247,77407,2,0,L|512:236,2,202.500007724762
340,83,78128,1,0,0:0:0:0:
321,0,78273,1,0,0:0:0:0:
158,123,78561,5,0,0:0:0:0:
73,285,78705,1,0,0:0:0:0:
0,164,78850,1,0,0:0:0:0:
203,320,78994,1,0,0:0:0:0:
227,201,79138,1,0,0:0:0:0:
311,285,79282,1,0,0:0:0:0:
376,209,79426,1,0,0:0:0:0:
452,260,79571,1,0,0:0:0:0:
511,208,79715,6,0,P|489:84|444:11,2,202.500007724762
311,306,80436,1,0,0:0:0:0:
227,131,80580,1,0,0:0:0:0:
352,111,80725,1,0,0:0:0:0:
127,19,80869,6,0,L|264:35,1,101.250003862381
301,42,81157,1,0,0:0:0:0:
0,160,81301,1,0,0:0:0:0:
0,160,81446,2,0,P|73:151|129:207,1,135
41,272,81878,1,0,0:0:0:0:
179,107,82023,2,0,P|224:207|189:328,1,202.500007724762
459,176,82455,1,0,0:0:0:0:
511,279,82600,2,0,B|499:323|464:334|381:361|393:254|326:224|254:159|158:252|165:380|290:385,1,506.25
280,31,83176,5,0,0:0:0:0:
374,124,83321,1,0,0:0:0:0:
308,209,83465,1,0,0:0:0:0:
354,272,83609,1,0,0:0:0:0:
328,321,83753,1,0,0:0:0:0:
476,116,84042,5,0,0:0:0:0:
476,116,84186,1,0,0:0:0:0:
128,66,84475,1,0,0:0:0:0:
128,66,84619,1,0,0:0:0:0:
128,66,84763,1,0,0:0:0:0:
135,341,84907,5,0,0:0:0:0:
16,83,85196,1,0,0:0:0:0:
96,200,85340,1,0,0:0:0:0:
228,222,85484,1,0,0:0:0:0:
502,283,85773,1,0,0:0:0:0:
434,314,85917,1,0,0:0:0:0:
384,373,86061,1,0,0:0:0:0:
338,172,86350,1,0,0:0:0:0:
256,192,86638,12,0,87792,0:0:0:0:
