osu file format v14

[General]
AudioFilename: audio.mp3
AudioLeadIn: 0
PreviewTime: -1
Countdown: 1
SampleSet: Soft
StackLeniency: 0.7
Mode: 0
LetterboxInBreaks: 0
WidescreenStoryboard: 0

[Editor]
DistanceSpacing: 1
BeatDivisor: 4
GridSize: 4
TimelineZoom: 2.999999

[Metadata]
Title:Hootsforce
TitleUnicode:Hootsforce
Artist:Gloryhammer
ArtistUnicode:Gloryhammer
Creator:PatyYe-
Version:Arise
Source:
Tags:
BeatmapID:2052738
BeatmapSetID:980872

[Difficulty]
HPDrainRate:7
CircleSize:4.2
OverallDifficulty:7
ApproachRate:9.3
SliderMultiplier:3
SliderTickRate:1

[Events]
//Background and Video events
0,0,"gloryhammer-hootsforce-official-video-napalm-records-BkUAzcja74Y.jpg",0,0
//Break Periods
2,47400,55727
//Storyboard Layer 0 (Background)
//Storyboard Layer 1 (Fail)
//Storyboard Layer 2 (Pass)
//Storyboard Layer 3 (Foreground)
//Storyboard Sound Samples

[TimingPoints]
498,324.324324324324,4,2,0,100,1,0
4389,-153.846153846154,4,2,0,100,0,0
13470,-133.333333333333,4,2,0,100,0,0
15416,-100,4,2,0,100,0,0
16065,-153.846153846154,4,2,0,100,0,0
17362,-400.000000000002,4,2,0,100,0,0
18660,-133.333333333334,4,2,0,100,0,0
27741,-222.222222222224,4,2,0,100,0,0
29038,-133.333333333333,4,2,0,100,0,0
32930,-222.222222222221,4,2,0,100,0,0
34227,-100,4,2,0,100,0,0
36822,-133.333333333333,4,2,0,100,0,0
40714,-100,4,2,0,100,0,0
61470,-133.333333333333,4,2,0,100,0,1
83525,-133.333333333333,4,2,0,100,0,0

[HitObjects]
166,120,498,5,0,0:0:0:0:
282,134,2606,6,0,L|351:229,1,75
289,247,2768,2,0,L|190:249,1,75
179,200,2930,2,0,L|244:127,1,75
255,190,3092,1,0,0:0:0:0:
155,96,4389,6,0,B|118:179|118:179|313:50|308:245,1,341.249984378816
399,225,5038,2,0,L|423:28,1,194.999991073609
193,80,5687,5,0,0:0:0:0:
94,75,6984,5,0,0:0:0:0:
211,277,7308,1,0,0:0:0:0:
439,228,7633,1,0,0:0:0:0:
378,42,8281,6,0,B|365:152|197:97|197:97|140:243,1,341.249984378816
87,242,8930,2,0,B|108:336|108:336|224:241|286:271,1,292.499986610413
361,141,9579,5,0,0:0:0:0:
132,189,9903,1,0,0:0:0:0:
310,340,10227,1,0,0:0:0:0:
460,161,10494,1,0,0:0:0:0:
56,61,10876,5,0,0:0:0:0:
72,106,10957,1,0,0:0:0:0:
96,149,11038,1,0,0:0:0:0:
125,188,11119,1,0,0:0:0:0:
159,223,11200,1,0,0:0:0:0:
198,252,11281,1,0,0:0:0:0:
240,276,11362,1,0,0:0:0:0:
286,293,11443,1,0,0:0:0:0:
333,304,11524,5,0,0:0:0:0:
382,308,11605,1,0,0:0:0:0:
425,300,11687,1,0,0:0:0:0:
405,255,11768,1,0,0:0:0:0:
399,207,11849,1,0,0:0:0:0:
396,158,11930,1,0,0:0:0:0:
376,118,12011,1,0,0:0:0:0:
323,91,12092,1,0,0:0:0:0:
267,78,12173,5,0,0:0:0:0:
208,76,12254,1,0,0:0:0:0:
152,90,12335,1,0,0:0:0:0:
107,126,12416,1,0,0:0:0:0:
98,182,12497,1,0,0:0:0:0:
126,233,12578,1,0,0:0:0:0:
161,274,12660,1,0,0:0:0:0:
211,291,12741,1,0,0:0:0:0:
264,294,12822,5,0,0:0:0:0:
316,282,12903,1,0,0:0:0:0:
363,256,12984,1,0,0:0:0:0:
398,216,13065,1,0,0:0:0:0:
416,166,13146,1,0,0:0:0:0:
413,113,13227,1,0,0:0:0:0:
392,64,13308,1,0,0:0:0:0:
344,39,13389,1,0,0:0:0:0:
283,51,13470,6,0,L|109:117,1,168.750006437302
110,171,13795,1,0,0:0:0:0:
190,264,13957,1,0,0:0:0:0:
310,236,14119,2,0,P|226:194|208:88,1,168.750006437302
190,76,14443,1,0,0:0:0:0:
103,180,14606,1,0,0:0:0:0:
90,314,14768,5,0,0:0:0:0:
224,301,14930,1,0,0:0:0:0:
358,306,15092,1,0,0:0:0:0:
445,202,15254,1,0,0:0:0:0:
401,74,15416,2,0,L|215:217,2,225
273,26,16065,6,0,P|187:50|144:103,1,146.249993305207
78,116,16389,2,0,B|117:158|117:158|192:175,1,97.4999955368044
189,279,16714,1,0,0:0:0:0:
189,279,17038,1,0,0:0:0:0:
269,63,17362,6,0,P|336:64|383:111,1,131.25
380,106,18011,1,0,0:0:0:0:
213,172,18660,2,0,B|191:245|191:245|86:264,1,168.750006437302
93,194,18984,1,0,0:0:0:0:
137,66,19146,1,0,0:0:0:0:
267,99,19308,1,0,0:0:0:0:
454,294,19633,2,0,P|414:344|349:335,2,112.500004291535
246,122,20281,5,0,0:0:0:0:
246,122,20606,1,0,0:0:0:0:
23,274,20930,2,0,P|49:331|116:356,2,112.500004291535
293,265,21579,5,0,0:0:0:0:
399,17,21903,1,0,0:0:0:0:
129,36,22227,2,0,L|188:202,1,168.750006437302
221,252,22552,6,0,B|309:218|341:137|328:78|225:19|108:80,1,393.750015020371
141,138,23200,6,0,B|53:172|21:253|34:312|137:371|254:310,1,393.750015020371
225,217,23849,6,0,P|348:175|356:148,1,168.750006437302
311,101,24173,1,0,0:0:0:0:
178,73,24335,1,0,0:0:0:0:
96,180,24497,2,0,P|97:237|127:288,1,112.500004291535
257,264,24822,1,0,0:0:0:0:
321,145,24984,1,0,0:0:0:0:
227,48,25146,5,0,0:0:0:0:
127,139,25308,1,0,0:0:0:0:
203,250,25470,1,0,0:0:0:0:
322,184,25633,1,0,0:0:0:0:
222,92,25795,2,0,P|136:57|87:56,2,112.500004291535
409,285,26443,6,0,P|467:230|457:135,2,168.750006437302
398,200,27092,1,0,0:0:0:0:
422,67,27254,1,0,0:0:0:0:
291,32,27416,2,0,L|266:202,1,168.750006437302
238,261,27741,6,0,P|166:222|130:58,1,236.249992790222
152,54,28389,2,0,P|229:37|387:80,1,236.249992790222
388,114,29038,6,0,P|394:206|362:258,1,112.500004291535
289,316,29362,1,0,0:0:0:0:
153,315,29525,1,0,0:0:0:0:
42,238,29687,2,0,L|85:342,1,112.500004291535
219,352,30011,1,0,0:0:0:0:
351,326,30173,1,0,0:0:0:0:
404,201,30335,6,0,P|383:111|273:35,2,225.000008583069
164,74,31308,1,0,0:0:0:0:
112,198,31470,1,0,0:0:0:0:
151,327,31633,6,0,P|214:256|232:202,1,112.500004291535
252,109,31957,1,0,0:0:0:0:
405,73,32119,1,0,0:0:0:0:
470,191,32281,2,0,B|375:194|450:281|335:234,1,112.500004291535
267,317,32606,1,0,0:0:0:0:
179,214,32768,1,0,0:0:0:0:
102,103,32930,6,0,B|39:178|151:185|79:299,1,202.499993820191
164,298,33579,1,0,0:0:0:0:
244,291,33741,1,0,0:0:0:0:
317,256,33903,2,0,P|381:186|387:156,1,101.249996910095
354,97,34227,5,0,0:0:0:0:
316,72,34308,1,0,0:0:0:0:
274,55,34389,1,0,0:0:0:0:
230,49,34470,1,0,0:0:0:0:
185,54,34551,1,0,0:0:0:0:
143,69,34632,1,0,0:0:0:0:
106,94,34713,1,0,0:0:0:0:
76,128,34794,1,0,0:0:0:0:
57,169,34875,5,0,0:0:0:0:
51,213,34956,1,0,0:0:0:0:
59,257,35037,1,0,0:0:0:0:
81,296,35118,1,0,0:0:0:0:
115,326,35199,1,0,0:0:0:0:
155,346,35281,1,0,0:0:0:0:
200,351,35362,1,0,0:0:0:0:
241,334,35443,1,0,0:0:0:0:
278,308,35524,5,0,0:0:0:0:
319,263,35606,1,0,0:0:0:0:
353,214,35687,1,0,0:0:0:0:
370,157,35768,1,0,0:0:0:0:
353,101,35849,1,0,0:0:0:0:
305,65,35930,1,0,0:0:0:0:
248,48,36011,1,0,0:0:0:0:
188,39,36092,1,0,0:0:0:0:
128,36,36173,5,0,0:0:0:0:
80,72,36254,1,0,0:0:0:0:
70,131,36335,1,0,0:0:0:0:
79,190,36416,1,0,0:0:0:0:
106,243,36497,1,0,0:0:0:0:
148,286,36578,1,0,0:0:0:0:
201,313,36659,1,0,0:0:0:0:
260,323,36740,1,0,0:0:0:0:
256,192,36822,12,0,38119,0:0:0:0:
79,69,40714,5,0,0:0:0:0:
79,69,40876,1,0,0:0:0:0:
411,299,41362,1,0,0:0:0:0:
411,299,41525,1,0,0:0:0:0:
83,62,42011,6,0,P|79:161|96:229,1,150
203,137,42335,1,0,0:0:0:0:
308,220,42497,1,0,0:0:0:0:
67,66,45903,6,0,P|84:155|110:212,2,150
201,55,46389,1,0,0:0:0:0:
334,79,46552,1,0,0:0:0:0:
416,186,46714,2,0,P|328:215|266:196,2,150
358,308,47200,1,0,0:0:0:0:
67,318,56281,6,0,P|84:229|110:172,2,150
201,329,56767,1,0,0:0:0:0:
334,305,56930,1,0,0:0:0:0:
416,198,57092,2,0,P|328:169|266:188,2,150
358,76,57578,1,0,0:0:0:0:
134,249,61470,5,0,0:0:0:0:
134,249,61632,1,0,0:0:0:0:
134,249,61794,1,0,0:0:0:0:
134,249,61956,1,0,0:0:0:0:
134,249,62118,1,0,0:0:0:0:
134,249,62280,1,0,0:0:0:0:
134,249,62442,1,0,0:0:0:0:
134,249,62605,1,0,0:0:0:0:
203,132,62768,6,0,P|292:102|327:104,1,112.500004291535
339,198,63092,1,0,0:0:0:0:
266,268,63254,1,0,0:0:0:0:
353,318,63416,2,0,L|400:273,2,56.2500021457673
264,267,63741,1,0,0:0:0:0:
426,130,63904,1,0,0:0:0:0:
345,70,64065,6,0,L|224:51,1,112.500004291535
146,103,64389,1,0,0:0:0:0:
60,47,64552,1,0,0:0:0:0:
48,147,64714,2,0,L|56:224,2,56.2500021457673
137,193,65038,1,0,0:0:0:0:
98,286,65200,1,0,0:0:0:0:
175,350,65362,6,0,L|293:329,1,112.500004291535
333,240,65687,1,0,0:0:0:0:
381,151,65849,1,0,0:0:0:0:
430,239,66011,2,0,L|445:348,2,56.2500021457673
333,240,66335,1,0,0:0:0:0:
237,272,66497,1,0,0:0:0:0:
149,323,66660,6,0,P|69:344|37:318,1,112.500004291535
88,238,66984,1,0,0:0:0:0:
62,140,67146,1,0,0:0:0:0:
161,160,67308,2,0,L|262:196,2,56.2500021457673
255,121,67633,1,0,0:0:0:0:
334,182,67795,1,0,0:0:0:0:
267,258,67957,6,0,P|231:300|172:327,1,112.500004291535
177,224,68281,1,0,0:0:0:0:
123,138,68443,1,0,0:0:0:0:
114,36,68606,2,0,L|194:54,2,56.2500021457673
55,118,68930,1,0,0:0:0:0:
59,219,69092,1,0,0:0:0:0:
107,307,69254,5,0,0:0:0:0:
236,203,69579,1,0,0:0:0:0:
81,71,69903,2,0,L|58:137,2,56.2500021457673
181,79,70227,1,0,0:0:0:0:
282,73,70389,1,0,0:0:0:0:
382,87,70552,6,0,P|435:168|441:199,1,112.500004291535
411,279,70876,1,0,0:0:0:0:
316,314,71038,1,0,0:0:0:0:
260,229,71200,2,0,L|317:182,2,56.2500021457673
172,280,71525,1,0,0:0:0:0:
111,198,71687,1,0,0:0:0:0:
79,102,71849,6,0,P|143:63|188:67,1,112.500004291535
196,163,72173,1,0,0:0:0:0:
275,225,72335,1,0,0:0:0:0:
364,271,72497,2,0,L|459:262,2,56.2500021457673
277,325,72822,1,0,0:0:0:0:
176,333,72984,1,0,0:0:0:0:
75,321,73146,6,0,L|66:202,1,112.500004291535
160,245,73470,1,0,0:0:0:0:
261,257,73633,1,0,0:0:0:0:
360,276,73795,2,0,L|460:302,2,56.2500021457673
430,203,74119,1,0,0:0:0:0:
458,105,74281,1,0,0:0:0:0:
364,65,74443,5,0,0:0:0:0:
262,69,74606,1,0,0:0:0:0:
163,93,74768,1,0,0:0:0:0:
80,151,74930,1,0,0:0:0:0:
178,174,75092,2,0,L|240:201,2,56.2500021457673
187,274,75416,1,0,0:0:0:0:
272,328,75579,1,0,0:0:0:0:
372,335,75741,6,0,P|436:288|443:244,1,112.500004291535
412,162,76065,1,0,0:0:0:0:
352,80,76227,1,0,0:0:0:0:
444,39,76389,2,0,L|459:104,2,56.2500021457673
347,6,76714,1,0,0:0:0:0:
250,36,76876,1,0,0:0:0:0:
328,99,77038,6,0,L|382:209,1,112.500004291535
330,289,77362,1,0,0:0:0:0:
244,344,77525,1,0,0:0:0:0:
143,351,77687,2,0,L|61:349,2,56.2500021457673
71,279,78011,1,0,0:0:0:0:
154,222,78173,1,0,0:0:0:0:
246,180,78335,6,0,L|285:289,1,112.500004291535
356,214,78660,1,0,0:0:0:0:
381,116,78822,1,0,0:0:0:0:
442,196,78984,2,0,L|475:298,2,56.2500021457673
393,284,79308,1,0,0:0:0:0:
311,344,79470,1,0,0:0:0:0:
412,338,79633,5,0,0:0:0:0:
436,137,79957,1,0,0:0:0:0:
251,54,80281,2,0,L|179:125,2,56.2500021457673
298,144,80606,1,0,0:0:0:0:
270,241,80768,1,0,0:0:0:0:
175,277,80930,6,0,L|48:323,1,112.500004291535
70,214,81254,1,0,0:0:0:0:
97,116,81416,1,0,0:0:0:0:
175,180,81579,2,0,L|253:240,2,56.2500021457673
260,125,81903,1,0,0:0:0:0:
321,204,82065,1,0,0:0:0:0:
267,289,82227,6,0,P|320:337|380:349,1,112.500004291535
408,259,82552,1,0,0:0:0:0:
416,158,82714,1,0,0:0:0:0:
359,73,82876,2,0,P|190:43|50:203,1,393.750015020371
62,238,83525,5,0,0:0:0:0:
86,275,83606,1,0,0:0:0:0:
125,294,83687,1,0,0:0:0:0:
158,266,83768,1,0,0:0:0:0:
177,225,83849,1,0,0:0:0:0:
197,185,83930,1,0,0:0:0:0:
222,148,84011,1,0,0:0:0:0:
259,123,84092,1,0,0:0:0:0:
304,118,84173,5,0,0:0:0:0:
346,131,84254,1,0,0:0:0:0:
385,154,84335,1,0,0:0:0:0:
418,184,84416,1,0,0:0:0:0:
446,220,84497,1,0,0:0:0:0:
448,265,84579,1,0,0:0:0:0:
427,305,84660,1,0,0:0:0:0:
392,264,84741,1,0,0:0:0:0:
381,209,84822,5,0,0:0:0:0:
327,210,84903,1,0,0:0:0:0:
272,205,84984,1,0,0:0:0:0:
235,163,85065,1,0,0:0:0:0:
201,119,85146,1,0,0:0:0:0:
148,117,85227,1,0,0:0:0:0:
105,153,85308,1,0,0:0:0:0:
73,199,85389,1,0,0:0:0:0:
31,236,85470,5,0,0:0:0:0:
25,291,85551,1,0,0:0:0:0:
67,328,85633,1,0,0:0:0:0:
132,341,85714,1,0,0:0:0:0:
199,313,85795,1,0,0:0:0:0:
268,276,85876,1,0,0:0:0:0:
339,230,85957,1,0,0:0:0:0:
