osu file format v14

[General]
AudioFilename: 192.mp3
AudioLeadIn: 0
PreviewTime: 142034
Countdown: 1
SampleSet: Soft
StackLeniency: 0.7
Mode: 0
LetterboxInBreaks: 0
WidescreenStoryboard: 1

[Editor]
Bookmarks: 21543
DistanceSpacing: 1.8
BeatDivisor: 16
GridSize: 4
TimelineZoom: 2.2

[Metadata]
Title:Terran One
TitleUnicode:Terran One
Artist:Glenn Stafford
ArtistUnicode:Glenn Stafford
Creator:RLC
Version:Rebel Yell
Source:
Tags:starcraft blizzard soundtrack ost
BeatmapID:1059946
BeatmapSetID:497972

[Difficulty]
HPDrainRate:6
CircleSize:4
OverallDifficulty:7.4
ApproachRate:8
SliderMultiplier:1.7
SliderTickRate:2

[Events]
//Background and Video events
0,0,"d.jpg",0,0
//Break Periods
//Storyboard Layer 0 (Background)
//Storyboard Layer 1 (Fail)
//Storyboard Layer 2 (Pass)
//Storyboard Layer 3 (Foreground)
//Storyboard Sound Samples

[TimingPoints]
35,444.444444444444,4,2,0,30,1,0
35,-200,4,2,0,30,0,0
21368,-100,4,2,1,40,0,0
34034,-100,4,2,20,40,0,0
34146,-100,4,2,0,40,0,0
35590,-100,4,2,0,40,0,1
64034,-200,4,2,0,40,0,0
77368,-133.333333333333,4,2,0,40,0,0
78257,-100,4,2,0,40,0,0
99590,-133.333333333333,4,2,30,40,0,0
101146,-133.333333333333,4,2,31,40,0,0
103146,-133.333333333333,4,2,30,40,0,0
104701,-133.333333333333,4,2,31,40,0,0
106701,-133.333333333333,4,2,30,40,0,0
108257,-133.333333333333,4,2,31,40,0,0
110257,-133.333333333333,4,2,30,40,0,0
111812,-133.333333333333,4,2,31,40,0,0
113812,-100,4,2,0,40,0,0
138701,-100,4,2,50,40,0,0
138812,-100,4,2,0,40,0,0
140034,-100,4,2,66,40,0,0
141590,-100,4,2,67,40,0,0
142034,-100,4,2,0,40,0,1
142923,-100,4,2,1,40,0,0
143812,-100,4,2,52,60,0,1
143923,-100,4,2,0,40,0,1
144923,-100,4,2,1,40,0,0
145812,-100,4,2,0,40,0,1
146479,-100,4,2,1,40,0,0
147368,-100,4,2,51,60,0,1
147479,-100,4,2,0,40,0,1
148479,-100,4,2,1,40,0,0
149368,-100,4,2,0,40,0,1
150034,-100,4,2,1,40,0,0
150923,-100,4,2,53,60,0,1
151034,-100,4,2,0,40,0,1
152034,-100,4,2,1,40,0,0
152923,-100,4,2,0,40,0,1
153590,-100,4,2,1,40,0,0
154479,-100,4,2,54,60,0,1
154590,-100,4,2,0,40,0,1
155590,-100,4,2,1,40,0,0
156479,-100,4,2,68,60,0,1
156590,-100,4,2,1,40,0,1
157368,-100,4,2,75,60,0,1
157479,-100,4,2,1,40,0,1
170701,-100,4,2,0,40,0,0
206257,-100,4,2,0,30,0,0
213368,-100,4,2,0,40,0,0
220479,-100,4,2,89,55,0,0
220590,-100,4,2,0,40,0,0
224034,-100,4,2,87,55,0,0
224146,-100,4,2,0,40,0,0
225812,-100,4,2,88,55,0,0
225923,-100,4,2,0,40,0,0
227590,-66.6666666666667,4,2,90,55,0,1
228479,-66.6666666666667,4,2,81,55,0,1
228590,-66.6666666666667,4,2,90,55,0,1
229812,-66.6666666666667,4,2,97,55,0,1
229923,-66.6666666666667,4,2,90,55,0,1
230701,-66.6666666666667,4,2,82,55,0,1
230812,-66.6666666666667,4,2,90,55,0,1
232034,-66.6666666666667,4,2,95,55,0,1
232146,-66.6666666666667,4,2,90,55,0,1
233368,-66.6666666666667,4,2,96,55,0,1
233479,-66.6666666666667,4,2,90,55,0,1
233812,-66.6666666666667,4,2,96,55,0,1
233923,-66.6666666666667,4,2,90,55,0,1
234257,-66.6666666666667,4,2,96,55,0,1
234368,-66.6666666666667,4,2,90,55,0,1
235590,-66.6666666666667,4,2,91,70,0,1
235701,-66.6666666666667,4,2,90,55,0,1
237146,-66.6666666666667,4,2,97,55,0,1
237257,-66.6666666666667,4,2,90,55,0,1
237812,-66.6666666666667,4,2,97,55,0,1
237923,-66.6666666666667,4,2,90,55,0,1
238257,-66.6666666666667,4,2,91,70,0,1
238479,-66.6666666666667,4,2,90,55,0,1
240034,-100,4,2,69,55,0,1
240923,-100,4,2,70,55,0,1
241812,-100,4,2,71,70,0,0
242701,-100,4,2,0,5,0,0
248923,-100,4,2,71,70,0,0
249812,-100,4,2,0,5,0,0
257812,-200,4,2,0,30,0,0
292034,-200,4,2,0,5,0,0

[Colours]
Combo1 : 255,0,0
Combo2 : 83,169,255
Combo3 : 192,129,129
Combo4 : 81,255,124
Combo5 : 251,251,251
Combo6 : 255,149,43
Combo7 : 159,159,159
Combo8 : 255,149,255

[HitObjects]
411,74,35,85,0,0:0:0:0:
92,207,1812,2,0,L|180:195,1,85
234,270,2479,2,0,L|146:282,1,85
68,296,3146,1,0,0:0:0:0:
309,348,3590,1,0,0:0:0:0:
202,113,5368,54,0,P|191:157|188:210,1,85
354,202,6034,2,0,P|314:190|272:188,1,85,2|0,0:2|0:0,0:0:0:0:
187,282,6701,2,0,P|207:277|228:270,1,42.5,2|0,0:2|0:0,0:0:0:0:
354,202,7146,54,0,P|399:196|483:206,2,127.5,2|0|0,0:2|0:0|0:0,0:0:0:0:
194,115,8923,2,0,P|167:124|105:133,1,85
254,49,9590,1,2,0:2:0:0:
279,130,9812,1,0,0:0:0:0:
241,208,10034,1,2,0:2:0:0:
321,202,10257,2,0,P|349:197|375:195,1,42.5,0|2,0:0|0:2,0:0:0:0:
457,198,10701,53,0,0:0:0:0:
457,198,10923,1,0,0:0:0:0:
258,241,11368,2,0,P|248:202|248:149,1,85
258,241,12034,2,0,P|268:280|268:333,2,85
185,301,13146,1,2,0:2:0:0:
354,345,13368,1,0,0:0:0:0:
307,171,13590,1,2,0:2:0:0:
258,241,13812,1,0,0:0:0:0:
176,212,14034,1,2,0:2:0:0:
99,253,14257,53,0,0:0:0:0:
99,253,14479,2,0,P|95:294|89:346,1,85,2|2,0:2|0:2,0:0:0:0:
427,131,15368,2,0,P|404:123|383:113,1,42.5
445,51,15812,1,0,0:0:0:0:
321,63,16034,2,0,P|309:100|312:160,1,85
402,208,16701,1,2,0:2:0:0:
319,171,16923,1,0,0:0:0:0:
263,239,17146,1,2,0:2:0:0:
342,271,17368,2,0,L|351:328,1,42.5,0|2,0:0|0:2,0:0:0:0:
319,171,17812,54,0,L|332:78,1,85
413,80,18479,1,2,0:2:0:0:
229,44,18701,1,0,0:0:0:0:
242,132,18923,1,0,0:0:0:0:
160,101,19146,1,0,0:0:0:0:
229,44,19368,1,2,0:2:0:0:
259,217,19590,53,0,0:0:0:0:
259,217,19812,2,0,L|319:210,1,42.5,2|0,0:2|0:0,0:0:0:0:
424,184,20257,2,0,L|434:100,1,85,2|0,0:2|0:0,0:0:0:0:
302,138,20923,1,2,0:2:0:0:
177,99,21146,1,0,0:0:0:0:
53,135,21368,38,0,L|66:221,1,85,0|0,3:0|0:2,0:0:0:0:
65,219,22034,1,0,3:0:0:0:
161,184,22257,2,0,P|199:179|249:178,1,85,2|0,0:3|3:0,0:0:0:0:
346,189,22701,1,0,0:0:0:0:
300,28,22923,1,0,3:0:0:0:
461,74,23146,6,0,P|409:102|290:99,1,170,0|0,3:3|0:0,0:0:0:0:
248,227,23812,2,0,P|242:182|224:140,1,85,2|2,3:2|0:3,0:0:0:0:
396,215,24257,2,0,P|348:253|306:323,1,127.5,2|0,3:2|0:0,0:0:0:0:
305,328,24701,1,0,3:0:0:0:
186,356,24923,102,0,P|104:351|34:282,1,170,0|0,3:0|0:0,0:0:0:0:
106,141,25590,2,0,P|131:187|138:228,1,85,0|2,3:0|0:3,0:0:0:0:
37,213,26034,1,0,0:0:0:0:
161,316,26257,1,0,3:0:0:0:
224,183,26479,2,0,P|274:162|389:186,1,170,0|0,3:0|0:0,0:0:0:0:
117,78,27368,6,0,P|72:103|27:119,1,85,2|2,3:2|0:3,0:0:0:0:
9,233,27812,2,0,P|71:229|143:178,1,127.5,2|0,3:2|0:0,0:0:0:0:
137,178,28257,1,0,3:0:0:0:
268,246,28479,101,0,3:0:0:0:
232,140,28701,2,0,L|215:313,1,170,2|2,0:2|0:2,0:0:0:0:
215,309,29368,1,2,0:3:0:0:
438,168,29590,1,0,3:0:0:0:
340,137,29812,1,0,3:0:0:0:
316,236,30034,1,0,0:0:0:0:
413,267,30257,6,0,P|456:257|497:252,1,85,0|0,3:0|0:0,0:0:0:0:
342,317,30701,1,0,0:0:0:0:
260,353,30923,2,0,P|217:347|176:338,1,85,2|2,3:2|0:3,0:0:0:0:
191,135,31368,2,0,P|224:190|241:251,1,127.5,2|0,3:2|0:0,0:0:0:0:
245,273,31812,1,0,3:0:0:0:
0,281,32034,102,0,B|58:188|157:245|157:245,1,170,0|0,3:0|0:0,0:0:0:0:
174,53,32701,2,0,P|179:105|196:145,1,85,2|2,3:2|0:3,0:0:0:0:
261,209,33146,1,0,0:0:0:0:
153,333,33368,1,0,3:0:0:0:
107,173,33590,1,2,3:2:0:0:
482,249,34034,6,0,P|444:223|404:190,1,85,8|0,0:1|0:1,0:0:0:0:
415,32,34479,2,0,P|407:87|405:130,1,85,0|0,0:1|1:1,0:0:0:0:
371,263,34923,1,0,1:0:0:0:
256,187,35146,2,0,P|311:178|350:167,1,85,0|0,1:0|1:0,0:0:0:0:
398,100,35590,37,4,1:2:0:0:
398,100,35812,1,2,1:2:0:0:
268,142,36034,2,0,L|282:235,1,85,0|2,1:0|1:2,0:0:0:0:
369,316,36479,1,0,1:0:0:0:
469,241,36701,1,2,1:2:0:0:
389,139,36923,1,0,1:0:0:0:
389,139,37368,54,2,B|347:144|305:156|305:156,1,85,0|0,1:1|1:1,0:1:0:0:
205,188,37812,1,0,1:0:0:0:
280,70,38034,2,2,B|351:156|273:236|273:236,1,170,0|2,1:1|1:1,0:1:0:0:
169,355,38701,2,0,B|170:315|193:275|193:275,1,85,0|2,1:0|1:2,0:0:0:0:
193,274,39034,1,2,1:2:0:0:
193,274,39146,53,0,1:0:0:0:
95,294,39368,1,2,1:2:0:0:
185,133,39590,53,0,1:0:0:0:
346,212,39812,1,2,1:2:0:0:
277,270,40034,53,0,1:0:0:0:
329,124,40256,1,2,1:2:0:0:
174,49,40479,2,0,L|187:144,1,85,0|0,1:0|1:0,0:0:0:0:
159,249,40923,54,2,B|190:215|236:199|236:199,1,85,0|2,1:1|1:1,0:1:0:0:
273,38,41368,1,0,1:0:0:0:
419,171,41590,2,2,B|354:183|286:137|286:137,1,127.5,2|2,1:1|0:2,0:1:0:0:
282,127,42034,1,0,1:0:0:0:
357,340,42257,2,0,B|356:292|332:254|332:254,1,85,2|2,1:1|1:2,0:0:0:0:
334,258,42590,1,2,1:2:0:0:
334,258,42701,54,0,L|426:230,1,85,0|2,1:0|1:2,0:0:0:0:
512,265,43146,1,0,1:0:0:0:
336,82,43368,1,2,1:2:0:0:
336,82,43479,1,0,1:0:0:0:
336,82,43590,2,0,P|331:127|320:181,1,85,0|2,1:0|1:2,0:0:0:0:
242,215,44034,1,0,1:0:0:0:
196,99,44257,1,0,1:0:0:0:
80,160,44479,53,2,1:1:0:0:
80,160,44923,1,0,1:0:0:0:
323,161,45146,2,2,B|255:171|201:112|201:112,1,127.5,0|2,1:1|0:2,0:1:0:0:
196,99,45590,1,2,1:1:0:0:
156,226,45812,1,0,1:0:0:0:
271,279,46034,1,2,1:2:0:0:
271,279,46146,1,2,1:2:0:0:
271,279,46257,54,0,L|280:381,1,85,0|2,1:0|1:2,0:0:0:0:
382,342,46701,1,0,1:0:0:0:
305,190,46923,1,2,1:2:0:0:
305,190,47034,1,0,1:0:0:0:
305,190,47146,1,0,1:0:0:0:
409,227,47368,1,2,1:2:0:0:
387,123,47590,2,0,B|382:84|377:38|377:38,1,85,0|0,1:0|1:0,0:0:0:0:
141,152,48034,54,2,B|183:147|227:134|227:134,1,85,0|2,1:1|1:1,0:1:0:0:
294,61,48479,1,0,1:0:0:0:
494,269,48701,2,2,B|433:268|365:288|365:288,1,127.5,0|2,1:1|0:1,0:1:0:0:
344,301,49146,1,0,1:0:0:0:
175,282,49368,1,2,1:1:0:0:
251,353,49590,1,0,1:0:0:0:
275,164,49812,54,0,B|275:206|267:255|267:255,1,85,0|0,1:0|1:2,0:0:0:0:
96,305,50257,1,0,1:0:0:0:
179,198,50479,1,2,1:2:0:0:
82,104,50701,1,0,1:0:0:0:
1,224,50923,1,2,1:2:0:0:
1,224,51146,2,0,L|99:201,1,85,0|0,1:0|1:0,0:0:0:0:
337,107,51590,54,2,L|237:86,1,85,0|0,1:1|1:1,0:1:0:0:
166,42,52034,1,0,1:0:0:0:
110,211,52257,2,2,B|175:130|272:181|272:181,1,170,0|2,1:1|1:1,0:1:0:0:
109,307,52923,1,0,1:0:0:0:
27,156,53146,1,2,1:2:0:0:
27,156,53257,1,2,1:2:0:0:
27,156,53368,54,0,B|18:200|15:247|15:247,1,85,0|2,1:0|1:2,0:0:0:0:
215,234,53812,1,0,1:0:0:0:
14,260,54034,1,2,1:2:0:0:
132,358,54257,2,0,B|132:365|130:317|121:273,1,85,0|2,1:0|1:2,0:0:0:0:
103,186,54701,1,0,1:0:0:0:
215,311,54923,1,0,1:0:0:0:
291,119,55146,54,2,B|362:95|416:156|416:156,1,127.5,0|0,1:1|0:1,0:1:0:0:
423,164,55590,1,0,1:0:0:0:
333,365,55812,2,2,B|258:282|336:204|336:204,1,170,0|2,1:1|1:1,0:1:0:0:
116,279,56479,2,0,B|164:282|207:258|207:258,1,85,2|2,1:1|1:2,0:0:0:0:
198,262,56812,1,2,1:2:0:0:
198,262,56923,54,0,L|190:169,1,85,0|2,1:0|1:2,0:0:0:0:
117,121,57368,1,0,1:0:0:0:
285,92,57590,1,2,1:2:0:0:
285,92,57701,1,0,1:0:0:0:
285,92,57812,2,0,L|272:190,1,85,0|2,1:0|1:2,0:0:0:0:
441,198,58257,2,0,L|357:184,1,85,0|0,1:0|1:0,0:0:0:0:
194,154,58701,53,2,1:1:0:0:
194,154,59146,1,0,1:0:0:0:
264,296,59368,2,2,B|316:250|391:279|391:279,1,127.5,0|2,1:1|0:1,0:1:0:0:
404,285,59812,1,0,1:0:0:0:
180,250,60034,2,0,B|139:269|93:267|93:267,1,85,0|2,1:0|1:2,0:0:0:0:
97,267,60368,1,2,1:2:0:0:
97,267,60479,53,0,1:0:0:0:
113,176,60701,1,2,1:2:0:0:
32,128,60923,1,0,1:0:0:0:
293,93,61146,53,2,1:2:0:0:
293,93,61257,1,0,1:0:0:0:
293,93,61368,1,0,1:0:0:0:
219,30,61590,2,0,B|203:71|205:121|205:121,1,85,2|0,1:2|1:0,0:0:0:0:
263,190,62034,1,0,1:0:0:0:
104,47,62257,53,2,1:1:0:0:
147,249,62479,1,0,1:0:0:0:
147,249,62590,1,0,1:0:0:0:
147,249,62701,1,0,1:0:0:0:
249,79,62923,2,0,L|257:42,3,28.3333333333333,2|0|0|0,1:1|1:0|1:0|1:0,0:0:0:0:
56,207,63368,1,2,1:1:0:0:
230,165,63590,1,0,1:0:0:0:
260,150,63701,1,0,1:0:0:0:
293,150,63812,1,0,1:0:0:0:
324,162,63923,1,0,1:0:0:0:
350,183,64034,102,0,L|360:237,2,42.5,0|0|0,1:0|0:0|0:0,0:0:0:0:
267,315,64701,2,0,L|273:230,1,85,2|2,0:0|0:0,0:0:0:0:
496,154,65812,22,0,P|464:158|444:162,1,42.5
377,179,66257,1,0,0:0:0:0:
354,44,66479,2,0,P|391:49|451:56,1,85,2|2,0:0|0:0,0:0:0:0:
66,236,67590,85,0,0:0:0:0:
123,106,67812,1,0,0:0:0:0:
45,149,68034,1,0,0:0:0:0:
186,178,68257,2,0,L|244:176,1,42.5,2|0,0:0|0:0,0:0:0:0:
175,340,68701,2,0,L|156:258,1,85,2|0,0:0|0:0,0:0:0:0:
311,205,69368,21,0,0:0:0:0:
237,252,69590,1,0,0:0:0:0:
186,178,69812,1,0,0:0:0:0:
262,125,70034,2,0,L|350:133,1,85,2|2,0:0|0:0,0:0:0:0:
444,321,71146,85,0,0:0:0:0:
389,250,71368,1,0,0:0:0:0:
357,333,71590,1,0,0:0:0:0:
475,236,71812,2,0,L|485:226,2,10.625,2|0|0,0:0|0:0|0:0,0:0:0:0:
357,333,72257,1,2,0:0:0:0:
73,190,72923,21,0,0:0:0:0:
138,259,73146,1,0,0:0:0:0:
100,348,73368,1,0,0:0:0:0:
26,281,73590,2,0,L|44:277,2,10.625,2|0|0,0:0|0:0|0:0,0:0:0:0:
197,334,74034,1,2,0:0:0:0:
184,52,74701,86,0,L|176:100,1,42.5
256,128,75146,1,0,0:0:0:0:
334,93,75368,2,0,L|328:52,1,42.5,2|0,0:0|0:0,0:0:0:0:
296,192,75812,2,0,P|254:184|212:192,1,85,2|0,0:0|0:0,0:0:0:0:
136,356,76479,21,0,0:0:0:0:
84,269,76701,1,0,0:0:0:0:
122,173,76923,2,0,L|130:161,4,10.625
136,356,77368,54,0,B|171:256|83:274|126:159,1,191.250007295609,8|0,1:3|0:0,0:0:0:0:
156,99,78257,69,4,1:3:0:0:
288,228,78479,1,2,0:2:0:0:
288,228,78701,2,0,P|232:220|178:202,1,85,0|2,0:0|1:2,0:0:0:0:
380,163,79146,1,8,1:3:0:0:
336,312,79368,2,0,P|418:303|487:350,1,170,2|2,0:3|1:3,0:0:0:0:
297,143,80034,38,0,P|291:198|286:240,1,85,4|2,1:3|0:2,0:0:0:0:
198,167,80479,1,0,0:0:0:0:
395,180,80701,1,2,1:2:0:0:
395,180,80812,1,0,1:0:0:0:
395,180,80923,2,0,P|382:123|381:-3,2,170,8|0|4,1:3|0:0|1:3,0:0:0:0:
433,330,82034,69,2,0:2:0:0:
278,292,82257,2,0,P|323:274|364:263,1,85,0|2,0:0|1:2,0:0:0:0:
490,241,82701,1,8,1:3:0:0:
355,119,82923,2,0,P|304:119|214:210,1,170,2|2,0:3|1:3,0:0:0:0:
150,252,83479,1,0,1:0:0:0:
150,252,83590,38,0,P|141:205|141:155,1,85,4|2,1:3|0:2,0:0:0:0:
127,351,84034,2,0,P|86:333|38:293,1,85,0|2,0:0|1:2,0:0:0:0:
253,252,84479,2,0,B|341:224|329:299|438:273,1,170,8|0,1:3|1:0,0:0:0:0:
280,343,85146,1,2,1:3:0:0:
331,55,85368,70,0,P|384:96|385:202,1,170,4|0,1:3|0:0,0:0:0:0:
306,247,86034,1,2,1:2:0:0:
224,169,86257,2,0,P|276:156|317:142,1,85,8|2,1:3|0:3,0:0:0:0:
212,261,86701,2,0,P|194:324|186:362,1,85,0|2,0:0|1:3,0:0:0:0:
189,342,87034,1,0,1:0:0:0:
189,342,87146,38,0,L|39:317,1,127.5,4|2,1:3|0:2,0:0:0:0:
44,326,87590,1,0,0:0:0:0:
232,199,87812,1,2,1:2:0:0:
281,289,88034,2,0,L|413:308,1,127.5,8|2,1:3|0:3,0:0:0:0:
407,307,88479,2,0,P|416:253|425:216,1,85,0|2,1:0|1:3,0:0:0:0:
469,121,88923,69,12,1:3:0:0:
324,71,89146,2,0,L|339:160,1,85,2|0,0:2|0:0,0:0:0:0:
356,252,89590,1,2,0:2:0:0:
198,125,89812,2,0,L|184:264,1,127.5,8|2,1:3|0:3,0:0:0:0:
267,302,90257,2,0,P|273:250|273:205,1,85,0|2,0:0|1:3,0:0:0:0:
273,218,90590,1,0,1:0:0:0:
273,218,90701,37,4,1:3:0:0:
351,133,90923,2,0,P|399:131|438:141,1,85,2|0,0:2|0:0,0:0:0:0:
509,217,91368,1,2,1:2:0:0:
375,354,91590,1,8,1:3:0:0:
375,354,91812,2,0,P|399:302|401:222,1,127.5,2|0,1:3|0:0,0:0:0:0:
401,211,92257,1,2,1:3:0:0:
284,135,92479,54,0,L|457:111,1,170,0|0,1:0|0:0,0:0:0:0:
255,248,93146,1,0,1:0:0:0:
165,196,93368,2,0,L|35:216,1,127.5,0|0,1:0|0:0,0:0:0:0:
38,215,93812,1,0,1:0:0:0:
165,196,94034,54,0,L|176:108,1,85,0|0,1:0|0:0,0:0:0:0:
103,52,94479,1,2,0:0:0:0:
323,229,94923,1,0,1:0:0:0:
407,152,95146,2,0,P|453:154|507:171,1,85,0|0,1:0|1:0,0:0:0:0:
490,163,95812,1,0,1:0:0:0:
420,67,96034,54,0,P|358:66|260:136,1,170,0|0,1:0|0:0,0:0:0:0:
323,280,96701,1,0,1:0:0:0:
193,160,96923,2,0,P|254:160|322:192,1,127.5,0|0,1:0|0:0,0:0:0:0:
314,186,97368,1,0,1:0:0:0:
239,335,97590,54,0,P|238:282|246:242,1,85,0|0,1:0|0:0,0:0:0:0:
403,157,98034,2,0,P|404:210|396:250,1,85,2|0,1:2|0:0,0:0:0:0:
352,355,98479,1,0,1:0:0:0:
480,248,98701,1,0,1:0:0:0:
314,186,98923,1,0,1:0:0:0:
384,261,99146,53,0,1:0:0:0:
408,74,99368,1,0,1:0:0:0:
477,148,99590,70,0,P|444:162|396:168,1,63.7500024318696,4|0,3:2|0:0,0:0:0:0:
400,168,99923,1,0,0:0:0:0:
384,168,100034,1,8,0:0:0:0:
327,98,100257,1,0,0:0:0:0:
122,140,100479,2,0,P|183:124|246:136,1,127.500004863739,2|8,0:3|3:2,0:0:0:0:
194,345,101146,86,0,P|207:295|191:221,1,127.500004863739,4|0,3:2|0:0,0:0:0:0:
191,221,101701,1,0,0:0:0:0:
191,221,101812,1,8,0:0:0:0:
265,152,102034,1,0,0:0:0:0:
204,236,102257,2,0,P|163:251|140:256,1,63.7500024318696,2|0,0:3|0:0,0:0:0:0:
301,266,102701,1,8,0:0:0:0:
470,117,102923,21,0,3:2:0:0:
470,117,103146,2,0,P|431:134|361:138,1,95.6250036478044,4|0,3:2|0:0,0:0:0:0:
265,62,103590,2,0,P|302:53|334:52,1,63.7500024318696,8|0,0:0|0:0,0:0:0:0:
318,204,104034,2,0,P|283:195|252:174,1,63.7500024318696,2|0,0:3|0:0,0:0:0:0:
178,115,104479,1,8,3:2:0:0:
174,231,104701,86,0,P|185:273|184:363,1,127.500004863739,4|0,3:2|0:0,0:0:0:0:
185,356,105368,1,8,0:0:0:0:
339,293,105590,1,0,0:0:0:0:
339,293,105701,1,0,0:0:0:0:
339,293,105812,2,0,L|267:284,1,63.7500024318696,2|0,0:3|0:0,0:0:0:0:
164,267,106257,1,8,0:0:0:0:
313,156,106479,21,0,3:2:0:0:
313,156,106701,2,0,L|203:173,1,95.6250036478044,4|0,3:2|0:0,0:0:0:0:
94,225,107146,2,0,L|181:211,1,63.7500024318696,8|0,0:0|0:0,0:0:0:0:
399,121,107590,2,0,L|312:135,1,63.7500024318696,2|0,0:3|0:0,0:0:0:0:
247,93,108034,1,8,3:2:0:0:
486,65,108257,86,0,P|495:128|479:190,1,127.500004863739,4|0,3:2|0:0,0:0:0:0:
479,190,108812,1,0,0:0:0:0:
479,190,108923,1,8,0:0:0:0:
395,171,109146,1,0,0:0:0:0:
358,319,109368,2,0,P|367:277|367:242,1,63.7500024318696,2|0,0:3|0:0,0:0:0:0:
305,198,109812,1,8,0:0:0:0:
62,214,110034,21,0,3:2:0:0:
62,214,110257,2,0,P|119:212|180:186,1,95.6250036478044,4|0,3:2|0:0,0:0:0:0:
225,238,110701,2,0,L|217:304,1,63.7500024318696,8|0,0:0|0:0,0:0:0:0:
297,134,111146,2,0,L|305:200,1,63.7500024318696,2|0,0:3|0:0,0:0:0:0:
375,253,111590,1,8,3:2:0:0:
226,102,111812,86,0,L|374:84,1,127.500004863739,4|0,3:2|0:0,0:0:0:0:
435,55,112479,1,8,0:2:0:0:
474,255,112701,1,0,1:0:0:0:
355,220,112923,1,2,1:3:0:0:
486,261,113146,1,0,1:0:0:0:
343,215,113368,2,0,L|281:200,1,63.7500024318696,8|0,1:2|1:0,0:0:0:0:
184,98,113812,22,0,L|318:81,1,127.5,0|0,1:0|0:0,0:0:0:0:
206,183,114257,2,0,L|219:278,1,85,2|0,0:2|1:0,0:0:0:0:
221,287,114590,1,0,1:0:0:0:
223,308,114701,1,0,1:0:0:0:
118,173,114923,2,0,L|33:184,1,85,2|0,0:2|1:0,0:0:0:0:
0,342,115368,54,0,B|107:362|145:255|145:255,1,170,0|0,1:0|0:0,0:0:0:0:
139,268,115923,1,0,0:2:0:0:
139,268,116034,1,2,0:0:0:0:
148,131,116257,1,0,1:2:0:0:
308,194,116479,2,0,B|270:227|218:217|218:217,1,85,0|0,1:0|0:0,0:0:0:0:
168,36,116923,2,0,B|216:47|233:89|233:89,1,85,2|0,0:2|1:0,0:0:0:0:
411,212,117368,53,0,1:0:0:0:
439,53,117590,1,2,0:2:0:0:
439,53,117701,1,2,0:2:0:0:
439,53,117812,1,0,0:0:0:0:
508,152,118034,1,2,1:2:0:0:
338,119,118257,2,0,P|333:176|330:206,1,85,0|2,1:0|0:2,0:0:0:0:
319,292,118701,1,0,1:0:0:0:
454,347,118923,54,0,B|506:254|430:188|430:188,1,170,0|0,1:0|0:0,0:0:0:0:
238,313,119590,2,0,B|285:318|322:289|322:289,1,85,2|0,0:2|1:0,0:0:0:0:
294,152,120034,1,0,1:0:0:0:
412,263,120257,1,0,1:0:0:0:
484,115,120479,2,0,B|487:117|450:88|403:93,1,85,2|0,0:2|1:0,0:0:0:0:
214,201,120923,54,0,L|200:107,1,85,0|2,1:0|0:2,0:0:0:0:
195,96,121257,1,2,0:2:0:0:
192,74,121368,1,0,0:0:0:0:
109,142,121590,1,2,1:2:0:0:
214,201,121812,2,0,L|204:339,1,127.5,0|2,1:0|0:2,0:0:0:0:
205,349,122257,1,0,1:0:0:0:
305,183,122479,54,0,B|201:205|167:104|167:104,1,170,0|0,1:0|0:0,0:0:0:0:
168,108,123034,1,0,0:0:0:0:
168,108,123146,1,2,0:2:0:0:
242,276,123368,1,0,1:0:0:0:
382,105,123590,2,0,B|421:81|466:89|466:89,1,85,0|0,1:0|1:0,0:0:0:0:
437,316,124034,2,0,B|391:311|360:278|360:278,1,85,2|0,0:2|1:0,0:0:0:0:
254,195,124479,54,0,L|340:184,1,85,0|2,1:0|0:2,0:0:0:0:
338,184,124812,1,2,0:2:0:0:
338,184,124923,1,0,0:0:0:0:
265,101,125146,1,2,1:2:0:0:
229,221,125368,2,0,L|94:239,1,127.5,0|2,1:0|0:2,0:0:0:0:
85,250,125812,1,0,1:0:0:0:
59,118,126034,54,0,L|54:66,2,42.5,0|0|0,1:0|0:0|0:0,0:0:0:0:
169,249,126479,1,2,0:2:0:0:
34,342,126701,1,2,0:2:0:0:
213,154,126923,53,0,1:0:0:0:
213,154,127034,1,0,1:0:0:0:
213,154,127146,1,0,1:0:0:0:
241,316,127368,1,0,1:0:0:0:
143,252,127590,1,2,0:2:0:0:
306,218,127812,1,2,0:2:0:0:
453,340,128034,22,0,P|463:299|466:256,1,85,0|2,1:0|0:2,0:0:0:0:
473,130,128479,1,2,0:2:0:0:
344,103,128701,1,0,1:0:0:0:
344,103,128812,1,0,1:0:0:0:
344,103,128923,2,0,P|347:150|363:200,1,85,0|2,1:0|0:2,0:0:0:0:
390,284,129368,1,0,1:0:0:0:
205,241,129590,86,2,P|265:241|367:174,1,170,0|2,1:1|0:1,0:1:0:0:
368,167,130146,1,0,0:0:0:0:
375,147,130257,1,0,0:0:0:0:
295,318,130479,1,2,1:1:0:0:
174,136,130701,2,2,P|216:137|257:148,1,85,0|0,1:1|0:1,0:1:0:0:
99,84,131146,1,2,0:2:0:0:
77,177,131368,1,2,1:2:0:0:
5,110,131590,21,0,1:0:0:0:
177,158,131812,1,2,0:2:0:0:
177,158,131923,1,2,0:2:0:0:
177,158,132034,1,0,0:0:0:0:
91,279,132257,1,2,1:2:0:0:
297,245,132479,1,0,1:0:0:0:
297,245,132923,1,0,1:0:0:0:
308,136,133146,86,2,P|371:141|481:150,1,170,0|2,1:1|0:1,0:1:0:0:
190,181,133812,1,0,0:0:0:0:
142,62,134034,1,2,1:1:0:0:
264,22,134257,2,2,P|259:77|253:119,1,85,0|2,1:1|1:1,0:1:0:0:
221,351,134701,2,0,P|226:296|232:254,1,85,2|0,0:1|1:0,0:0:0:0:
230,266,135146,22,0,L|94:253,1,127.5,0|2,1:0|0:2,0:0:0:0:
81,252,135590,1,0,0:0:0:0:
142,346,135812,1,2,1:2:0:0:
268,184,136034,2,0,P|311:172|359:172,1,85,0|0,1:0|0:0,0:0:0:0:
417,253,136479,1,0,1:0:0:0:
487,85,136701,86,2,P|435:94|347:178,1,170,0|2,1:1|0:1,0:1:0:0:
349,191,137257,1,0,0:0:0:0:
351,212,137368,1,0,0:0:0:0:
326,61,137590,1,2,1:1:0:0:
249,172,137812,2,2,L|245:271,1,85,0|0,1:1|1:1,0:1:0:0:
153,152,138257,1,2,0:2:0:0:
137,249,138479,1,2,1:2:0:0:
58,104,138701,21,8,1:1:0:0:
190,72,138923,1,2,0:2:0:0:
190,72,139034,1,2,0:2:0:0:
190,72,139146,1,0,0:0:0:0:
316,122,139368,1,2,1:2:0:0:
445,80,139590,1,0,1:0:0:0:
445,80,140034,1,8,1:2:0:0:
230,145,140257,1,2,1:1:0:0:
230,145,140368,1,0,0:0:0:0:
230,145,140479,86,0,L|244:254,1,85,0|2,0:2|0:1,0:1:0:0:
457,249,140923,2,2,L|356:263,1,85,0|10,0:1|1:1,0:1:0:0:
351,260,141257,1,0,1:0:0:0:
332,268,141368,1,0,1:1:0:0:
316,147,141590,1,10,1:1:0:0:
343,28,141812,1,2,1:1:0:0:
179,55,142034,70,0,P|218:60|263:68,1,85,0|0,1:2|0:0,0:0:0:0:
414,98,142479,1,0,1:0:0:0:
209,149,142701,1,0,1:0:0:0:
365,184,142923,2,0,P|371:115|400:-2,2,170,8|2|10,1:2|0:2|1:1,0:0:0:0:
396,317,144034,21,0,1:0:0:0:
238,298,144257,2,0,P|291:283|328:264,1,85,2|2,1:1|0:2,0:0:0:0:
433,190,144701,1,0,1:0:0:0:
118,199,144923,2,0,P|182:192|265:221,1,127.5,12|0,1:2|0:0,0:0:0:0:
319,156,145368,2,0,P|281:132|227:116,1,85,0|2,1:0|1:2,0:0:0:0:
243,118,145701,1,2,1:2:0:0:
243,118,145812,85,0,1:0:0:0:
281,299,146034,1,2,1:2:0:0:
423,186,146257,1,0,1:0:0:0:
178,261,146479,2,0,L|360:241,2,170,8|2|10,1:2|0:2|1:1,0:0:0:0:
54,118,147590,21,0,1:0:0:0:
69,276,147812,2,0,P|97:224|109:185,1,85,2|2,1:1|0:2,0:0:0:0:
188,104,148257,1,0,1:0:0:0:
224,374,148479,2,0,P|187:324|184:230,1,127.5,12|0,1:2|0:0,0:0:0:0:
179,239,148923,1,0,1:0:0:0:
246,157,149146,1,2,1:2:0:0:
340,213,149368,85,0,1:0:0:0:
317,66,149590,1,2,1:2:0:0:
396,127,149812,1,0,1:0:0:0:
225,157,150034,2,0,B|160:150|160:150|122:167|122:167|45:162,1,170,8|2,1:2|0:2,0:0:0:0:
379,257,150923,1,10,1:1:0:0:
298,305,151146,22,0,B|287:264|287:264|298:211,1,85,0|2,1:0|1:1,0:0:0:0:
368,164,151590,1,2,0:2:0:0:
404,344,151812,1,0,1:0:0:0:
506,265,152034,2,0,L|355:255,1,127.5,12|0,1:2|0:0,0:0:0:0:
368,164,152479,2,0,L|380:75,1,85,0|2,1:0|1:2,0:0:0:0:
384,63,152812,1,2,1:2:0:0:
384,46,152923,85,0,1:0:0:0:
495,59,153146,1,2,1:2:0:0:
479,173,153368,1,0,1:0:0:0:
282,100,153590,2,0,L|294:282,1,170,8|2,1:2|0:2,0:0:0:0:
78,66,154479,21,10,1:0:0:0:
59,166,154701,2,0,P|107:158|154:136,1,85,0|2,1:0|1:1,0:0:0:0:
216,81,155146,1,2,0:2:0:0:
141,269,155368,1,0,1:0:0:0:
352,200,155590,2,2,P|299:185|221:190,1,127.5,12|2,1:2|0:1,0:1:0:0:
208,197,156034,1,0,1:0:0:0:
235,290,156257,1,2,1:1:0:0:
352,200,156479,85,8,1:0:0:0:
295,357,156701,1,2,1:1:0:0:
149,266,156923,1,8,1:2:0:0:
403,290,157146,2,0,L|318:281,1,85,2|8,1:2|0:1,0:0:0:0:
149,266,157590,1,2,1:2:0:0:
222,154,157812,2,0,P|232:195|233:237,1,85,12|2,1:2|1:1,0:0:0:0:
83,108,158257,102,2,P|137:98|172:90,1,85,0|2,1:1|1:1,0:1:0:0:
328,43,158701,1,8,1:2:0:0:
199,87,158923,1,2,0:2:0:0:
324,73,159146,2,0,L|312:215,1,127.5,2|0,1:1|0:0,0:0:0:0:
415,196,159590,2,0,L|407:289,1,85,12|2,1:2|1:2,0:0:0:0:
402,301,159923,1,2,1:2:0:0:
402,322,160034,5,0,1:0:0:0:
321,217,160257,1,2,1:1:0:0:
418,112,160479,1,8,1:2:0:0:
312,28,160701,2,0,L|322:118,1,85,2|0,1:2|0:0,0:0:0:0:
237,232,161146,2,0,L|324:216,1,85,2|12,1:2|1:2,0:0:0:0:
62,286,161590,1,2,1:1:0:0:
157,173,161812,102,2,P|148:226|146:274,1,85,0|2,1:1|1:1,0:1:0:0:
193,332,162257,1,8,1:2:0:0:
475,191,162701,2,2,P|416:185|330:147,1,127.5,0|0,1:1|0:1,0:1:0:0:
271,172,163146,2,0,P|281:125|298:86,1,85,12|2,1:2|1:2,0:0:0:0:
307,73,163479,1,2,1:2:0:0:
324,61,163590,5,0,1:0:0:0:
362,255,163812,1,2,1:1:0:0:
424,98,164034,1,8,1:2:0:0:
271,172,164257,2,0,L|176:183,1,85,2|0,1:2|0:0,0:0:0:0:
289,277,164701,1,2,1:2:0:0:
380,223,164923,2,0,L|475:212,1,85,12|0,1:2|1:0,0:0:0:0:
464,213,165257,1,0,1:0:0:0:
464,213,165368,102,2,L|484:304,1,85,0|2,1:1|1:1,0:1:0:0:
373,256,165812,1,8,1:2:0:0:
394,354,166034,1,2,0:2:0:0:
145,268,166257,2,0,P|208:273|273:304,1,127.5,2|0,1:1|0:0,0:0:0:0:
295,317,166701,1,12,1:2:0:0:
162,178,166923,1,2,1:2:0:0:
162,178,167034,1,2,1:2:0:0:
162,178,167146,6,2,P|175:133|181:86,1,85,0|2,1:1|1:1,0:1:0:0:
52,252,167590,1,8,1:2:0:0:
7,108,167812,2,0,P|57:108|93:118,1,85,2|0,1:2|0:0,0:0:0:0:
224,262,168257,2,0,P|182:272|140:271,1,85,2|12,1:2|1:2,0:0:0:0:
265,163,168701,1,2,1:1:0:0:
326,248,168923,102,2,L|335:338,1,85,0|2,1:1|1:1,0:1:0:0:
228,212,169368,1,8,1:2:0:0:
419,268,169590,1,2,0:2:0:0:
240,304,169812,2,2,L|262:132,1,170,0|12,1:1|1:2,0:1:0:0:
261,135,170479,1,0,1:0:0:0:
345,71,170701,37,0,1:0:0:0:
288,228,170923,1,0,1:0:0:0:
162,125,171146,1,0,1:0:0:0:
72,177,171368,2,0,P|68:234|59:276,1,85,2|0,0:2|0:0,0:0:0:0:
162,125,171812,2,0,P|171:176|175:212,1,85,2|0,0:2|0:0,0:0:0:0:
152,347,172257,1,0,1:0:0:0:
329,327,172479,5,0,1:0:0:0:
174,227,172701,1,0,1:0:0:0:
323,217,172923,1,2,0:2:0:0:
323,217,173368,2,2,P|315:163|347:35,1,170,2|2,0:2|0:1,0:1:0:0:
329,327,174034,1,0,1:0:0:0:
229,287,174257,102,0,P|181:285|135:293,1,85,0|0,1:0|1:0,0:0:0:0:
51,339,174701,1,0,1:0:0:0:
176,204,174923,2,0,P|174:269|196:375,1,170,2|2,0:2|0:2,0:0:0:0:
242,98,175590,1,0,1:0:0:0:
138,27,175812,1,0,1:0:0:0:
72,142,176034,6,0,P|117:134|168:118,1,85,0|0,1:0|1:0,0:0:0:0:
432,179,176479,2,0,P|387:187|334:200,1,85,2|0,0:2|0:0,0:0:0:0:
348,195,176923,2,2,L|341:47,1,127.5,2|2,0:2|0:1,0:1:0:0:
341,44,177368,1,2,0:1:0:0:
427,261,177590,1,0,1:0:0:0:
292,278,177812,102,0,L|280:366,1,85,0|0,1:0|1:0,0:0:0:0:
235,188,178257,1,0,1:0:0:0:
38,328,178479,2,0,P|93:330|203:257,1,170,2|2,0:2|0:2,0:0:0:0:
138,193,179146,1,0,1:0:0:0:
182,26,179368,6,0,P|193:78|201:117,1,85,0|0,1:0|1:0,0:0:0:0:
300,236,179812,1,0,1:0:0:0:
361,70,180034,2,0,L|302:133,1,85,2|0,0:2|0:0,0:0:0:0:
300,236,180479,2,2,L|469:261,1,170,2|2,0:2|0:1,0:1:0:0:
468,260,181146,1,0,0:0:0:0:
406,338,181368,102,0,L|309:323,1,85
227,281,181812,2,0,L|238:378,2,85,0|2|0,0:2|0:2|0:2,0:2:0:0:
327,159,182479,2,0,L|308:252,1,85,2|0,0:2|0:0,0:0:0:0:
310,243,182923,6,0,P|360:256|464:191,1,170
458,201,183590,1,2,0:2:0:0:
466,209,184034,2,0,L|476:300,1,85,2|0,0:2|0:1,0:1:0:0:
482,98,184479,1,2,0:2:0:0:
262,274,184923,54,0,L|170:261,1,85,2|0,0:2|0:0,0:0:0:0:
150,247,185257,2,0,P|158:311|136:391,1,127.5,2|2,0:2|0:2,0:0:0:0:
58,182,185812,1,0,0:0:0:0:
58,182,185923,2,0,P|102:178|146:156,1,85,2|0,0:2|0:0,0:2:0:0:
214,167,186257,1,2,0:2:0:0:
239,189,186368,1,0,0:0:0:0:
271,200,186479,1,2,0:2:0:0:
304,200,186590,1,0,0:0:0:0:
336,190,186701,101,2,0:2:0:0:
293,26,186923,1,0,0:0:0:0:
293,26,187034,2,0,P|281:73|283:119,1,85,2|0,0:0|0:0,0:0:0:0:
365,113,187368,1,2,0:0:0:0:
408,326,187590,1,0,0:0:0:0:
408,326,187701,2,0,P|407:283|396:242,1,85,2|0,0:0|0:0,0:0:0:0:
386,210,188034,2,0,L|442:217,3,42.5,2|0|2|0,0:0|0:0|0:0|0:0,0:0:0:0:
326,281,188479,6,0,P|285:284|235:314,1,85,2|0,0:0|0:0,0:0:0:0:
225,326,188812,2,0,P|164:324|93:281,1,127.5,2|2,0:0|0:0,0:0:0:0:
170,123,189368,1,0,0:0:0:0:
170,123,189479,2,0,P|182:165|186:214,1,85,2|0,0:0|0:0,0:0:0:0:
186,232,189812,2,0,P|227:212|270:205,1,85,2|2,0:0|0:0,0:0:0:0:
473,218,190257,102,0,L|335:232,2,127.5,2|2|2,0:0|0:0|0:0,0:0:0:0:
435,65,191146,1,0,0:0:0:0:
435,65,191257,2,0,L|345:74,1,85,2|0,0:0|0:0,0:0:0:0:
282,98,191590,1,2,0:0:0:0:
282,98,191701,1,0,0:0:0:0:
282,98,191812,1,2,0:0:0:0:
282,98,191923,1,0,0:0:0:0:
282,98,192034,6,0,P|268:142|266:198,1,85,2|0,0:0|0:0,0:0:0:0:
325,286,192368,2,0,P|341:232|345:151,1,127.5,2|2,0:0|0:0,0:0:0:0:
99,251,192923,1,0,0:0:0:0:
99,251,193034,2,0,P|142:237|196:235,1,85,2|0,0:0|0:0,0:0:0:0:
247,280,193368,1,2,0:0:0:0:
259,248,193479,1,0,0:0:0:0:
259,214,193590,1,2,0:0:0:0:
246,182,193701,1,0,0:0:0:0:
221,158,193812,102,0,L|207:19,1,127.5,2|2,0:0|0:0,0:0:0:0:
208,31,194257,1,0,0:0:0:0:
445,104,194479,2,0,P|393:112|301:92,1,127.5,2|2,0:0|0:0,0:0:0:0:
319,99,194923,1,0,0:0:0:0:
45,187,195146,2,0,P|86:174|134:172,1,85,2|2,0:0|0:0,0:0:0:0:
127,171,195479,1,0,0:0:0:0:
127,171,195590,6,0,L|146:266,1,85,2|0,0:0|0:0,0:0:0:0:
151,286,195923,2,0,P|204:296|285:268,1,127.5,2|2,0:0|0:0,0:0:0:0:
472,277,196479,1,0,0:0:0:0:
472,277,196590,2,0,P|414:282|379:296,1,85,2|0,0:0|0:0,0:0:0:0:
354,311,196923,2,0,P|358:261|351:219,1,85,2|2,0:0|0:0,0:0:0:0:
283,148,197368,102,0,L|272:291,2,127.5,2|2|2,0:0|0:0|0:0,0:0:0:0:
374,85,198257,1,0,0:0:0:0:
374,85,198368,2,0,P|383:137|380:182,1,85,2|0,0:0|0:0,0:0:0:0:
284,138,198701,2,0,L|232:131,3,42.5,2|0|2|0,0:0|0:0|0:0|0:0,0:0:0:0:
206,130,199146,5,2,0:0:0:0:
106,186,199368,1,0,0:0:0:0:
96,200,199479,1,2,0:0:0:0:
105,68,199701,1,0,0:0:0:0:
97,52,199812,1,2,0:0:0:0:
192,214,200034,1,0,0:0:0:0:
192,214,200146,2,0,L|294:227,1,85,2|0,0:0|0:0,0:0:0:0:
351,254,200479,1,2,0:0:0:0:
367,251,200590,1,0,0:0:0:0:
383,248,200701,1,2,0:0:0:0:
399,245,200812,1,0,0:0:0:0:
415,243,200923,69,2,0:0:0:0:
360,167,201146,1,0,0:0:0:0:
349,153,201257,1,2,0:0:0:0:
389,334,201479,1,0,0:0:0:0:
383,350,201590,1,2,0:0:0:0:
483,201,201812,1,0,0:0:0:0:
483,201,201923,2,0,B|497:243|497:243|486:286,1,85,2|0,0:0|0:0,0:0:0:0:
415,243,202257,1,2,0:0:0:0:
399,240,202368,1,0,0:0:0:0:
383,237,202479,1,2,0:0:0:0:
367,234,202590,1,0,0:0:0:0:
351,232,202701,37,2,0:0:0:0:
262,73,202923,1,0,0:0:0:0:
258,88,203034,1,2,0:0:0:0:
120,131,203257,1,0,0:0:0:0:
124,146,203368,1,2,0:0:0:0:
264,185,203590,1,0,0:0:0:0:
260,200,203701,1,2,0:0:0:0:
122,243,203924,1,0,0:0:0:0:
126,258,204035,1,2,0:0:0:0:
272,295,204257,1,2,0:0:0:0:
268,311,204368,1,0,0:0:0:0:
263,328,204479,70,0,L|173:339,1,85,2|0,0:0|0:0,0:0:0:0:
148,331,204812,2,0,L|153:374,1,42.5,2|0,0:0|0:0,0:0:0:0:
78,158,205146,2,0,L|168:169,1,85,2|0,0:0|0:0,0:0:0:0:
193,161,205479,2,0,L|188:204,1,42.5,2|0,0:0|0:0,0:0:0:0:
431,59,205812,1,2,0:0:0:0:
431,59,205923,1,0,0:0:0:0:
431,59,206034,2,0,L|383:74,1,42.5,2|0,0:0|0:0,0:0:0:0:
281,101,206257,86,0,L|232:91,2,42.5,2|2|0,1:2|1:2|0:0,0:0:0:0:
304,109,206590,2,0,L|292:205,1,85,0|0,1:0|1:0,0:0:0:0:
208,271,206923,2,0,P|158:269|79:214,1,127.5,2|0,1:2|1:0,0:0:0:0:
82,206,207368,1,0,1:0:0:0:
167,81,207590,2,0,L|179:177,1,85,2|0,1:2|1:0,0:0:0:0:
264,108,208034,21,2,1:2:0:0:
278,106,208146,1,2,1:2:0:0:
82,138,208368,1,0,1:0:0:0:
256,325,208590,1,0,1:0:0:0:
256,325,208701,2,0,P|265:269|248:189,1,127.5,2|0,1:2|1:0,0:0:0:0:
177,165,209146,1,0,1:0:0:0:
95,289,209368,2,0,P|154:269|185:269,1,85,0|2,1:2|1:2,0:0:0:0:
445,145,209812,86,0,L|436:200,2,42.5,2|2|0,1:2|1:2|0:0,0:0:0:0:
450,119,210146,2,0,L|351:132,1,85,0|0,1:0|1:0,0:0:0:0:
308,297,210479,2,0,L|451:277,1,127.5,2|0,1:2|1:0,0:0:0:0:
457,288,210923,1,0,1:0:0:0:
235,237,211146,1,2,1:2:0:0:
224,333,211368,1,0,1:0:0:0:
158,167,211590,21,2,1:2:0:0:
158,167,211701,2,0,P|200:162|247:153,1,85,2|0,1:2|1:0,0:0:0:0:
472,243,212146,1,0,1:0:0:0:
472,243,212257,2,0,P|426:220|334:232,1,127.5,2|0,1:2|1:0,0:0:0:0:
319,300,212701,1,0,1:0:0:0:
309,61,212923,2,0,L|320:158,1,85,0|2,1:0|1:2,0:0:0:0:
318,145,213257,1,0,1:0:0:0:
318,145,213368,86,0,L|374:150,2,42.5,2|2|0,1:2|1:2|0:0,0:0:0:0:
228,186,213701,2,0,B|216:144|216:144|226:103,1,85,0|0,1:0|1:0,0:0:0:0:
299,258,214034,2,0,P|249:283|155:264,1,127.5,2|0,1:2|1:0,0:0:0:0:
155,267,214479,1,0,1:0:0:0:
382,219,214701,2,0,B|393:260|393:260|383:301,1,85,2|0,1:2|1:0,0:0:0:0:
257,360,215146,21,2,1:2:0:0:
257,360,215257,2,0,L|246:254,1,85,2|0,1:2|1:0,0:0:0:0:
114,126,215701,1,0,1:0:0:0:
114,126,215812,2,0,B|151:160|151:160|140:258,1,127.5,2|0,1:2|1:0,0:0:0:0:
66,269,216257,1,0,1:0:0:0:
64,247,216368,1,0,1:0:0:0:
62,225,216479,1,0,1:0:0:0:
223,284,216701,1,2,1:2:0:0:
238,79,216923,86,0,L|188:87,2,42.5,2|2|0,1:2|1:2|0:0,0:0:0:0:
309,30,217257,2,0,B|325:72|325:72|317:119,1,85,0|0,1:0|1:0,0:0:0:0:
301,147,217590,2,0,P|361:133|434:162,1,127.5,2|0,1:2|1:0,0:0:0:0:
468,233,218034,1,0,1:0:0:0:
370,306,218257,2,0,B|354:264|354:264|362:217,1,85,2|0,1:2|1:0,0:0:0:0:
354,100,218701,22,0,L|305:104,1,42.5,2|2,1:2|1:2,0:0:0:0:
271,151,218923,1,0,0:0:0:0:
271,151,219034,2,0,P|271:100|259:48,1,85,0|0,1:0|1:0,0:0:0:0:
133,119,219368,2,0,P|130:179|142:260,1,127.5,2|0,1:2|1:0,0:0:0:0:
227,246,219812,1,0,1:0:0:0:
47,350,220034,2,0,P|47:309|62:249,1,85,0|2,1:0|1:2,0:0:0:0:
55,266,220368,1,0,1:0:0:0:
55,266,220479,86,0,L|13:256,2,42.5,10|2|0,1:2|1:2|0:0,0:0:0:0:
126,322,220812,2,0,L|216:310,1,85,0|0,1:0|1:0,0:0:0:0:
344,225,221146,2,0,B|304:200|304:200|220:225,1,127.5,2|0,1:2|1:0,0:0:0:0:
293,291,221590,1,0,1:0:0:0:
134,150,221812,2,0,L|150:244,1,85,2|0,1:2|1:0,0:0:0:0:
257,25,222257,21,2,1:2:0:0:
269,23,222368,1,2,1:2:0:0:
317,104,222590,1,0,1:0:0:0:
264,188,222812,1,0,1:0:0:0:
276,195,222923,2,0,L|267:292,1,85,2|0,1:2|0:0,0:0:0:0:
262,352,223257,1,0,1:0:0:0:
261,364,223368,1,2,1:2:0:0:
355,279,223590,1,0,1:0:0:0:
181,268,223812,1,2,1:2:0:0:
335,74,224034,86,0,L|328:125,1,42.5,10|2,1:2|1:2,0:0:0:0:
252,154,224257,1,0,0:0:0:0:
252,154,224368,2,0,L|262:249,1,85,0|0,1:0|1:0,0:0:0:0:
341,220,224701,2,0,P|404:217|467:227,1,127.5,2|0,1:2|1:0,0:0:0:0:
485,238,225146,1,0,1:0:0:0:
156,231,225368,2,0,P|108:243|68:246,1,85,2|0,1:2|1:0,0:0:0:0:
285,38,225812,21,10,1:2:0:0:
285,38,225923,2,0,P|261:86|251:123,1,85,2|0,1:2|1:0,0:0:0:0:
259,190,226257,1,0,1:0:0:0:
233,190,226368,1,0,1:0:0:0:
210,177,226479,1,2,1:2:0:0:
382,123,226701,2,0,L|325:113,2,42.5,0|0|2,0:0|1:0|1:2,0:0:0:0:
306,300,227146,2,0,P|330:252|340:215,1,85,0|2,1:0|1:2,0:0:0:0:
338,222,227590,6,0,L|468:240,1,127.500004863739,14|0,1:2|0:0,0:0:0:0:
495,160,227923,1,0,1:0:0:0:
495,160,228034,2,0,L|420:149,1,63.7500024318696,8|0,1:3|1:0,0:0:0:0:
245,86,228257,2,0,P|228:147|244:209,1,127.500004863739,4|8,1:3|0:1,0:0:0:0:
264,289,228590,1,2,1:2:0:0:
264,289,228701,2,0,L|254:359,1,63.7500024318696,2|0,1:2|0:0,0:0:0:0:
393,341,228923,2,2,L|379:204,1,127.500004863739,0|2,1:1|1:1,0:1:0:0:
61,231,229368,37,12,1:2:0:0:
61,231,229479,2,0,B|109:224|109:224|143:231|143:231|196:224,1,127.500004863739,0|0,1:0|1:0,0:0:0:0:
160,81,229812,2,0,B|153:118|153:118|159:154,1,63.7500024318696,10|0,1:3|1:0,0:0:0:0:
365,125,230034,2,0,B|317:118|317:118|283:125|283:125|230:118,1,127.500004863739,4|0,1:3|0:3,0:0:0:0:
347,265,230368,1,2,1:2:0:0:
347,265,230479,2,0,B|354:228|354:228|348:192,1,63.7500024318696,2|0,1:2|0:0,0:0:0:0:
258,225,230701,2,2,L|270:367,1,127.500004863739,8|2,1:1|1:1,0:1:0:0:
454,62,231146,70,0,P|389:57|330:104,1,127.500004863739,12|0,1:2|0:0,0:0:0:0:
312,165,231479,1,0,1:0:0:0:
312,165,231590,2,0,L|323:238,1,63.7500024318696,8|0,1:3|1:0,0:0:0:0:
54,154,231812,2,0,P|119:149|178:196,1,127.500004863739,4|8,1:3|0:1,0:0:0:0:
196,257,232145,1,2,1:2:0:0:
196,257,232256,2,0,L|185:330,1,63.7500024318696,2|2,1:1|0:2,0:0:0:0:
73,361,232479,2,2,L|96:232,1,127.500004863739,0|2,1:1|1:1,0:1:0:0:
264,173,232923,37,12,1:2:0:0:
264,173,233034,2,0,B|286:113|286:113|257:50,1,127.500004863739,0|0,1:0|1:0,0:0:0:0:
136,102,233368,2,0,P|170:119|204:116,1,63.7500024318696,10|0,1:3|1:0,0:0:0:0:
343,36,233590,2,0,L|471:53,1,127.500004863739,4|2,1:3|0:3,0:0:0:0:
469,52,233923,1,2,1:2:0:0:
469,52,234034,1,2,1:2:0:0:
367,193,234257,1,2,1:3:0:0:
259,55,234479,1,2,1:0:0:0:
434,269,234701,69,12,1:2:0:0:
434,269,234812,2,0,P|462:210|447:137,1,127.500004863739,0|0,1:0|1:0,0:0:0:0:
443,71,235146,2,0,L|376:89,1,63.7500024318696,8|0,1:3|1:0,0:0:0:0:
303,124,235368,2,0,P|275:183|290:256,1,127.500004863739,4|8,1:3|0:2,0:0:0:0:
451,278,235701,1,2,1:2:0:0:
450,279,235812,2,0,L|458:343,1,63.7500024318696,2|0,1:2|0:0,0:0:0:0:
364,333,236034,2,2,L|382:204,1,127.500004863739,0|2,1:1|1:1,0:1:0:0:
381,206,236368,1,0,0:0:0:0:
381,206,236479,38,0,L|296:217,1,63.7500024318696,12|0,1:2|1:0,0:0:0:0:
217,178,236701,2,0,L|129:169,1,63.7500024318696,0|0,0:0|1:0,0:0:0:0:
52,189,236923,1,8,1:3:0:0:
275,269,237146,2,0,B|286:139|286:139|244:187,1,191.250007295609,6|2,1:3|1:2,0:0:0:0:
67,279,237590,2,2,B|119:274|119:274|148:282|148:282|209:275,1,127.500004863739,2|10,1:2|1:1,0:1:0:0:
192,276,237923,1,0,0:0:0:0:
192,276,238034,2,0,L|203:351,1,63.7500024318696,2|0,1:1|0:0,0:0:0:0:
163,196,238257,69,8,1:1:0:0:
163,196,238368,2,0,L|180:62,1,127.500004863739,8|0,1:0|1:0,0:0:0:0:
85,119,238701,2,0,P|39:132|9:132,1,63.7500024318696,8|0,1:3|1:0,0:0:0:0:
257,172,238923,2,0,B|359:137|343:225|451:182,1,191.250007295609,4|2,1:3|1:2,0:0:0:0:
410,50,239368,2,0,B|396:80|396:80|401:123,1,63.7500024318696,2|0,1:2|0:0,0:0:0:0:
306,315,239590,2,0,L|300:239,1,63.7500024318696,0|0,1:0|0:0,0:0:0:0:
502,172,239812,2,0,L|425:189,1,63.7500024318696,2|0,1:1|0:0,0:0:0:0:
127,259,240034,37,12,1:2:0:0:
118,267,240146,2,0,L|88:299,1,42.5,8|0,1:3|0:0,0:0:0:0:
139,109,240368,2,0,L|125:66,1,42.5,4|0,1:3|0:0,0:0:0:0:
254,203,240590,1,0,1:0:0:0:
265,206,240702,2,0,L|306:216,1,42.5,4|0,1:3|0:0,0:0:0:0:
269,77,240923,70,0,L|240:108,1,42.5,10|2,1:2|1:2,0:0:0:0:
228,335,241146,2,0,L|215:294,1,42.5,2|2,1:2|1:2,0:0:0:0:
25,171,241368,2,2,L|66:180,3,42.5,0|0|0|2,1:1|1:1|1:1|1:1,0:1:0:0:
98,188,241812,37,12,1:2:0:0:
159,141,241923,1,4,1:2:0:0:
204,201,242034,1,4,1:2:0:0:
143,248,242145,1,4,1:2:0:0:
467,174,242479,1,4,1:1:0:0:
256,192,242701,12,0,248479,0:0:0:0:
414,188,248923,69,12,1:2:0:0:
353,141,249034,1,4,1:2:0:0:
308,201,249145,1,4,1:2:0:0:
369,248,249256,1,4,1:2:0:0:
45,174,249590,1,4,1:1:0:0:
256,192,249812,12,0,256034,0:0:0:0:
92,207,257812,6,0,L|180:195,1,85
234,270,258479,2,0,L|146:282,1,85
68,296,259146,1,0,0:0:0:0:
309,348,259590,1,0,0:0:0:0:
202,113,261368,54,0,P|191:157|188:210,1,85
354,202,262034,2,0,P|314:190|272:188,1,85,2|0,0:2|0:0,0:0:0:0:
187,282,262701,2,0,P|207:277|228:270,1,42.5,2|0,0:2|0:0,0:0:0:0:
354,202,263146,54,0,P|399:196|483:206,2,127.5,2|0|0,0:2|0:0|0:0,0:0:0:0:
194,115,264923,2,0,P|167:124|105:133,1,85
254,49,265590,1,2,0:2:0:0:
279,130,265812,1,0,0:0:0:0:
241,208,266034,1,2,0:2:0:0:
321,202,266257,2,0,P|349:197|375:195,1,42.5,0|2,0:0|0:2,0:0:0:0:
457,198,266701,53,0,0:0:0:0:
457,198,266923,1,0,0:0:0:0:
258,241,267368,2,0,P|248:202|248:149,1,85
258,241,268034,2,0,P|268:280|268:333,2,85
185,301,269146,1,2,0:2:0:0:
354,345,269368,1,0,0:0:0:0:
307,171,269590,1,2,0:2:0:0:
258,241,269812,1,0,0:0:0:0:
176,212,270034,1,2,0:2:0:0:
99,253,270257,53,0,0:0:0:0:
99,253,270479,2,0,P|95:294|89:346,1,85,2|2,0:2|0:2,0:0:0:0:
427,131,271368,2,0,P|404:123|383:113,1,42.5
445,51,271812,1,0,0:0:0:0:
321,63,272034,2,0,P|309:100|312:160,1,85
402,208,272701,1,2,0:2:0:0:
319,171,272923,1,0,0:0:0:0:
263,239,273146,1,2,0:2:0:0:
342,271,273368,2,0,L|351:328,1,42.5,0|2,0:0|0:2,0:0:0:0:
319,171,273812,54,0,L|332:78,1,85
413,80,274479,1,2,0:2:0:0:
229,44,274701,1,0,0:0:0:0:
242,132,274923,1,0,0:0:0:0:
160,101,275146,1,0,0:0:0:0:
229,44,275368,1,2,0:2:0:0:
259,217,275590,53,0,0:0:0:0:
259,217,275812,2,0,L|319:210,1,42.5,2|0,0:2|0:0,0:0:0:0:
424,184,276257,2,0,L|434:100,1,85,2|0,0:2|0:0,0:0:0:0:
348,84,276923,1,2,0:2:0:0:
334,175,277146,1,0,0:0:0:0:
392,256,277368,37,4,0:3:0:0:
392,256,277590,2,0,P|401:306|407:350,1,85
405,339,278257,1,2,0:0:0:0:
484,246,278479,1,0,0:0:0:0:
383,173,278701,1,2,0:0:0:0:
310,269,278923,1,0,0:0:0:0:
227,233,279146,6,0,P|195:238|141:257,1,85,4|0,0:3|0:0,0:0:0:0:
110,347,279812,1,2,0:2:0:0:
133,263,280034,1,0,0:0:0:0:
195,325,280257,2,0,P|227:320|281:301,1,85,2|2,0:0|0:0,0:0:0:0:
276,303,280923,1,4,0:3:0:0:
214,127,281812,101,2,0:0:0:0:
214,127,282034,2,0,L|166:135,1,42.5,0|2,0:0|0:0,0:0:0:0:
88,155,282479,2,0,P|91:117|113:65,2,85,4|0|2,0:3|0:0|0:0,0:0:0:0:
126,243,283590,5,0,0:0:0:0:
38,238,283812,1,2,0:0:0:0:
86,331,284034,101,0,0:0:0:0:
174,336,284256,1,2,0:0:0:0:
224,180,284479,5,4,0:3:0:0:
224,180,284701,2,0,L|236:276,2,85,2|2|0,0:0|0:0|0:0,0:0:0:0:
209,96,285812,1,0,0:0:0:0:
151,226,286034,1,0,0:0:0:0:
306,186,286257,102,0,P|365:178|431:211,1,127.5,4|2,0:3|0:2,0:0:0:0:
466,294,287146,1,0,0:0:0:0:
466,294,287368,1,2,0:2:0:0:
466,294,287590,2,0,L|458:350,1,42.5,0|2,0:0|0:2,0:0:0:0:
185,229,288034,6,0,L|88:216,1,85,4|0,0:3|0:0,0:0:0:0:
270,245,288701,1,2,0:2:0:0:
325,174,288923,2,0,L|356:129,2,42.5
270,245,289590,1,2,0:2:0:0:
270,245,290090,102,0,L|287:338,2,90.3125,2|2|2,0:2|0:2|0:2,0:0:0:0:
174,172,291312,2,0,L|161:271,1,95.625,0|4,0:0|0:3,0:0:0:0:
256,192,292034,12,0,300062,0:0:0:0:
