osu file format v14

[General]
AudioFilename: 03. French Virgin Party.mp3
AudioLeadIn: 0
PreviewTime: 86976
Countdown: 0
SampleSet: Soft
StackLeniency: 0.9
Mode: 0
LetterboxInBreaks: 0
EpilepsyWarning: 1
WidescreenStoryboard: 0

[Editor]
DistanceSpacing: 1.1
BeatDivisor: 4
GridSize: 8
TimelineZoom: 2.5

[Metadata]
Title:French Virgin Party
TitleUnicode:French Virgin Party
Artist:Glen Check
ArtistUnicode:Glen Check
Creator:Jingshenbing
Version:TheForgotten5's Insane
Source:
Tags:AlpacaCokelat Haute Couture Nijigen-kun Miramono TheForgotten5 Kioshinxs electronic english
BeatmapID:471532
BeatmapSetID:183511

[Difficulty]
HPDrainRate:7
CircleSize:4
OverallDifficulty:7
ApproachRate:9
SliderMultiplier:1.5
SliderTickRate:1

[Events]
//Background and Video events
0,0,"Glen-Check-BW.jpg",0,0
Video,5774,"French Virgin Party.flv"
//Break Periods
2,99643,109752
//Storyboard Layer 0 (Background)
//Storyboard Layer 1 (Fail)
//Storyboard Layer 2 (Pass)
//Storyboard Layer 3 (Foreground)
//Storyboard Layer 4 (Overlay)
//Storyboard Sound Samples

[TimingPoints]
12171,389.61038961039,4,2,1,50,1,0
24638,-83.3333333333333,4,2,1,70,0,0
24735,-80,4,2,1,70,0,0
37106,-80,4,2,1,70,0,0
37203,-80,4,2,1,70,0,0
54930,-80,4,2,1,40,0,0
55515,-80,4,2,1,70,0,0
55807,-83.3333333333333,4,2,1,50,0,0
58047,-83.3333333333333,4,2,1,30,0,0
58632,-83.3333333333333,4,2,1,50,0,0
62041,-66.6666666666667,4,2,1,70,0,1
74508,-83.3333333333333,4,2,1,70,0,0
79865,-83.3333333333333,4,2,1,30,0,0
80450,-83.3333333333333,4,2,1,70,0,0
80742,-83.3333333333333,4,2,1,50,0,0
82982,-83.3333333333333,4,2,1,30,0,0
83567,-83.3333333333333,4,2,1,70,0,0
86976,-66.6666666666667,4,2,1,50,0,1
89216,-57.1428571428571,4,2,1,50,0,1
89606,-52.6315789473684,4,2,1,50,0,1
89995,-66.6666666666667,4,2,1,50,0,1
90774,-57.1428571428571,4,2,1,50,0,1
91164,-52.6315789473684,4,2,1,50,0,1
91554,-66.6666666666667,4,2,1,50,0,1
92333,-57.1428571428571,4,2,1,50,0,1
92722,-52.6315789473684,4,2,1,50,0,1
93112,-66.6666666666667,4,2,1,50,0,1
95450,-57.1428571428571,4,2,1,50,0,1
95839,-52.6315789473684,4,2,1,50,0,1
96229,-66.6666666666667,4,2,1,50,0,1
97008,-57.1428571428571,4,2,1,50,0,1
97398,-52.6315789473684,4,2,1,50,0,1
99346,-100,4,2,1,50,0,1
99443,-100,4,2,1,50,0,0
99541,-83.3333333333333,4,2,1,50,0,0
111911,-66.6666666666667,4,2,1,70,0,1
124378,-83.3333333333333,4,2,1,70,0,0
126619,-74.0740740740741,4,2,1,70,0,0
127008,-66.6666666666667,4,2,1,70,0,0
127593,-83.3333333333333,4,2,1,70,0,0
128177,-74.0740740740741,4,2,1,70,0,0
128567,-66.6666666666667,4,2,1,70,0,0
129151,-83.3333333333333,4,2,1,70,0,0
129735,-74.0740740740741,4,2,1,70,0,0
130125,-66.6666666666667,4,2,1,70,0,0
130709,-83.3333333333333,4,2,1,70,0,0
132852,-74.0740740740741,4,2,1,70,0,0
133242,-66.6666666666667,4,2,1,70,0,0
133632,-83.3333333333333,4,2,1,70,0,0
134411,-74.0740740740741,4,2,1,70,0,0
134800,-66.6666666666667,4,2,1,70,0,0
135190,-83.3333333333333,4,2,1,70,0,0
137430,-71.4285714285714,4,2,1,70,0,0
161781,-66.6666666666667,4,2,1,70,0,1
174248,-76.9230769230769,4,2,1,60,0,0

[Colours]
Combo1 : 255,128,255
Combo2 : 185,185,185
Combo3 : 100,100,100
Combo4 : 255,255,0

[HitObjects]
112,288,12170,6,0,L|112:192,1,75,0|0,0:0|0:0,0:0:0:0:
112,64,12755,1,0,0:0:0:0:
208,144,12950,1,8,0:0:0:0:
304,64,13145,1,0,0:0:0:0:
400,144,13339,1,0,0:0:0:0:
304,224,13534,1,0,0:0:0:0:
304,64,13729,6,0,L|304:144,1,75
157,241,14313,1,0,0:0:0:0:
370,163,14507,1,0,0:0:0:0:
224,96,14702,1,0,0:0:0:0:
302,308,14897,1,8,0:0:0:0:
157,241,15093,1,0,0:0:0:0:
224,96,15287,6,0,L|224:176,1,75
416,96,15872,1,0,0:0:0:0:
336,192,16067,1,8,0:0:0:0:
416,288,16262,1,0,0:0:0:0:
240,192,16456,1,0,0:0:0:0:
416,96,16651,1,0,0:0:0:0:
240,192,16846,6,0,L|240:112,1,75
96,96,17430,1,0,0:0:0:0:
176,192,17625,1,0,0:0:0:0:
96,272,17820,1,8,0:0:0:0:
272,192,18015,1,0,0:0:0:0:
96,96,18210,1,8,0:0:0:0:
272,192,18404,6,0,L|272:272,1,75,0|2,0:0|0:0,0:0:0:0:
272,267,18696,1,2,0:0:0:0:
400,272,18989,1,2,0:0:0:0:
368,240,19086,1,2,0:0:0:0:
336,208,19183,1,8,0:0:0:0:
256,112,19378,1,0,0:0:0:0:
256,256,19573,1,0,0:0:0:0:
112,240,19768,5,2,0:0:0:0:
144,208,19865,1,2,0:0:0:0:
112,80,20158,5,2,0:0:0:0:
144,112,20255,1,2,0:0:0:0:
400,48,20547,5,2,0:0:0:0:
368,80,20644,1,2,0:0:0:0:
336,112,20742,1,0,0:0:0:0:
144,168,20937,5,0,0:0:0:0:
176,168,21034,1,0,0:0:0:0:
208,168,21132,1,8,0:0:0:0:
312,168,21326,1,2,0:0:0:0:
312,168,21521,1,4,0:0:0:0:
256,32,21716,5,2,0:0:0:0:
256,72,21814,1,2,0:0:0:0:
376,168,22106,5,2,0:0:0:0:
344,168,22203,1,2,0:0:0:0:
312,168,22300,1,8,0:0:0:0:
256,264,22495,1,0,0:0:0:0:
320,344,22690,1,0,0:0:0:0:
192,344,22885,1,0,0:0:0:0:
256,264,23080,6,0,L|320:208,1,75
240,185,23469,2,0,L|184:136,1,75
256,56,23859,1,0,0:0:0:0:
368,104,24054,2,0,B|400:128|400:128|416:176,1,75
278,279,24638,6,0,P|350:239|366:215,1,89.9999972534181,4|0,0:0|0:0,0:0:0:0:
272,184,25027,2,0,P|328:123|336:96,1,93.75,8|0,0:0|0:0,0:0:0:0:
190,103,25417,1,0,0:0:0:0:
294,39,25612,1,0,0:0:0:0:
166,39,25807,1,8,0:0:0:0:
262,103,26002,1,0,0:0:0:0:
117,118,26196,6,0,P|140:156|184:184,1,93.75,0|0,0:0|0:0,0:0:0:0:
92,235,26586,2,0,P|125:264|176:280,1,93.75,8|0,0:0|0:0,0:0:0:0:
288,344,26976,1,0,0:0:0:0:
248,232,27171,1,0,0:0:0:0:
208,344,27365,1,8,0:0:0:0:
328,280,27560,1,0,0:0:0:0:
384,192,27755,6,0,P|312:152|272:160,1,93.75
168,112,28145,2,0,P|240:152|280:144,1,93.75,8|0,0:0|0:0,0:0:0:0:
368,96,28534,1,0,0:0:0:0:
184,216,28729,1,8,0:0:0:0:
384,192,28924,1,0,0:0:0:0:
168,112,29119,1,0,0:0:0:0:
240,264,29313,6,0,P|280:192|272:152,1,93.75
320,48,29703,2,0,P|280:120|288:160,1,93.75,8|0,0:0|0:0,0:0:0:0:
328,224,30093,1,0,0:0:0:0:
176,128,30287,1,8,0:0:0:0:
280,128,30482,1,0,0:0:0:0:
120,224,30677,5,8,0:0:0:0:
120,224,30774,1,8,0:0:0:0:
120,224,30872,2,0,B|144:264|144:264|200:264|200:264,1,93.75,4|0,0:0|0:0,0:0:0:0:
320,264,31261,2,0,B|311:264|367:264|367:264|391:224,1,93.75,8|0,0:0|0:0,0:0:0:0:
328,144,31651,1,0,0:0:0:0:
216,104,31846,1,0,0:0:0:0:
288,72,32041,1,8,0:0:0:0:
152,144,32235,1,0,0:0:0:0:
152,344,32430,6,0,L|200:240,1,93.75
192,152,32820,2,0,B|192:96|192:96|216:64|216:64,1,93.75,8|0,0:0|0:0,0:0:0:0:
264,152,33209,1,0,0:0:0:0:
264,256,33404,1,0,0:0:0:0:
264,152,33599,1,8,0:0:0:0:
264,256,33794,1,0,0:0:0:0:
376,344,33989,6,0,L|336:258,1,93.75
336,152,34379,2,0,B|336:96|336:96|312:64|313:65,1,93.75,8|0,0:0|0:0,0:0:0:0:
192,224,34768,1,0,0:0:0:0:
336,224,34963,1,0,0:0:0:0:
192,152,35158,1,8,0:0:0:0:
336,152,35352,1,0,0:0:0:0:
314,82,35547,6,0,P|276:107|264:152,1,93.75
314,293,35937,2,0,P|276:268|264:224,1,93.75,8|0,0:0|0:0,0:0:0:0:
354,179,36326,2,0,P|393:204|408:248,2,93.75,0|0|8,0:0|0:0|0:0,0:0:0:0:
264,128,36911,1,0,0:0:0:0:
264,128,37008,1,0,0:0:0:0:
264,128,37106,1,4,0:0:0:0:
160,128,37300,5,0,0:0:0:0:
192,224,37495,1,8,0:0:0:0:
232,320,37690,1,0,0:0:0:0:
272,224,37885,1,0,0:0:0:0:
312,128,38080,1,0,0:0:0:0:
272,224,38274,1,8,0:0:0:0:
176,192,38469,1,0,0:0:0:0:
216,96,38664,5,0,0:0:0:0:
272,224,38859,1,0,0:0:0:0:
144,280,39054,1,8,0:0:0:0:
88,152,39248,1,0,0:0:0:0:
216,96,39443,5,0,0:0:0:0:
144,280,39638,1,0,0:0:0:0:
328,344,39833,1,8,0:0:0:0:
400,160,40028,1,0,0:0:0:0:
400,160,40222,6,0,L|320:210,1,93.75
216,208,40612,2,0,L|136:157,1,93.75,8|0,0:0|0:0,0:0:0:0:
136,56,41002,1,0,0:0:0:0:
216,120,41196,1,0,0:0:0:0:
400,56,41391,1,8,0:0:0:0:
320,120,41586,1,0,0:0:0:0:
272,216,41781,6,0,L|196:271,1,93.75
144,176,42171,2,0,L|219:120,1,93.75,8|0,0:0|0:0,0:0:0:0:
312,272,42560,2,0,L|224:336,1,93.75
128,264,42950,1,8,0:0:0:0:
128,120,43145,1,8,0:0:0:0:
128,120,43242,1,0,0:0:0:0:
128,120,43339,1,4,0:0:0:0:
256,40,43534,1,0,0:0:0:0:
384,120,43729,5,8,0:0:0:0:
256,120,43924,1,0,0:0:0:0:
128,120,44119,1,0,0:0:0:0:
256,120,44313,1,0,0:0:0:0:
176,224,44508,2,0,B|176:288|176:288|216:288|216:288,1,93.75,8|0,0:0|0:0,0:0:0:0:
306,288,44898,2,0,B|296:288|336:288|336:288|336:224,1,93.75
440,232,45287,5,8,0:0:0:0:
384,144,45482,1,0,0:0:0:0:
328,56,45677,2,0,L|224:56,1,93.75
176,144,46067,1,8,0:0:0:0:
120,232,46261,1,0,0:0:0:0:
176,144,46456,6,0,L|240:48,1,93.75,0|0,0:0|0:0,0:0:0:0:
328,64,46846,2,0,L|380:142,1,93.75,8|0,0:0|0:0,0:0:0:0:
432,232,47235,1,0,0:0:0:0:
368,312,47430,1,0,0:0:0:0:
304,232,47625,1,8,0:0:0:0:
240,312,47820,1,0,0:0:0:0:
136,312,48015,6,0,B|136:240|136:240|176:208|176:208,1,93.75
232,160,48404,2,0,B|248:146|248:146|248:74,1,93.75,8|0,0:0|0:0,0:0:0:0:
352,48,48794,1,0,0:0:0:0:
392,168,48989,1,0,0:0:0:0:
344,280,49183,1,8,0:0:0:0:
392,168,49378,1,8,0:0:0:0:
392,168,49476,1,8,0:0:0:0:
392,168,49573,6,0,P|328:208|304:208,1,93.75,4|0,0:0|0:0,0:0:0:0:
224,264,49963,2,0,P|152:248|128:208,1,93.75
64,136,50352,2,0,B|136:72|136:72|200:152|272:72|272:72|400:72,1,375,2|2,0:0|0:0,0:0:0:0:
424,168,51326,2,0,P|400:240|368:248,1,93.75,0|8,0:0|0:0,0:0:0:0:
304,296,51716,1,0,0:0:0:0:
216,248,51911,6,0,P|152:232|128:192,1,93.75,2|0,0:0|0:0,0:0:0:0:
136,112,52300,1,8,0:0:0:0:
224,56,52495,1,0,0:0:0:0:
328,56,52690,2,0,P|304:128|272:144,1,93.75,2|0,0:0|0:0,0:0:0:0:
192,168,53080,5,8,0:0:0:0:
288,208,53274,2,0,P|352:184|368:152,1,93.75,2|0,0:0|0:0,0:0:0:0:
408,72,53664,1,0,0:0:0:0:
440,168,53859,2,0,P|424:240|384:280,1,93.75,8|0,0:0|0:0,0:0:0:0:
336,328,54248,6,0,P|279:278|247:273,1,93.75,2|0,0:0|0:0,0:0:0:0:
200,192,54638,2,8,P|246:188|289:206,1,93.75,8|0,0:0|0:0,0:0:0:0:
352,128,55028,1,0,3:0:0:0:
304,96,55125,1,0,3:0:0:0:
248,88,55222,1,0,3:0:0:0:
192,96,55320,1,0,3:0:0:0:
144,128,55417,1,8,0:0:0:0:
248,272,55612,1,0,0:0:0:0:
344,272,55807,6,0,P|400:224|408:192,2,89.9999972534181,2|2|8,0:0|0:0|0:0,0:0:0:0:
248,272,56391,2,0,L|136:272,1,89.9999972534181,2|0,0:0|0:0,0:0:0:0:
96,192,56781,1,0,0:0:0:0:
192,192,56976,2,0,L|296:192,1,89.9999972534181,8|0,0:0|0:0,0:0:0:0:
384,192,57365,6,0,P|400:136|368:104,1,89.9999972534181,2|0,0:0|0:0,0:0:0:0:
288,112,57755,2,0,L|176:112,1,89.9999972534181,8|0,0:0|0:0,0:0:0:0:
144,200,58145,1,0,3:0:0:0:
148,233,58242,1,0,3:0:0:0:
162,263,58339,1,0,3:0:0:0:
184,288,58437,1,0,3:0:0:0:
214,305,58534,1,8,0:0:0:0:
312,296,58729,1,0,0:0:0:0:
400,256,58924,6,0,L|360:152,1,89.9999972534181,2|2,0:0|0:0,0:0:0:0:
312,88,59313,1,8,0:0:0:0:
256,168,59508,2,0,L|256:280,2,89.9999972534181,2|0|0,0:0|0:0|0:0,0:0:0:0:
200,88,60093,1,8,0:0:0:0:
144,171,60287,2,0,L|112:256,1,89.9999972534181,0|2,0:0|0:0,0:0:0:0:
200,304,60677,1,0,0:0:0:0:
320,272,60872,1,8,0:0:0:0:
408,168,61067,1,0,0:0:0:0:
312,112,61261,5,0,0:0:0:0:
296,144,61359,1,0,0:0:0:0:
280,176,61456,1,0,0:0:0:0:
184,80,61651,1,0,0:0:0:0:
168,112,61749,1,0,0:0:0:0:
152,144,61846,1,0,0:0:0:0:
64,256,62041,6,0,P|104:320|152:312,1,112.500004291535,4|0,0:0|0:0,0:0:0:0:
256,320,62430,1,8,0:0:0:0:
378,320,62625,2,0,P|430:307|448:256,1,112.500004291535
368,160,63015,2,0,L|496:160,2,112.500004291535,0|8|0,0:0|0:0|0:0,0:0:0:0:
248,160,63599,6,0,B|208:208|208:208|152:208|152:208,1,112.500004291535
208,96,63989,2,0,B|213:96|157:96|157:96|117:144,1,112.500004291535,8|0,0:0|0:0,0:0:0:0:
64,256,64378,1,0,0:0:0:0:
160,328,64573,1,0,0:0:0:0:
256,256,64768,1,8,0:0:0:0:
344,168,64963,1,0,0:0:0:0:
344,48,65158,6,0,P|432:88|456:144,1,112.500004291535
440,232,65547,2,0,P|398:269|344:282,1,112.500004291535,8|0,0:0|0:0,0:0:0:0:
344,168,65937,1,0,0:0:0:0:
256,256,66132,1,0,0:0:0:0:
168,168,66327,1,8,0:0:0:0:
88,72,66522,1,0,0:0:0:0:
168,168,66716,5,0,0:0:0:0:
304,288,66911,1,0,0:0:0:0:
136,272,67106,1,8,0:0:0:0:
280,176,67300,1,0,0:0:0:0:
216,336,67495,1,0,0:0:0:0:
368,336,67690,2,0,P|432:288|440:256,1,112.500004291535,0|8,0:0|0:0,0:0:0:0:
440,144,68080,1,8,0:0:0:0:
440,144,68177,1,8,0:0:0:0:
440,144,68274,5,4,0:0:0:0:
344,72,68469,1,0,0:0:0:0:
280,176,68664,2,0,P|208:224|160:224,1,112.500004291535,8|0,0:0|0:0,0:0:0:0:
64,240,69054,2,0,P|136:288|184:288,1,112.500004291535
280,288,69443,1,8,0:0:0:0:
360,200,69638,2,0,L|416:304,2,112.500004291535,0|0|0,0:0|0:0|0:0,0:0:0:0:
240,200,70222,2,0,L|112:200,2,112.500004291535,8|0|0,0:0|0:0|0:0,0:0:0:0:
240,72,70807,1,0,0:0:0:0:
360,72,71002,2,0,B|360:160|360:160|328:192|328:192,1,112.500004291535,8|0,0:0|0:0,0:0:0:0:
256,264,71391,5,0,0:0:0:0:
168,176,71586,2,0,B|152:152|152:152|152:64,2,112.500004291535,0|8|0,0:0|0:0|0:0,0:0:0:0:
256,264,72171,1,0,0:0:0:0:
360,336,72365,1,0,0:0:0:0:
152,336,72560,1,8,0:0:0:0:
256,264,72755,1,0,0:0:0:0:
256,144,72950,6,0,L|376:192,1,112.500004291535
256,144,73339,2,0,L|136:192,1,112.500004291535,8|0,0:0|0:0,0:0:0:0:
136,64,73729,1,0,0:0:0:0:
256,48,73924,1,0,0:0:0:0:
376,64,74119,1,8,0:0:0:0:
256,144,74313,1,8,0:0:0:0:
256,144,74411,1,8,0:0:0:0:
256,144,74508,1,4,0:0:0:0:
256,240,74703,1,0,0:0:0:0:
376,240,74898,5,8,0:0:0:0:
256,312,75093,1,0,0:0:0:0:
120,312,75287,2,0,B|312:144|-128:160|208:48,1,359.999989013672,2|2,0:0|0:0,0:0:0:0:
296,64,76261,1,0,0:0:0:0:
424,64,76456,1,8,0:0:0:0:
424,184,76651,1,0,0:0:0:0:
424,296,76846,6,0,B|366:260|366:260|278:305|276:190|276:190|226:152|226:152,1,269.999991760254,2|0,0:0|0:0,0:0:0:0:
144,80,77625,1,0,0:0:0:0:
144,80,77820,1,0,0:0:0:0:
72,192,78015,2,0,B|112:216|112:216|168:176,1,89.9999972534181,8|0,0:0|0:0,0:0:0:0:
256,192,78404,1,0,0:0:0:0:
208,280,78599,1,0,0:0:0:0:
296,336,78794,1,8,0:0:0:0:
376,280,78989,1,0,0:0:0:0:
336,192,79183,6,0,P|400:152|416:128,1,89.9999972534181,2|0,0:0|0:0,0:0:0:0:
312,128,79573,2,0,P|248:88|232:64,1,89.9999972534181,8|0,0:0|0:0,0:0:0:0:
112,144,79963,1,0,3:0:0:0:
156,144,80060,1,0,3:0:0:0:
195,165,80157,1,0,3:0:0:0:
220,202,80255,1,0,3:0:0:0:
225,247,80352,1,8,0:0:0:0:
328,248,80547,1,0,0:0:0:0:
424,240,80742,6,0,L|352:168,1,89.9999972534181,2|2,0:0|0:0,0:0:0:0:
264,176,81132,1,8,0:0:0:0:
168,176,81326,2,0,L|96:248,1,89.9999972534181,2|0,0:0|0:0,0:0:0:0:
64,136,81716,1,0,0:0:0:0:
160,72,81911,1,8,0:0:0:0:
272,48,82106,1,0,0:0:0:0:
336,128,82300,6,0,L|384:224,1,89.9999972534181,2|0,0:0|0:0,0:0:0:0:
280,208,82690,2,0,L|239:288,1,89.9999972534181,8|0,0:0|0:0,0:0:0:0:
128,248,83080,1,0,3:0:0:0:
123,203,83177,1,0,3:0:0:0:
141,163,83274,1,0,3:0:0:0:
177,136,83372,1,0,3:0:0:0:
221,131,83469,1,8,0:0:0:0:
336,128,83664,1,0,0:0:0:0:
408,248,83859,6,0,B|368:264|368:264|304:240,1,89.9999972534181,2|2,0:0|0:0,0:0:0:0:
187,247,84248,2,0,B|144:264|144:264|104:248,2,89.9999972534181,8|2|0,0:0|0:0|0:0,0:0:0:0:
256,152,84833,1,0,0:0:0:0:
304,48,85028,2,0,P|256:40|184:56,1,89.9999972534181,8|0,0:0|0:0,0:0:0:0:
192,176,85417,5,2,0:0:0:0:
88,96,85612,1,0,0:0:0:0:
240,232,85807,1,10,0:0:0:0:
112,200,86002,1,0,0:0:0:0:
376,184,86196,5,0,0:0:0:0:
344,152,86294,1,0,0:0:0:0:
312,120,86391,1,0,0:0:0:0:
312,248,86586,1,0,0:0:0:0:
344,280,86684,1,0,0:0:0:0:
376,312,86781,1,0,0:0:0:0:
312,248,86976,5,4,0:0:0:0:
200,296,87171,1,0,0:0:0:0:
112,200,87365,2,0,P|144:136|184:104,1,112.500004291535,2|0,0:0|0:0,0:0:0:0:
288,56,87755,2,0,P|288:152|272:168,1,112.500004291535,2|0,0:0|0:0,0:0:0:0:
344,280,88145,1,0,0:0:0:0:
392,168,88339,1,0,0:0:0:0:
392,168,88534,1,0,0:0:0:0:
160,80,88729,6,0,P|144:160|144:184,1,56.2500021457673,2|0,0:0|0:0,0:0:0:0:
160,80,88924,2,0,P|216:79|270:93,1,112.500004291535,2|0,0:0|0:0,0:0:0:0:
392,168,89313,2,0,P|328:272|296:288,1,131.250001251698,2|0,0:0|0:0,0:0:0:0:
176,272,89703,2,0,P|129:226|104:152,1,142.49999619484,2|0,0:0|0:0,0:0:0:0:
232,152,90093,5,0,0:0:0:0:
352,152,90287,2,0,L|336:96,1,56.2500021457673,2|0,0:0|0:0,0:0:0:0:
352,152,90482,2,0,P|312:240|288:248,1,112.500004291535,2|0,0:0|0:0,0:0:0:0:
440,200,90872,2,0,P|440:104|368:72,1,131.250001251698,2|0,0:0|0:0,0:0:0:0:
248,96,91261,2,0,P|256:176|352:200,1,142.49999619484,2|0,0:0|0:0,0:0:0:0:
184,256,91651,1,0,0:0:0:0:
304,328,91846,6,0,L|304:272,1,56.2500021457673,2|0,0:0|0:0,0:0:0:0:
304,271,92041,2,0,P|368:232|368:192,1,112.500004291535,2|0,0:0|0:0,0:0:0:0:
336,64,92430,2,0,P|272:152|248:152,1,131.250001251698,2|0,0:0|0:0,0:0:0:0:
104,152,92820,2,0,P|136:232|224:256,1,142.49999619484,2|0,0:0|0:0,0:0:0:0:
280,184,93209,1,4,0:0:0:0:
408,96,93404,1,0,0:0:0:0:
408,264,93599,6,0,L|288:296,1,112.500004291535,10|0,0:0|0:0,0:0:0:0:
176,296,93989,2,0,L|67:267,1,112.500004291535,2|0,0:0|0:0,0:0:0:0:
72,144,94378,1,8,0:0:0:0:
168,64,94573,1,0,0:0:0:0:
288,64,94768,1,0,0:0:0:0:
288,184,94963,6,0,L|232:200,1,56.2500021457673,2|0,0:0|0:0,0:0:0:0:
288,184,95158,2,0,L|408:152,1,112.500004291535,2|0,0:0|0:0,0:0:0:0:
400,296,95547,2,0,P|256:304|232:288,1,131.250001251698,2|0,0:0|0:0,0:0:0:0:
128,264,95937,2,0,P|120:120|136:96,1,142.49999619484,2|2,0:0|0:0,0:0:0:0:
224,64,96326,1,0,0:0:0:0:
336,120,96521,6,0,L|392:144,1,56.2500021457673,2|0,0:0|0:0,0:0:0:0:
336,120,96716,2,0,L|280:224,1,112.500004291535,2|0,0:0|0:0,0:0:0:0:
200,336,97106,2,0,P|320:312|352:264,1,131.250001251698,2|0,0:0|0:0,0:0:0:0:
408,176,97495,2,0,P|416:88|352:32,1,142.49999619484,2|0,0:0|0:0,0:0:0:0:
336,120,97885,5,2,0:0:0:0:
262,357,98274,1,2,0:0:0:0:
20,272,98664,1,2,0:0:0:0:
111,34,99054,1,2,0:0:0:0:
176,192,99443,5,4,0:0:0:0:
408,152,110352,6,0,L|288:208,1,89.9999972534181
232,232,110742,2,0,L|150:193,1,89.9999972534181
160,96,111132,1,0,0:0:0:0:
264,120,111326,1,0,0:0:0:0:
368,72,111521,1,0,0:0:0:0:
88,72,111911,6,0,P|112:152|160:192,1,112.500004291535
224,88,112300,2,0,P|256:133|266:188,1,112.500004291535,8|0,0:0|0:0,0:0:0:0:
312,333,112690,1,0,0:0:0:0:
457,286,112885,1,0,0:0:0:0:
410,142,113080,1,8,0:0:0:0:
266,189,113274,1,0,0:0:0:0:
220,333,113469,5,0,0:0:0:0:
75,286,113664,1,0,0:0:0:0:
122,142,113859,1,8,0:0:0:0:
266,189,114053,1,0,0:0:0:0:
416,192,114248,6,0,P|368:128|312:128,1,112.500004291535
216,128,114638,2,0,P|164:148|140:197,1,112.500004291535,8|0,0:0|0:0,0:0:0:0:
192,312,115028,1,0,0:0:0:0:
304,256,115222,1,0,0:0:0:0:
416,312,115417,1,8,0:0:0:0:
304,168,115612,1,0,0:0:0:0:
192,312,115807,1,0,0:0:0:0:
80,256,116002,1,0,0:0:0:0:
80,136,116196,6,0,P|144:200|184:208,1,112.500004291535,8|0,0:0|0:0,0:0:0:0:
288,208,116586,2,0,P|338:232|370:277,1,112.500004291535
432,168,116976,1,8,0:0:0:0:
360,64,117171,1,0,0:0:0:0:
256,128,117365,1,0,0:0:0:0:
152,192,117560,1,0,0:0:0:0:
216,296,117755,1,8,0:0:0:0:
320,232,117950,1,8,0:0:0:0:
320,232,118047,1,0,0:0:0:0:
320,232,118145,1,4,0:0:0:0:
256,128,118339,1,0,0:0:0:0:
152,64,118534,6,0,B|104:104|104:104|104:160,1,112.500004291535,8|0,0:0|0:0,0:0:0:0:
224,192,118924,2,0,B|224:242|224:242|176:282,1,112.500004291535,0|0,0:0|0:0,0:0:0:0:
56,264,119313,1,8,0:0:0:0:
104,154,119508,1,0,0:0:0:0:
224,192,119703,2,0,P|304:192|368:152,1,112.500004291535
432,104,120093,1,8,0:0:0:0:
432,224,120287,1,0,0:0:0:0:
312,248,120482,6,0,P|368:312|384:344,2,112.500004291535,0|0|8,0:0|0:0|0:0,0:0:0:0:
256,136,121067,1,0,0:0:0:0:
176,232,121261,2,0,P|120:168|104:136,1,112.500004291535,0|0,0:0|0:0,0:0:0:0:
184,48,121651,1,8,0:0:0:0:
256,136,121846,1,0,0:0:0:0:
328,48,122041,1,0,0:0:0:0:
256,208,122235,1,0,0:0:0:0:
184,48,122430,1,8,0:0:0:0:
328,48,122625,1,0,0:0:0:0:
408,144,122820,6,0,P|384:232|352:272,1,112.500004291535
264,312,123209,2,0,P|160:312|112:280,1,112.500004291535,8|0,0:0|0:0,0:0:0:0:
48,240,123599,1,0,0:0:0:0:
152,168,123794,1,0,0:0:0:0:
48,104,123989,1,8,0:0:0:0:
152,32,124183,1,8,0:0:0:0:
152,32,124281,1,0,0:0:0:0:
152,32,124378,1,4,0:0:0:0:
256,104,124573,1,0,0:0:0:0:
400,104,124768,6,0,P|368:176|320:192,1,89.9999972534181,2|0,0:0|0:0,0:0:0:0:
328,272,125158,2,0,P|251:291|209:263,1,89.9999972534181,2|0,0:0|0:0,0:0:0:0:
152,248,125547,2,0,P|112:216|96:168,1,89.9999972534181
296,176,126132,6,0,L|328:112,1,44.999998626709,2|0,0:0|0:0,0:0:0:0:
296,176,126326,2,0,P|240:176|192:152,1,89.9999972534181,2|0,0:0|0:0,0:0:0:0:
168,64,126716,2,0,P|112:120|104:184,1,101.250000386238,2|0,0:0|0:0,0:0:0:0:
104,264,127106,2,0,P|184:304|240:296,1,112.500004291535
328,296,127495,1,0,0:0:0:0:
424,184,127690,6,0,L|448:240,1,44.999998626709,2|0,0:0|0:0,0:0:0:0:
424,184,127885,2,0,P|448:112|432:80,1,89.9999972534181,2|0,0:0|0:0,0:0:0:0:
336,96,128274,2,0,P|304:184|256:200,1,101.250000386238,2|0,0:0|0:0,0:0:0:0:
236,57,128664,2,0,P|228:111|184:144,1,112.500004291535
112,248,129054,1,0,0:0:0:0:
240,288,129248,6,0,L|240:344,1,44.999998626709,2|0,0:0|0:0,0:0:0:0:
240,288,129443,2,0,L|240:168,1,89.9999972534181,2|0,0:0|0:0,0:0:0:0:
312,112,129833,2,0,P|336:192|312:248,1,101.250000386238,2|0,0:0|0:0,0:0:0:0:
168,112,130222,2,0,P|144:176|176:248,1,112.500004291535
240,288,130612,1,4,0:0:0:0:
352,240,130807,1,0,0:0:0:0:
416,136,131002,6,0,P|328:176|320:176,1,89.9999972534181,8|0,0:0|0:0,0:0:0:0:
240,184,131391,1,0,0:0:0:0:
160,248,131586,1,0,0:0:0:0:
96,176,131781,2,0,P|88:96|96:72,1,89.9999972534181,8|0,0:0|0:0,0:0:0:0:
208,48,132171,1,0,0:0:0:0:
336,72,132365,6,0,L|384:48,1,44.999998626709,2|0,0:0|0:0,0:0:0:0:
336,72,132560,2,0,P|352:136|336:176,1,89.9999972534181,2|0,0:0|0:0,0:0:0:0:
312,264,132950,2,0,P|240:312|192:296,1,101.250000386238,2|0,0:0|0:0,0:0:0:0:
112,240,133339,2,0,P|72:184|80:112,1,112.500004291535
176,72,133729,1,0,0:0:0:0:
256,136,133924,6,0,L|256:200,1,44.999998626709,2|0,0:0|0:0,0:0:0:0:
256,181,134119,2,0,P|320:176|352:160,1,89.9999972534181,2|0,0:0|0:0,0:0:0:0:
424,88,134508,2,0,P|456:176|432:216,1,101.250000386238,2|0,0:0|0:0,0:0:0:0:
368,296,134898,2,0,P|280:320|224:304,1,112.500004291535
184,248,135287,5,4,0:0:0:0:
96,200,135482,1,0,0:0:0:0:
96,104,135677,1,0,0:0:0:0:
184,152,135872,1,0,0:0:0:0:
272,104,136067,1,4,0:0:0:0:
184,152,136261,1,0,0:0:0:0:
184,248,136456,5,0,0:0:0:0:
214,261,136553,1,0,0:0:0:0:
248,265,136650,1,0,0:0:0:0:
281,259,136748,1,0,0:0:0:0:
311,245,136845,1,0,0:0:0:0:
416,72,137235,1,0,0:0:0:0:
184,72,137625,6,0,P|256:112|264:160,1,104.999996795654,2|8,0:0|0:0,0:0:0:0:
262,128,137917,1,8,0:0:0:0:
262,128,138015,1,0,0:0:0:0:
416,304,138404,2,0,P|328:320|288:304,1,104.999996795654,2|0,0:0|0:0,0:0:0:0:
315,316,138696,2,0,P|240:272|176:272,1,104.999996795654,2|0,0:0|0:0,0:0:0:0:
223,269,138989,2,0,P|128:296|96:272,1,104.999996795654,2|8,0:0|0:0,0:0:0:0:
130,296,139573,1,0,0:0:0:0:
104,64,139963,6,0,L|176:144,1,104.999996795654,2|0,0:0|0:0,0:0:0:0:
174,142,140352,1,0,0:0:0:0:
408,64,140742,6,0,L|337:142,1,104.999996795654,10|0,0:0|0:0,0:0:0:0:
337,142,141131,1,0,0:0:0:0:
176,312,141521,2,0,P|232:256|264:240,1,104.999996795654,2|0,0:0|0:0,0:0:0:0:
254,244,141813,2,0,P|336:224|368:240,1,104.999996795654,2|0,0:0|0:0,0:0:0:0:
352,230,142106,2,0,P|408:200|416:144,1,104.999996795654,2|8,0:0|0:0,0:0:0:0:
418,163,142690,1,0,0:0:0:0:
216,56,143080,6,0,P|184:120|184:176,1,104.999996795654,2|0,0:0|0:0,0:0:0:0:
181,152,143469,1,0,0:0:0:0:
296,328,143859,6,0,P|328:264|328:208,1,104.999996795654,10|0,0:0|0:0,0:0:0:0:
330,231,144151,1,0,0:0:0:0:
330,231,144248,1,0,0:0:0:0:
104,280,144638,6,0,L|208:224,1,104.999996795654,2|0,0:0|0:0,0:0:0:0:
196,230,144930,2,0,L|136:120,1,104.999996795654,2|0,0:0|0:0,0:0:0:0:
145,138,145222,2,0,L|240:88,1,104.999996795654,2|8,0:0|0:0,0:0:0:0:
238,88,145807,1,0,0:0:0:0:
448,192,146196,6,0,L|336:128,1,104.999996795654,2|0,0:0|0:0,0:0:0:0:
356,139,146586,1,0,0:0:0:0:
64,192,146976,6,0,L|176:256,1,104.999996795654,8|0,0:0|0:0,0:0:0:0:
155,244,147366,1,0,0:0:0:0:
376,304,147755,2,0,P|344:256|304:224,1,104.999996795654,2|0,0:0|0:0,0:0:0:0:
307,226,148047,2,0,L|200:152,1,104.999996795654,2|0,0:0|0:0,0:0:0:0:
221,166,148339,2,0,P|181:132|152:88,1,104.999996795654,2|8,0:0|0:0,0:0:0:0:
152,88,148729,1,0,0:0:0:0:
264,64,148924,1,0,0:0:0:0:
376,88,149119,1,0,0:0:0:0:
440,184,149313,6,0,P|400:264|368:280,1,104.999996795654,2|0,0:0|0:0,0:0:0:0:
272,272,149703,2,0,L|168:272,1,104.999996795654,2|0,0:0|0:0,0:0:0:0:
80,200,150093,2,0,L|208:152,1,104.999996795654,10|0,0:0|0:0,0:0:0:0:
178,163,150385,1,0,0:0:0:0:
178,163,150482,1,0,0:0:0:0:
296,160,150677,1,0,0:0:0:0:
368,64,150872,6,0,P|400:144|400:168,1,104.999996795654,2|0,0:0|0:0,0:0:0:0:
400,161,151164,2,0,P|368:224|336:248,1,104.999996795654,2|0,0:0|0:0,0:0:0:0:
341,244,151456,2,0,P|264:256|224:240,1,104.999996795654,2|8,0:0|0:0,0:0:0:0:
240,248,152041,1,0,0:0:0:0:
112,56,152430,6,0,P|184:104|184:160,1,104.999996795654,2|0,0:0|0:0,0:0:0:0:
192,232,152820,2,0,P|218:275|267:292,1,104.999996795654,2|0,0:0|0:0,0:0:0:0:
384,296,153209,2,0,P|432:279|459:235,1,104.999996795654,8|0,0:0|0:0,0:0:0:0:
459,235,153502,1,0,0:0:0:0:
459,235,153599,1,0,0:0:0:0:
464,120,153794,1,0,0:0:0:0:
312,56,153989,6,0,L|352:160,1,104.999996795654,2|0,0:0|0:0,0:0:0:0:
349,154,154281,2,0,L|272:240,1,104.999996795654,2|0,0:0|0:0,0:0:0:0:
279,231,154573,2,0,L|152:232,1,104.999996795654,2|8,0:0|0:0,0:0:0:0:
174,231,155158,1,0,0:0:0:0:
400,288,155547,6,0,P|304:320|272:312,1,104.999996795654,2|0,0:0|0:0,0:0:0:0:
360,216,155937,2,0,P|264:182|244:156,1,104.999996795654,2|0,0:0|0:0,0:0:0:0:
368,136,156326,2,0,P|297:63|290:31,1,104.999996795654,8|0,0:0|0:0,0:0:0:0:
296,63,156619,1,0,0:0:0:0:
296,63,156716,1,0,0:0:0:0:
200,120,156911,1,0,0:0:0:0:
96,176,157106,6,0,L|136:280,1,104.999996795654,2|0,0:0|0:0,0:0:0:0:
133,274,157398,2,0,L|232:224,1,104.999996795654,2|0,0:0|0:0,0:0:0:0:
226,226,157690,2,0,L|336:248,1,104.999996795654,2|8,0:0|0:0,0:0:0:0:
329,246,158274,1,0,0:0:0:0:
448,48,158664,6,0,P|384:120|344:120,1,104.999996795654,2|0,0:0|0:0,0:0:0:0:
264,120,159054,2,0,P|192:160|192:200,1,104.999996795654,2|0,0:0|0:0,0:0:0:0:
192,288,159443,2,0,P|217:332|267:342,1,104.999996795654,8|0,0:0|0:0,0:0:0:0:
267,342,159735,1,0,0:0:0:0:
267,342,159833,1,0,0:0:0:0:
376,304,160028,1,0,0:0:0:0:
432,144,160222,5,4,0:0:0:0:
296,208,160417,1,0,0:0:0:0:
280,184,160515,1,0,0:0:0:0:
264,160,160612,1,0,0:0:0:0:
208,56,160807,1,0,0:0:0:0:
88,144,161002,1,0,0:0:0:0:
144,280,161196,1,4,0:0:0:0:
280,320,161391,1,4,0:0:0:0:
392,96,161781,6,0,P|384:176|360:216,1,112.500004291535
256,248,162171,2,0,P|176:216|144:184,1,112.500004291535,8|0,0:0|0:0,0:0:0:0:
272,152,162560,1,0,0:0:0:0:
216,40,162755,1,0,0:0:0:0:
104,96,162950,1,8,0:0:0:0:
104,216,163145,2,0,P|136:288|184:304,1,112.500004291535,2|0,0:0|0:0,0:0:0:0:
288,304,163534,1,0,0:0:0:0:
408,264,163729,6,0,P|408:184|376:136,1,112.500004291535,8|0,0:0|0:0,0:0:0:0:
272,160,164119,2,0,P|288:96|360:72,2,112.500004291535,0|0|8,0:0|0:0|0:0,0:0:0:0:
152,160,164703,2,0,P|184:240|232:248,1,112.500004291535,2|0,0:0|0:0,0:0:0:0:
328,248,165093,1,2,0:0:0:0:
448,248,165287,6,0,P|424:320|360:344,1,112.500004291535,8|0,0:0|0:0,0:0:0:0:
272,336,165677,1,2,0:0:0:0:
152,336,165872,2,0,P|192:256|232:240,1,112.500004291535,0|8,0:0|0:0,0:0:0:0:
296,160,166261,1,0,0:0:0:0:
360,56,166456,5,0,0:0:0:0:
240,56,166651,2,0,P|192:104|176:176,1,112.500004291535,2|8,0:0|0:0,0:0:0:0:
72,208,167041,1,0,0:0:0:0:
176,280,167235,2,0,P|272:296|304:288,1,112.500004291535,2|0,0:0|0:0,0:0:0:0:
285,293,167528,1,0,0:0:0:0:
285,293,167625,1,8,0:0:0:0:
400,240,167820,1,0,0:0:0:0:
376,120,168015,6,0,P|312:192|280:208,1,112.500004291535,4|0,0:0|0:0,0:0:0:0:
176,200,168404,2,0,P|131:166|99:120,1,112.500004291535,8|0,0:0|0:0,0:0:0:0:
240,104,168794,2,0,L|240:248,1,112.500004291535
304,320,169183,1,8,0:0:0:0:
184,320,169378,1,2,0:0:0:0:
72,64,169768,5,2,0:0:0:0:
72,64,169963,2,0,P|160:112|184:144,1,112.500004291535,8|0,0:0|0:0,0:0:0:0:
256,208,170352,2,0,P|360:224|392:208,1,112.500004291535,2|0,0:0|0:0,0:0:0:0:
363,222,170645,1,0,0:0:0:0:
363,222,170742,1,8,0:0:0:0:
488,224,170937,1,0,0:0:0:0:
296,72,171326,5,2,0:0:0:0:
176,72,171521,2,0,P|112:136|112:192,1,112.500004291535,8|0,0:0|0:0,0:0:0:0:
112,280,171911,2,0,P|200:296|240:288,1,112.500004291535,2|0,0:0|0:0,0:0:0:0:
221,292,172203,1,0,0:0:0:0:
221,292,172300,1,0,0:0:0:0:
344,296,172495,1,0,0:0:0:0:
448,192,172690,5,2,0:0:0:0:
256,64,173080,1,2,0:0:0:0:
64,192,173469,1,2,0:0:0:0:
256,320,173859,1,2,0:0:0:0:
456,320,174248,5,4,0:0:0:0:
384,240,174443,1,0,0:0:0:0:
280,240,174638,1,0,0:0:0:0:
192,176,174833,1,0,0:0:0:0:
280,112,175028,1,8,0:0:0:0:
192,176,175222,1,0,0:0:0:0:
280,240,175417,5,0,0:0:0:0:
192,304,175612,1,0,0:0:0:0:
104,240,175807,1,4,0:0:0:0:
104,136,176002,1,0,0:0:0:0:
192,72,176196,1,0,0:0:0:0:
296,72,176391,1,0,0:0:0:0:
296,176,176586,6,0,P|368:192|416:216,1,97.4999955368044,2|0,0:0|0:0,0:0:0:0:
416,296,176976,2,0,P|312:296|280:280,1,97.4999955368044,2|0,0:0|0:0,0:0:0:0:
216,296,177365,5,4,0:0:0:0:
128,240,177560,1,0,0:0:0:0:
40,184,177755,1,0,0:0:0:0:
128,128,177950,1,0,0:0:0:0:
216,72,178145,1,8,0:0:0:0:
216,184,178339,1,0,0:0:0:0:
128,128,178534,5,0,0:0:0:0:
216,72,178729,1,0,0:0:0:0:
216,184,178924,1,4,0:0:0:0:
128,128,179119,1,0,0:0:0:0:
128,240,179313,1,0,0:0:0:0:
216,184,179508,1,0,0:0:0:0:
216,296,179703,5,0,0:0:0:0:
320,296,179898,1,0,0:0:0:0:
320,296,180093,2,0,P|352:224|336:176,1,97.4999955368044
349,208,180385,1,0,0:0:0:0:
349,208,180482,1,4,0:0:0:0:
352,104,180677,1,0,0:0:0:0:
248,104,180872,6,0,L|136:104,1,97.4999955368044,2|0,0:0|0:0,0:0:0:0:
80,200,181261,2,0,L|200:200,1,97.4999955368044,8|0,0:0|0:0,0:0:0:0:
248,296,181651,2,0,L|144:296,1,97.4999955368044,2|0,0:0|0:0,0:0:0:0:
208,200,182041,1,0,0:0:0:0:
145,103,182235,1,0,0:0:0:0:
184,104,182333,1,0,0:0:0:0:
224,104,182430,1,0,0:0:0:0:
336,104,182625,1,0,0:0:0:0:
424,192,182820,6,0,P|336:224|312:224,1,97.4999955368044,8|0,0:0|0:0,0:0:0:0:
240,280,183209,2,0,P|232:192|248:152,1,97.4999955368044,2|0,0:0|0:0,0:0:0:0:
145,103,183599,1,2,0:0:0:0:
56,200,183794,1,0,0:0:0:0:
72,224,183891,1,0,0:0:0:0:
88,248,183989,1,0,0:0:0:0:
160,328,184183,1,0,0:0:0:0:
264,328,184378,6,0,P|336:296|352:272,1,97.4999955368044,8|0,0:0|0:0,0:0:0:0:
392,184,184768,2,0,P|408:104|400:64,1,97.4999955368044
296,88,185158,1,0,0:0:0:0:
296,88,185352,1,0,0:0:0:0:
184,88,185547,1,0,0:0:0:0:
184,88,185742,1,0,0:0:0:0:
184,200,185937,5,0,0:0:0:0:
296,200,186132,1,0,0:0:0:0:
184,88,186326,1,0,0:0:0:0:
184,200,186521,1,0,0:0:0:0:
296,88,186716,1,4,0:0:0:0:
