osu file format v14

[General]
AudioFilename: 03. French Virgin Party.mp3
AudioLeadIn: 0
PreviewTime: 86976
Countdown: 0
SampleSet: Soft
StackLeniency: 0.9
Mode: 3
LetterboxInBreaks: 0
EpilepsyWarning: 1
SpecialStyle: 0
WidescreenStoryboard: 0

[Editor]
DistanceSpacing: 1.1
BeatDivisor: 4
GridSize: 4
TimelineZoom: 2.1

[Metadata]
Title:French Virgin Party
TitleUnicode:French Virgin Party
Artist:Glen Check
ArtistUnicode:Glen Check
Creator:Jingshenbing
Version:Miramono's 4K NM
Source:
Tags:AlpacaCokelat Haute Couture Nijigen-kun Miramono TheForgotten5 Kioshinxs electronic english
BeatmapID:467800
BeatmapSetID:183511

[Difficulty]
HPDrainRate:4
CircleSize:4
OverallDifficulty:4
ApproachRate:4
SliderMultiplier:0.9
SliderTickRate:2

[Events]
//Background and Video events
0,0,"Glen-Check-BW.jpg",0,0
Video,5774,"French Virgin Party.flv"
//Break Periods
2,99643,104357
2,155747,160461
//Storyboard Layer 0 (Background)
//Storyboard Layer 1 (Fail)
//Storyboard Layer 2 (Pass)
//Storyboard Layer 3 (Foreground)
//Storyboard Layer 4 (Overlay)
//Storyboard Sound Samples

[TimingPoints]
12171,389.61038961039,4,2,1,50,1,0
24638,-100,4,2,1,70,0,0
24735,-100,4,2,1,70,0,0
37106,-100,4,2,1,70,0,0
37203,-100,4,2,1,70,0,0
55807,-100,4,2,1,50,0,0
62041,-100,4,2,1,70,0,1
74508,-100,4,2,1,70,0,0
80742,-100,4,2,1,50,0,0
86976,-100,4,2,1,50,0,1
99346,-100,4,2,1,50,0,1
99443,-100,4,2,1,50,0,0
99541,-100,4,2,1,50,0,0
111911,-100,4,2,1,70,0,1
124378,-100,4,2,1,70,0,0
161781,-100,4,2,1,70,0,1
174248,-100,4,2,1,60,0,0

[Colours]
Combo1 : 255,128,255
Combo2 : 185,185,185
Combo3 : 100,100,100
Combo4 : 255,255,0

[HitObjects]
448,192,12170,5,0,0:0:0:0:
320,200,12170,1,0,0:0:0:0:
192,192,12950,1,0,0:0:0:0:
320,192,12950,1,0,0:0:0:0:
320,192,13145,1,0,0:0:0:0:
192,192,13339,1,0,0:0:0:0:
448,192,13534,1,0,0:0:0:0:
448,192,13729,1,0,0:0:0:0:
320,192,13729,1,0,0:0:0:0:
64,192,14508,1,0,0:0:0:0:
192,192,14508,128,0,14898:0:0:0:0:
320,192,14898,1,0,0:0:0:0:
64,192,15093,1,0,0:0:0:0:
320,192,15287,1,0,0:0:0:0:
448,192,15287,1,0,0:0:0:0:
320,192,16067,1,0,0:0:0:0:
448,192,16067,1,0,0:0:0:0:
320,192,16261,1,0,0:0:0:0:
192,192,16456,1,0,0:0:0:0:
64,192,16651,1,0,0:0:0:0:
320,192,16846,1,0,0:0:0:0:
448,192,16846,1,0,0:0:0:0:
64,192,17625,1,0,0:0:0:0:
192,192,17625,1,0,0:0:0:0:
320,192,17820,1,0,0:0:0:0:
192,192,18015,1,0,0:0:0:0:
64,192,18015,1,0,0:0:0:0:
320,192,18209,1,0,0:0:0:0:
320,192,18404,1,0,0:0:0:0:
448,192,18404,1,0,0:0:0:0:
448,192,19183,1,0,0:0:0:0:
320,192,19183,1,0,0:0:0:0:
320,192,19378,1,0,0:0:0:0:
192,192,19573,1,0,0:0:0:0:
64,192,19768,1,0,0:0:0:0:
320,192,19963,1,0,0:0:0:0:
448,192,19963,1,0,0:0:0:0:
64,192,20742,1,0,0:0:0:0:
320,192,21132,1,0,0:0:0:0:
192,192,21326,1,0,0:0:0:0:
64,192,21326,1,0,0:0:0:0:
320,192,21521,1,0,0:0:0:0:
448,192,21521,1,0,0:0:0:0:
320,192,22300,1,0,0:0:0:0:
192,192,22300,1,0,0:0:0:0:
320,192,22495,1,0,0:0:0:0:
192,192,22690,1,0,0:0:0:0:
64,192,22885,1,0,0:0:0:0:
320,192,23080,1,0,0:0:0:0:
192,192,23080,1,0,0:0:0:0:
320,192,23469,1,0,0:0:0:0:
192,192,23469,1,0,0:0:0:0:
192,192,24054,1,0,0:0:0:0:
305,192,24054,1,0,0:0:0:0:
320,192,24248,1,0,0:0:0:0:
192,192,24248,1,0,0:0:0:0:
448,192,24638,128,0,25222:0:0:0:0:
320,192,25222,1,0,0:0:0:0:
320,192,25417,1,0,0:0:0:0:
192,192,25612,1,0,0:0:0:0:
192,192,25807,1,0,0:0:0:0:
64,192,26002,1,0,0:0:0:0:
64,192,26196,128,0,26781:0:0:0:0:
448,192,26781,1,0,0:0:0:0:
448,192,26976,1,0,0:0:0:0:
320,192,27171,1,0,0:0:0:0:
320,192,27365,1,0,0:0:0:0:
181,192,27560,1,0,0:0:0:0:
64,192,27755,128,0,28339:0:0:0:0:
448,192,28339,1,0,0:0:0:0:
448,192,28534,1,0,0:0:0:0:
320,192,28729,1,0,0:0:0:0:
313,192,28924,1,0,0:0:0:0:
186,192,29119,1,0,0:0:0:0:
64,192,29313,128,0,29898:0:0:0:0:
320,192,29898,1,0,0:0:0:0:
320,192,30093,1,0,0:0:0:0:
192,192,30287,1,0,0:0:0:0:
192,192,30482,1,0,0:0:0:0:
68,192,30677,1,0,0:0:0:0:
445,192,30872,128,0,31456:0:0:0:0:
320,192,31456,1,0,0:0:0:0:
320,192,31651,1,0,0:0:0:0:
192,192,31846,1,0,0:0:0:0:
192,192,32041,1,0,0:0:0:0:
64,192,32235,1,0,0:0:0:0:
64,192,32430,128,0,33015:0:0:0:0:
448,192,33015,1,0,0:0:0:0:
448,192,33209,1,0,0:0:0:0:
320,192,33404,1,0,0:0:0:0:
320,192,33599,1,0,0:0:0:0:
192,192,33794,1,0,0:0:0:0:
64,192,33989,128,0,34573:0:0:0:0:
448,192,34573,1,0,0:0:0:0:
450,192,34768,1,0,0:0:0:0:
320,192,34963,1,0,0:0:0:0:
320,192,35158,1,0,0:0:0:0:
192,192,35352,1,0,0:0:0:0:
64,192,35547,128,0,36132:0:0:0:0:
320,192,36132,1,0,0:0:0:0:
320,192,36326,1,0,0:0:0:0:
192,192,36521,1,0,0:0:0:0:
192,192,36716,1,0,0:0:0:0:
64,192,36911,1,0,0:0:0:0:
448,192,37106,128,0,37690:0:0:0:0:
320,192,37300,1,0,0:0:0:0:
320,192,37690,1,0,0:0:0:0:
64,192,38080,1,0,0:0:0:0:
64,192,38469,1,0,0:0:0:0:
192,192,38859,1,0,0:0:0:0:
192,192,39248,1,0,0:0:0:0:
320,192,39443,1,0,0:0:0:0:
320,192,39638,1,0,0:0:0:0:
448,192,39833,1,0,0:0:0:0:
320,192,40028,1,0,0:0:0:0:
320,192,40222,128,0,40807:0:0:0:0:
192,192,40417,1,0,0:0:0:0:
192,192,40807,1,0,0:0:0:0:
64,192,41196,1,0,0:0:0:0:
64,192,41586,1,0,0:0:0:0:
192,192,41976,1,0,0:0:0:0:
192,192,42365,1,0,0:0:0:0:
320,192,42560,1,0,0:0:0:0:
320,192,42755,1,0,0:0:0:0:
448,192,42950,1,0,0:0:0:0:
313,192,43145,1,0,0:0:0:0:
448,192,43339,128,0,43924:0:0:0:0:
320,192,43534,1,0,0:0:0:0:
320,192,43924,1,0,0:0:0:0:
64,192,44313,1,0,0:0:0:0:
64,192,44703,1,0,0:0:0:0:
192,192,45093,1,0,0:0:0:0:
192,192,45482,1,0,0:0:0:0:
320,192,45677,1,0,0:0:0:0:
320,192,45872,1,0,0:0:0:0:
448,192,46067,1,0,0:0:0:0:
320,192,46261,1,0,0:0:0:0:
320,192,46456,128,0,47041:0:0:0:0:
192,192,46651,1,0,0:0:0:0:
192,192,47041,1,0,0:0:0:0:
64,192,47430,1,0,0:0:0:0:
64,192,47820,1,0,0:0:0:0:
320,192,48209,1,0,0:0:0:0:
320,192,48599,1,0,0:0:0:0:
192,192,48794,1,0,0:0:0:0:
192,192,48989,1,0,0:0:0:0:
320,192,49183,1,0,0:0:0:0:
192,192,49378,1,0,0:0:0:0:
320,192,49573,1,0,0:0:0:0:
192,192,49573,1,0,0:0:0:0:
449,192,49963,1,0,0:0:0:0:
192,192,50352,1,0,0:0:0:0:
320,192,50742,1,0,0:0:0:0:
64,192,51132,1,0,0:0:0:0:
320,192,51521,1,0,0:0:0:0:
64,192,51911,1,0,0:0:0:0:
192,192,52300,1,0,0:0:0:0:
192,192,52690,1,0,0:0:0:0:
320,192,52690,1,0,0:0:0:0:
448,192,53080,1,0,0:0:0:0:
192,192,53469,1,0,0:0:0:0:
64,192,53859,1,0,0:0:0:0:
320,192,54054,128,0,54638:0:0:0:0:
192,192,54638,1,0,0:0:0:0:
448,192,54833,128,0,55417:0:0:0:0:
320,192,55417,1,0,0:0:0:0:
192,192,55807,1,0,0:0:0:0:
320,192,55807,1,0,0:0:0:0:
448,192,56196,1,0,0:0:0:0:
192,192,56586,1,0,0:0:0:0:
320,192,56976,1,0,0:0:0:0:
64,192,57365,1,0,0:0:0:0:
448,192,57755,1,0,0:0:0:0:
64,192,58145,1,0,0:0:0:0:
320,192,58534,1,0,0:0:0:0:
192,192,58924,1,0,0:0:0:0:
320,192,58924,1,0,0:0:0:0:
448,192,59313,1,0,0:0:0:0:
192,192,59703,1,0,0:0:0:0:
320,192,60093,1,0,0:0:0:0:
64,192,60482,1,0,0:0:0:0:
448,192,60872,1,0,0:0:0:0:
192,192,61261,1,0,0:0:0:0:
192,192,61456,1,0,0:0:0:0:
320,192,61651,1,0,0:0:0:0:
320,192,61846,1,0,0:0:0:0:
448,192,62041,128,0,62625:0:0:0:0:
320,192,62235,1,0,0:0:0:0:
320,192,62625,1,0,0:0:0:0:
64,192,63015,1,0,0:0:0:0:
64,192,63404,1,0,0:0:0:0:
192,192,63794,1,0,0:0:0:0:
192,192,64183,1,0,0:0:0:0:
320,192,64378,1,0,0:0:0:0:
320,192,64573,1,0,0:0:0:0:
448,192,64768,1,0,0:0:0:0:
320,192,64963,1,0,0:0:0:0:
320,192,65158,128,0,65742:0:0:0:0:
192,192,65352,1,0,0:0:0:0:
192,192,65742,1,0,0:0:0:0:
64,192,66132,1,0,0:0:0:0:
64,192,66521,1,0,0:0:0:0:
320,192,66911,1,0,0:0:0:0:
320,192,67300,1,0,0:0:0:0:
192,192,67495,1,0,0:0:0:0:
192,192,67690,1,0,0:0:0:0:
320,192,67885,1,0,0:0:0:0:
192,192,68080,1,0,0:0:0:0:
448,192,68274,128,0,68859:0:0:0:0:
320,192,68469,1,0,0:0:0:0:
320,192,68859,1,0,0:0:0:0:
64,192,69248,1,0,0:0:0:0:
64,192,69638,1,0,0:0:0:0:
192,192,70028,1,0,0:0:0:0:
192,192,70417,1,0,0:0:0:0:
320,192,70612,1,0,0:0:0:0:
320,192,70807,1,0,0:0:0:0:
448,192,71002,1,0,0:0:0:0:
320,192,71196,1,0,0:0:0:0:
192,192,71391,128,0,71976:0:0:0:0:
320,192,71586,1,0,0:0:0:0:
320,192,71976,1,0,0:0:0:0:
448,192,72365,1,0,0:0:0:0:
448,192,72755,1,0,0:0:0:0:
192,192,73145,1,0,0:0:0:0:
192,192,73534,1,0,0:0:0:0:
320,192,73729,1,0,0:0:0:0:
320,192,73924,1,0,0:0:0:0:
448,192,74119,1,0,0:0:0:0:
320,192,74313,1,0,0:0:0:0:
320,192,74508,1,0,0:0:0:0:
192,192,74508,1,0,0:0:0:0:
64,192,74898,1,0,0:0:0:0:
192,192,74898,1,0,0:0:0:0:
320,192,75287,1,0,0:0:0:0:
448,192,75677,1,0,0:0:0:0:
64,192,76067,1,0,0:0:0:0:
448,192,76456,1,0,0:0:0:0:
192,192,76846,1,0,0:0:0:0:
320,192,77235,1,0,0:0:0:0:
320,192,77625,1,0,0:0:0:0:
192,192,77625,1,0,0:0:0:0:
320,192,78015,1,0,0:0:0:0:
448,192,78015,1,0,0:0:0:0:
64,192,78404,1,0,0:0:0:0:
320,192,78794,1,0,0:0:0:0:
320,192,78989,128,0,79573:0:0:0:0:
192,192,79573,1,0,0:0:0:0:
192,192,79768,128,0,80547:0:0:0:0:
315,192,80547,1,0,0:0:0:0:
192,192,80742,1,0,0:0:0:0:
320,192,80742,1,0,0:0:0:0:
320,192,81132,1,0,0:0:0:0:
192,192,81521,1,0,0:0:0:0:
64,192,81911,1,0,0:0:0:0:
192,192,81911,1,0,0:0:0:0:
64,192,82300,1,0,0:0:0:0:
448,192,82690,1,0,0:0:0:0:
192,192,83080,1,0,0:0:0:0:
320,192,83469,1,0,0:0:0:0:
192,192,83859,1,0,0:0:0:0:
320,192,83859,1,0,0:0:0:0:
192,192,84248,1,0,0:0:0:0:
64,192,84638,1,0,0:0:0:0:
448,192,85028,1,0,0:0:0:0:
192,192,85417,1,0,0:0:0:0:
320,192,85807,1,0,0:0:0:0:
320,192,86196,1,0,0:0:0:0:
320,192,86391,1,0,0:0:0:0:
448,192,86586,1,0,0:0:0:0:
448,192,86781,1,0,0:0:0:0:
320,192,86976,1,0,0:0:0:0:
192,192,86976,1,0,0:0:0:0:
448,192,87365,1,0,0:0:0:0:
448,192,87755,128,0,88339:0:0:0:0:
64,192,88145,1,0,0:0:0:0:
64,192,88339,1,0,0:0:0:0:
320,192,88729,1,0,0:0:0:0:
320,192,88924,1,0,0:0:0:0:
192,192,89313,128,0,89898:0:0:0:0:
64,192,89703,1,0,0:0:0:0:
320,192,89898,1,0,0:0:0:0:
448,192,90287,1,0,0:0:0:0:
448,192,90580,1,0,0:0:0:0:
448,192,90872,128,0,91456:0:0:0:0:
192,192,91261,1,0,0:0:0:0:
192,192,91456,1,0,0:0:0:0:
320,192,91846,1,0,0:0:0:0:
320,192,92138,1,0,0:0:0:0:
320,192,92430,128,0,93015:0:0:0:0:
64,192,92820,1,0,0:0:0:0:
192,192,93015,1,0,0:0:0:0:
448,192,93599,1,0,0:0:0:0:
448,192,93989,128,0,94573:0:0:0:0:
192,192,94378,1,0,0:0:0:0:
192,192,94573,1,0,0:0:0:0:
320,192,94963,1,0,0:0:0:0:
320,192,95158,1,0,0:0:0:0:
320,192,95547,128,0,96132:0:0:0:0:
64,192,95937,1,0,0:0:0:0:
192,192,96132,1,0,0:0:0:0:
448,192,96521,1,0,0:0:0:0:
448,192,96813,1,0,0:0:0:0:
448,192,97106,128,0,97690:0:0:0:0:
192,192,97495,1,0,0:0:0:0:
192,192,97690,1,0,0:0:0:0:
320,192,98274,1,0,0:0:0:0:
192,192,98274,1,0,0:0:0:0:
448,192,98664,1,0,0:0:0:0:
64,192,98664,1,0,0:0:0:0:
320,192,99054,1,0,0:0:0:0:
192,192,99054,1,0,0:0:0:0:
448,192,99248,1,0,0:0:0:0:
64,192,99248,1,0,0:0:0:0:
192,192,99443,1,0,0:0:0:0:
320,192,99443,1,0,0:0:0:0:
320,192,105677,5,0,0:0:0:0:
192,192,105677,1,0,0:0:0:0:
448,192,106456,1,0,0:0:0:0:
320,192,106651,1,0,0:0:0:0:
192,192,106846,1,0,0:0:0:0:
64,192,107041,1,0,0:0:0:0:
320,192,107235,1,0,0:0:0:0:
192,192,107235,1,0,0:0:0:0:
64,192,108015,1,0,0:0:0:0:
192,192,108015,1,0,0:0:0:0:
320,192,108404,1,0,0:0:0:0:
448,192,108404,1,0,0:0:0:0:
64,192,108599,1,0,0:0:0:0:
320,192,108794,1,0,0:0:0:0:
192,192,108794,1,0,0:0:0:0:
320,192,109573,1,0,0:0:0:0:
448,192,109573,1,0,0:0:0:0:
320,192,109768,1,0,0:0:0:0:
192,192,109963,1,0,0:0:0:0:
64,192,110158,1,0,0:0:0:0:
320,192,110352,1,0,0:0:0:0:
192,192,110352,1,0,0:0:0:0:
320,192,110742,1,0,0:0:0:0:
192,192,110742,1,0,0:0:0:0:
320,192,111326,1,0,0:0:0:0:
192,192,111326,1,0,0:0:0:0:
192,192,111521,1,0,0:0:0:0:
320,192,111521,1,0,0:0:0:0:
448,192,111911,128,0,112495:0:0:0:0:
320,192,112106,1,0,0:0:0:0:
320,192,112495,1,0,0:0:0:0:
64,192,112885,1,0,0:0:0:0:
64,192,113274,1,0,0:0:0:0:
192,192,113664,1,0,0:0:0:0:
192,192,114054,1,0,0:0:0:0:
320,192,114443,1,0,0:0:0:0:
448,192,114638,1,0,0:0:0:0:
320,192,114833,1,0,0:0:0:0:
192,192,115028,128,0,115612:0:0:0:0:
448,192,115222,1,0,0:0:0:0:
448,192,115612,1,0,0:0:0:0:
320,192,116002,1,0,0:0:0:0:
320,192,116391,1,0,0:0:0:0:
192,192,116781,1,0,0:0:0:0:
192,192,117171,1,0,0:0:0:0:
320,192,117365,1,0,0:0:0:0:
320,192,117560,1,0,0:0:0:0:
448,192,117755,1,0,0:0:0:0:
320,192,117950,1,0,0:0:0:0:
448,192,118145,128,0,118729:0:0:0:0:
320,192,118339,1,0,0:0:0:0:
320,192,118729,1,0,0:0:0:0:
192,192,119119,1,0,0:0:0:0:
192,192,119508,1,0,0:0:0:0:
64,192,119898,1,0,0:0:0:0:
64,192,120287,1,0,0:0:0:0:
192,192,120482,1,0,0:0:0:0:
192,192,120677,1,0,0:0:0:0:
320,192,120872,1,0,0:0:0:0:
192,192,121067,1,0,0:0:0:0:
320,192,121261,128,0,121846:0:0:0:0:
64,192,121456,1,0,0:0:0:0:
64,192,121846,1,0,0:0:0:0:
192,192,122235,1,0,0:0:0:0:
192,192,122625,1,0,0:0:0:0:
64,192,123015,1,0,0:0:0:0:
64,192,123404,1,0,0:0:0:0:
320,192,123599,1,0,0:0:0:0:
320,192,123794,1,0,0:0:0:0:
448,192,123989,1,0,0:0:0:0:
320,192,124183,1,0,0:0:0:0:
320,192,124378,1,0,0:0:0:0:
192,192,124378,1,0,0:0:0:0:
448,192,124768,1,0,0:0:0:0:
448,192,125158,128,0,125742:0:0:0:0:
64,192,125547,1,0,0:0:0:0:
64,192,125742,1,0,0:0:0:0:
320,192,126132,1,0,0:0:0:0:
320,192,126326,1,0,0:0:0:0:
320,192,126716,128,0,127300:0:0:0:0:
64,192,127106,1,0,0:0:0:0:
192,192,127300,1,0,0:0:0:0:
448,192,127690,1,0,0:0:0:0:
448,192,127982,1,0,0:0:0:0:
448,192,128274,128,0,128859:0:0:0:0:
64,192,128664,1,0,0:0:0:0:
64,192,128859,1,0,0:0:0:0:
320,192,129248,1,0,0:0:0:0:
320,192,129541,1,0,0:0:0:0:
320,192,129833,128,0,130417:0:0:0:0:
64,192,130222,1,0,0:0:0:0:
192,192,130417,1,0,0:0:0:0:
447,192,131002,1,0,0:0:0:0:
447,192,131391,128,0,131976:0:0:0:0:
63,192,131781,1,0,0:0:0:0:
63,192,131976,1,0,0:0:0:0:
318,192,132365,1,0,0:0:0:0:
318,192,132560,1,0,0:0:0:0:
318,192,132950,128,0,133534:0:0:0:0:
62,192,133339,1,0,0:0:0:0:
190,192,133534,1,0,0:0:0:0:
448,192,133924,1,0,0:0:0:0:
448,192,134216,1,0,0:0:0:0:
448,192,134508,128,0,135093:0:0:0:0:
192,192,134898,1,0,0:0:0:0:
192,192,135093,1,0,0:0:0:0:
320,192,135287,1,0,0:0:0:0:
192,192,135287,1,0,0:0:0:0:
448,192,135482,1,0,0:0:0:0:
192,192,135677,1,0,0:0:0:0:
320,192,135872,1,0,0:0:0:0:
64,192,136067,1,0,0:0:0:0:
448,192,136261,1,0,0:0:0:0:
192,192,136456,1,0,0:0:0:0:
320,192,136651,1,0,0:0:0:0:
320,192,136846,1,0,0:0:0:0:
192,192,136846,1,0,0:0:0:0:
64,192,137235,1,0,0:0:0:0:
448,192,137625,1,0,0:0:0:0:
448,192,138015,1,0,0:0:0:0:
64,192,138015,1,0,0:0:0:0:
192,192,138404,1,0,0:0:0:0:
320,192,138696,1,0,0:0:0:0:
192,192,138989,1,0,0:0:0:0:
320,192,138989,1,0,0:0:0:0:
448,192,139183,1,0,0:0:0:0:
64,192,139183,1,0,0:0:0:0:
192,192,139573,1,0,0:0:0:0:
317,192,139768,1,0,0:0:0:0:
192,192,139963,1,0,0:0:0:0:
320,192,139963,1,0,0:0:0:0:
320,192,140352,1,0,0:0:0:0:
448,192,140352,1,0,0:0:0:0:
448,192,140742,1,0,0:0:0:0:
192,192,140742,1,0,0:0:0:0:
192,192,141132,1,0,0:0:0:0:
64,192,141132,1,0,0:0:0:0:
192,192,141521,1,0,0:0:0:0:
320,192,141521,1,0,0:0:0:0:
320,192,141813,1,0,0:0:0:0:
64,192,141911,1,0,0:0:0:0:
192,192,142106,1,0,0:0:0:0:
448,192,142300,1,0,0:0:0:0:
320,192,142690,1,0,0:0:0:0:
320,192,143080,1,0,0:0:0:0:
192,192,143080,1,0,0:0:0:0:
192,192,143469,1,0,0:0:0:0:
448,192,143859,1,0,0:0:0:0:
192,192,143859,1,0,0:0:0:0:
192,192,144248,1,0,0:0:0:0:
320,192,144638,1,0,0:0:0:0:
192,192,144638,1,0,0:0:0:0:
192,192,144930,1,0,0:0:0:0:
320,192,145028,1,0,0:0:0:0:
64,192,145222,1,0,0:0:0:0:
448,192,145417,1,0,0:0:0:0:
320,192,145807,1,0,0:0:0:0:
320,192,146002,1,0,0:0:0:0:
192,192,146196,1,0,0:0:0:0:
192,192,146586,1,0,0:0:0:0:
192,192,146976,1,0,0:0:0:0:
448,192,146976,1,0,0:0:0:0:
64,192,147365,1,0,0:0:0:0:
64,192,147755,1,0,0:0:0:0:
320,192,148047,1,0,0:0:0:0:
192,192,148339,1,0,0:0:0:0:
192,192,148534,1,0,0:0:0:0:
448,192,148534,1,0,0:0:0:0:
320,192,148924,1,0,0:0:0:0:
64,192,148924,1,0,0:0:0:0:
192,192,149119,1,0,0:0:0:0:
64,192,149313,1,0,0:0:0:0:
64,192,149508,1,0,0:0:0:0:
320,192,149703,1,0,0:0:0:0:
192,192,149898,1,0,0:0:0:0:
448,192,150093,1,0,0:0:0:0:
320,192,150287,1,0,0:0:0:0:
192,192,150482,1,0,0:0:0:0:
320,192,150677,1,0,0:0:0:0:
64,192,150872,1,0,0:0:0:0:
192,192,151067,1,0,0:0:0:0:
320,192,151261,1,0,0:0:0:0:
64,192,151456,1,0,0:0:0:0:
448,192,151651,1,0,0:0:0:0:
192,192,151846,1,0,0:0:0:0:
320,192,152041,1,0,0:0:0:0:
192,192,152235,1,0,0:0:0:0:
64,192,152430,1,0,0:0:0:0:
192,192,152625,1,0,0:0:0:0:
64,192,152820,1,0,0:0:0:0:
320,192,153015,1,0,0:0:0:0:
448,192,153209,1,0,0:0:0:0:
320,192,153404,1,0,0:0:0:0:
192,192,153599,1,0,0:0:0:0:
64,192,153794,1,0,0:0:0:0:
64,192,153989,1,0,0:0:0:0:
320,192,154183,1,0,0:0:0:0:
192,192,154378,1,0,0:0:0:0:
192,192,154573,1,0,0:0:0:0:
448,192,154768,1,0,0:0:0:0:
320,192,154963,1,0,0:0:0:0:
192,192,155158,1,0,0:0:0:0:
64,192,155352,1,0,0:0:0:0:
192,192,155547,1,0,0:0:0:0:
320,192,161781,5,0,0:0:0:0:
192,192,161781,1,0,0:0:0:0:
448,192,162171,1,0,0:0:0:0:
448,192,162560,128,0,163145:0:0:0:0:
64,192,162950,1,0,0:0:0:0:
64,192,163145,1,0,0:0:0:0:
320,192,163534,1,0,0:0:0:0:
320,192,163729,1,0,0:0:0:0:
320,192,164119,128,0,164703:0:0:0:0:
64,192,164508,1,0,0:0:0:0:
192,192,164703,1,0,0:0:0:0:
448,192,165093,1,0,0:0:0:0:
448,192,165385,1,0,0:0:0:0:
448,192,165677,128,0,166261:0:0:0:0:
64,192,166067,1,0,0:0:0:0:
64,192,166261,1,0,0:0:0:0:
320,192,166651,1,0,0:0:0:0:
320,192,166943,1,0,0:0:0:0:
320,192,167235,128,0,167820:0:0:0:0:
64,192,167625,1,0,0:0:0:0:
192,192,167820,1,0,0:0:0:0:
448,192,168404,1,0,0:0:0:0:
448,192,168794,128,0,169378:0:0:0:0:
64,192,169183,1,0,0:0:0:0:
64,192,169378,1,0,0:0:0:0:
320,192,169768,1,0,0:0:0:0:
320,192,169963,1,0,0:0:0:0:
320,192,170352,128,0,170937:0:0:0:0:
64,192,170742,1,0,0:0:0:0:
192,192,170937,1,0,0:0:0:0:
448,192,171326,1,0,0:0:0:0:
448,192,171619,1,0,0:0:0:0:
448,192,171911,128,0,172495:0:0:0:0:
64,192,172300,1,0,0:0:0:0:
64,192,172495,128,0,173080:0:0:0:0:
320,192,173080,1,0,0:0:0:0:
192,192,173080,1,0,0:0:0:0:
320,192,173469,1,0,0:0:0:0:
192,192,173469,1,0,0:0:0:0:
320,192,173859,1,0,0:0:0:0:
192,192,173859,1,0,0:0:0:0:
448,192,174054,1,0,0:0:0:0:
64,192,174054,1,0,0:0:0:0:
192,192,174248,1,0,0:0:0:0:
320,192,174248,1,0,0:0:0:0:
320,192,175028,1,0,0:0:0:0:
64,192,175028,1,0,0:0:0:0:
192,192,175222,1,0,0:0:0:0:
448,192,175417,1,0,0:0:0:0:
192,192,175612,1,0,0:0:0:0:
192,192,175807,1,0,0:0:0:0:
320,192,175807,1,0,0:0:0:0:
64,192,176586,1,0,0:0:0:0:
320,192,176976,1,0,0:0:0:0:
448,192,176976,1,0,0:0:0:0:
320,192,177365,1,0,0:0:0:0:
192,192,177365,1,0,0:0:0:0:
320,192,178145,1,0,0:0:0:0:
192,192,178145,1,0,0:0:0:0:
320,192,178339,1,0,0:0:0:0:
192,192,178534,1,0,0:0:0:0:
64,192,178729,1,0,0:0:0:0:
320,192,178924,1,0,0:0:0:0:
192,192,178924,1,0,0:0:0:0:
64,192,179703,1,0,0:0:0:0:
320,192,179898,1,0,0:0:0:0:
320,192,180093,1,0,0:0:0:0:
192,192,180482,1,0,0:0:0:0:
320,192,180482,1,0,0:0:0:0:
320,192,181261,1,0,0:0:0:0:
448,192,181261,1,0,0:0:0:0:
192,192,181651,1,0,0:0:0:0:
64,192,181651,1,0,0:0:0:0:
192,192,182041,1,0,0:0:0:0:
320,192,182041,1,0,0:0:0:0:
64,192,182333,1,0,0:0:0:0:
192,192,182820,1,0,0:0:0:0:
320,192,182820,1,0,0:0:0:0:
192,192,183599,1,0,0:0:0:0:
64,192,183599,1,0,0:0:0:0:
320,192,183794,1,0,0:0:0:0:
192,192,183794,1,0,0:0:0:0:
448,192,184378,1,0,0:0:0:0:
192,192,184378,1,0,0:0:0:0:
448,192,185158,1,0,0:0:0:0:
192,192,185352,1,0,0:0:0:0:
64,192,185352,1,0,0:0:0:0:
320,192,185547,1,0,0:0:0:0:
192,192,185742,1,0,0:0:0:0:
64,192,185742,1,0,0:0:0:0:
192,192,186132,1,0,0:0:0:0:
320,192,186132,1,0,0:0:0:0:
448,192,186326,1,0,0:0:0:0:
320,192,186521,1,0,0:0:0:0:
192,192,186521,1,0,0:0:0:0:
64,192,186716,1,0,0:0:0:0:
192,192,186716,1,0,0:0:0:0:
