osu file format v14

[General]
AudioFilename: 03. French Virgin Party.mp3
AudioLeadIn: 0
PreviewTime: 86976
Countdown: 0
SampleSet: Soft
StackLeniency: 0.9
Mode: 1
LetterboxInBreaks: 0
EpilepsyWarning: 1
WidescreenStoryboard: 0

[Editor]
DistanceSpacing: 1.1
BeatDivisor: 4
GridSize: 4
TimelineZoom: 2

[Metadata]
Title:French Virgin Party
TitleUnicode:French Virgin Party
Artist:Glen Check
ArtistUnicode:Glen Check
Creator:Jingshenbing
Version:Kioshin Inner Oni
Source:
Tags:AlpacaCokelat Haute Couture Nijigen-kun Miramono TheForgotten5 Kioshinxs electronic english
BeatmapID:495949
BeatmapSetID:183511

[Difficulty]
HPDrainRate:4
CircleSize:3
OverallDifficulty:4
ApproachRate:4
SliderMultiplier:1.4
SliderTickRate:2

[Events]
//Background and Video events
0,0,"Glen-Check-BW.jpg",0,0
Video,5774,"French Virgin Party.flv"
//Break Periods
//Storyboard Layer 0 (Background)
//Storyboard Layer 1 (Fail)
//Storyboard Layer 2 (Pass)
//Storyboard Layer 3 (Foreground)
//Storyboard Layer 4 (Overlay)
//Storyboard Sound Samples

[TimingPoints]
12171,389.61038961039,4,2,1,100,1,0
24638,-100,4,2,1,100,0,0
24735,-100,4,2,1,100,0,0
37106,-100,4,2,1,100,0,0
37203,-100,4,2,1,100,0,0
55807,-100,4,2,1,100,0,0
61261,-100,4,2,1,100,0,0
62041,-100,4,2,1,100,0,1
74508,-100,4,2,1,100,0,0
80742,-100,4,2,1,100,0,0
86976,-100,4,2,1,100,0,1
99346,-100,4,2,1,100,0,1
99443,-100,4,2,1,100,0,0
99541,-100,4,2,1,100,0,0
111911,-100,4,2,1,100,0,1
124378,-100,4,2,1,100,0,0
161781,-100,4,2,1,100,0,1
174248,-100,4,2,1,100,0,0

[Colours]
Combo1 : 255,128,255
Combo2 : 185,185,185
Combo3 : 100,100,100
Combo4 : 255,255,0

[HitObjects]
196,160,12170,5,4,0:0:0:0:
196,160,12365,1,0,0:0:0:0:
348,176,12755,1,0,0:0:0:0:
424,156,12950,1,8,0:0:0:0:
500,140,13145,1,8,0:0:0:0:
500,140,13339,1,8,0:0:0:0:
500,140,13534,1,0,0:0:0:0:
140,196,13729,1,4,0:0:0:0:
140,196,13924,1,0,0:0:0:0:
276,128,14313,1,0,0:0:0:0:
344,92,14508,1,8,0:0:0:0:
412,56,14703,1,8,0:0:0:0:
480,24,14800,1,8,0:0:0:0:
480,24,14898,1,0,0:0:0:0:
480,24,15093,1,0,0:0:0:0:
76,216,15287,1,12,0:0:0:0:
48,176,15482,1,0,0:0:0:0:
200,160,15872,1,0,0:0:0:0:
276,152,16067,1,8,0:0:0:0:
352,144,16261,1,8,0:0:0:0:
352,144,16456,1,0,0:0:0:0:
352,144,16651,1,8,0:0:0:0:
40,216,16846,1,12,0:0:0:0:
12,176,17041,1,0,0:0:0:0:
160,136,17430,1,0,0:0:0:0:
236,116,17625,1,8,0:0:0:0:
208,208,17820,1,4,0:0:0:0:
112,196,18209,1,0,0:0:0:0:
148,180,18307,1,8,0:0:0:0:
28,196,18404,1,8,0:0:0:0:
0,156,18599,1,0,0:0:0:0:
40,152,18696,1,8,0:0:0:0:
116,132,18989,1,0,0:0:0:0:
152,124,19086,1,8,0:0:0:0:
148,180,19183,1,0,0:0:0:0:
84,140,19378,1,0,0:0:0:0:
20,100,19573,1,0,0:0:0:0:
84,140,19768,1,0,0:0:0:0:
32,216,19963,1,12,0:0:0:0:
4,176,20158,1,0,0:0:0:0:
92,52,20547,1,0,0:0:0:0:
68,84,20645,1,8,0:0:0:0:
48,116,20742,1,8,0:0:0:0:
48,116,20937,1,8,0:0:0:0:
48,116,21034,1,8,0:0:0:0:
48,116,21132,1,0,0:0:0:0:
48,116,21326,1,8,0:0:0:0:
28,216,21521,1,12,0:0:0:0:
0,176,21716,1,0,0:0:0:0:
224,116,22300,1,0,0:0:0:0:
300,96,22495,1,0,0:0:0:0:
300,96,22690,1,0,0:0:0:0:
300,96,22885,1,0,0:0:0:0:
32,216,23080,1,12,0:0:0:0:
4,176,23274,1,0,0:0:0:0:
80,176,23469,1,8,0:0:0:0:
156,176,23664,1,0,0:0:0:0:
232,184,23859,1,0,0:0:0:0:
280,180,24054,1,4,0:0:0:0:
232,184,24248,1,12,0:0:0:0:
344,220,24638,1,0,0:0:0:0:
304,204,24833,1,8,0:0:0:0:
268,192,24898,1,8,0:0:0:0:
272,168,24963,1,8,0:0:0:0:
268,192,25028,1,0,0:0:0:0:
312,160,25222,1,8,0:0:0:0:
404,124,25417,1,0,0:0:0:0:
312,160,25612,1,8,0:0:0:0:
368,144,25709,1,0,0:0:0:0:
316,144,25807,1,8,0:0:0:0:
300,176,26002,1,0,0:0:0:0:
232,212,26196,1,8,0:0:0:0:
164,244,26391,1,0,0:0:0:0:
164,244,26456,1,0,0:0:0:0:
148,196,26521,1,0,0:0:0:0:
164,244,26586,1,8,0:0:0:0:
368,56,26781,1,0,0:0:0:0:
372,48,26878,1,0,0:0:0:0:
368,56,26976,1,0,0:0:0:0:
76,108,27171,1,0,0:0:0:0:
76,108,27365,1,12,0:0:0:0:
140,236,27560,1,0,0:0:0:0:
140,236,27755,1,12,0:0:0:0:
120,228,27950,1,0,0:0:0:0:
120,228,28145,1,8,0:0:0:0:
216,204,28339,1,0,0:0:0:0:
216,204,28534,1,0,0:0:0:0:
472,148,28729,1,0,0:0:0:0:
472,148,28826,1,0,0:0:0:0:
472,148,28924,1,8,0:0:0:0:
312,216,29119,1,0,0:0:0:0:
312,216,29313,1,8,0:0:0:0:
44,156,29508,1,0,0:0:0:0:
288,136,29703,1,8,0:0:0:0:
360,196,29898,1,0,0:0:0:0:
360,196,30093,1,8,0:0:0:0:
360,196,30190,1,8,0:0:0:0:
360,196,30287,1,8,0:0:0:0:
360,196,30385,1,0,0:0:0:0:
360,196,30482,1,8,0:0:0:0:
376,188,30677,1,0,0:0:0:0:
376,188,30872,1,4,0:0:0:0:
304,204,31067,1,8,0:0:0:0:
268,192,31132,1,8,0:0:0:0:
244,184,31196,1,8,0:0:0:0:
268,192,31261,1,0,0:0:0:0:
312,160,31456,1,8,0:0:0:0:
404,124,31651,1,0,0:0:0:0:
312,160,31846,1,8,0:0:0:0:
368,144,31943,1,0,0:0:0:0:
316,144,32041,1,8,0:0:0:0:
240,124,32235,1,0,0:0:0:0:
204,116,32333,1,8,0:0:0:0:
232,212,32430,1,8,0:0:0:0:
164,244,32625,1,0,0:0:0:0:
164,244,32722,1,0,0:0:0:0:
164,244,32820,1,8,0:0:0:0:
368,56,33015,1,0,0:0:0:0:
372,48,33112,1,0,0:0:0:0:
368,56,33209,1,0,0:0:0:0:
76,108,33404,1,0,0:0:0:0:
76,108,33599,1,12,0:0:0:0:
140,236,33794,1,0,0:0:0:0:
140,236,33989,1,12,0:0:0:0:
120,228,34183,1,0,0:0:0:0:
120,228,34378,1,8,0:0:0:0:
216,204,34573,1,0,0:0:0:0:
216,204,34768,1,0,0:0:0:0:
472,148,34963,1,0,0:0:0:0:
472,148,35060,1,0,0:0:0:0:
472,148,35158,1,8,0:0:0:0:
312,216,35352,1,0,0:0:0:0:
312,216,35547,1,8,0:0:0:0:
44,156,35742,1,0,0:0:0:0:
288,136,35937,1,8,0:0:0:0:
360,196,36132,1,0,0:0:0:0:
360,196,36326,1,8,0:0:0:0:
360,196,36424,1,8,0:0:0:0:
360,196,36521,1,8,0:0:0:0:
360,196,36619,1,0,0:0:0:0:
360,196,36716,1,8,0:0:0:0:
376,188,36911,1,0,0:0:0:0:
376,188,37106,1,4,0:0:0:0:
304,204,37300,1,8,0:0:0:0:
268,192,37398,1,8,0:0:0:0:
268,192,37495,1,0,0:0:0:0:
312,160,37690,1,8,0:0:0:0:
304,204,37787,1,0,0:0:0:0:
404,124,37885,1,0,0:0:0:0:
312,160,38080,1,8,0:0:0:0:
368,144,38177,1,0,0:0:0:0:
316,144,38274,1,8,0:0:0:0:
300,176,38469,1,0,0:0:0:0:
264,160,38567,1,0,0:0:0:0:
232,212,38664,1,8,0:0:0:0:
164,244,38859,1,0,0:0:0:0:
164,244,38956,1,0,0:0:0:0:
164,244,39054,1,8,0:0:0:0:
368,56,39248,1,0,0:0:0:0:
372,48,39346,1,0,0:0:0:0:
368,56,39443,1,0,0:0:0:0:
76,108,39638,1,0,0:0:0:0:
112,112,39735,1,0,0:0:0:0:
76,108,39833,1,8,0:0:0:0:
140,236,40028,1,8,0:0:0:0:
168,212,40125,1,0,0:0:0:0:
140,236,40222,1,8,0:0:0:0:
120,228,40417,1,0,0:0:0:0:
120,228,40612,1,8,0:0:0:0:
216,204,40807,1,0,0:0:0:0:
216,204,41002,1,0,0:0:0:0:
472,148,41196,1,0,0:0:0:0:
472,148,41294,1,0,0:0:0:0:
472,148,41391,1,8,0:0:0:0:
312,216,41586,1,0,0:0:0:0:
312,216,41781,1,8,0:0:0:0:
44,156,41976,1,0,0:0:0:0:
288,136,42171,1,8,0:0:0:0:
360,196,42365,1,0,0:0:0:0:
360,196,42560,1,8,0:0:0:0:
360,196,42658,1,8,0:0:0:0:
360,196,42755,1,8,0:0:0:0:
360,196,42852,1,0,0:0:0:0:
360,196,42950,1,8,0:0:0:0:
376,188,43145,1,0,0:0:0:0:
376,188,43339,1,4,0:0:0:0:
44,204,43534,1,0,0:0:0:0:
44,204,43632,1,0,0:0:0:0:
44,204,43729,1,8,0:0:0:0:
144,312,43924,1,0,0:0:0:0:
144,312,44119,1,8,0:0:0:0:
144,312,44216,1,0,0:0:0:0:
144,312,44313,1,8,0:0:0:0:
144,312,44411,1,0,0:0:0:0:
144,312,44508,1,8,0:0:0:0:
96,128,44703,1,0,0:0:0:0:
96,128,44898,1,0,0:0:0:0:
96,128,45093,1,8,0:0:0:0:
96,128,45190,1,8,0:0:0:0:
96,128,45287,1,8,0:0:0:0:
96,128,45482,1,8,0:0:0:0:
96,128,45580,1,8,0:0:0:0:
96,128,45677,1,0,0:0:0:0:
48,160,45872,1,8,0:0:0:0:
48,160,45969,1,8,0:0:0:0:
48,160,46067,1,8,0:0:0:0:
308,176,46261,1,8,0:0:0:0:
308,176,46456,1,8,0:0:0:0:
312,188,46651,1,0,0:0:0:0:
312,188,46748,1,0,0:0:0:0:
312,188,46846,1,8,0:0:0:0:
312,188,47041,1,8,0:0:0:0:
312,188,47138,1,8,0:0:0:0:
312,188,47235,1,0,0:0:0:0:
312,188,47430,1,0,0:0:0:0:
312,188,47528,1,0,0:0:0:0:
312,188,47625,1,8,0:0:0:0:
312,188,47722,1,0,0:0:0:0:
312,188,47820,1,0,0:0:0:0:
312,188,47917,1,0,0:0:0:0:
312,188,48015,1,8,0:0:0:0:
92,172,48209,1,0,0:0:0:0:
124,152,48307,1,0,0:0:0:0:
92,172,48404,1,8,0:0:0:0:
92,172,48599,1,0,0:0:0:0:
124,152,48696,1,0,0:0:0:0:
92,172,48794,1,8,0:0:0:0:
92,172,48989,1,0,0:0:0:0:
92,172,49183,1,12,0:0:0:0:
92,172,49378,1,0,0:0:0:0:
92,172,49573,1,12,0:0:0:0:
156,228,49768,1,8,0:0:0:0:
156,228,49865,1,0,0:0:0:0:
176,196,49963,1,8,0:0:0:0:
184,224,50158,1,8,0:0:0:0:
184,224,50352,1,0,0:0:0:0:
184,224,50547,1,8,0:0:0:0:
184,224,50742,1,0,0:0:0:0:
160,164,50937,1,8,0:0:0:0:
160,164,51034,1,8,0:0:0:0:
160,164,51132,1,0,0:0:0:0:
192,200,51326,1,8,0:0:0:0:
192,200,51716,1,8,0:0:0:0:
148,188,51911,1,8,0:0:0:0:
148,188,52008,1,0,0:0:0:0:
148,188,52106,1,0,0:0:0:0:
148,188,52203,1,0,0:0:0:0:
148,188,52300,1,8,0:0:0:0:
128,200,52495,1,0,0:0:0:0:
128,200,52690,1,8,0:0:0:0:
172,164,52982,1,8,0:0:0:0:
172,164,53080,1,0,0:0:0:0:
172,164,53274,1,8,0:0:0:0:
172,164,53372,1,8,0:0:0:0:
172,164,53469,1,0,0:0:0:0:
136,216,53664,1,0,0:0:0:0:
136,216,53859,1,4,0:0:0:0:
200,168,54054,1,0,0:0:0:0:
200,168,54151,1,0,0:0:0:0:
200,168,54248,1,8,0:0:0:0:
256,80,54443,1,0,0:0:0:0:
224,100,54541,1,0,0:0:0:0:
256,80,54638,1,8,0:0:0:0:
256,80,54833,1,0,0:0:0:0:
200,16,54930,1,0,0:0:0:0:
256,80,55028,1,8,0:0:0:0:
360,76,55125,1,8,0:0:0:0:
360,76,55222,1,0,0:0:0:0:
360,76,55320,1,0,0:0:0:0:
360,76,55417,1,8,0:0:0:0:
360,76,55612,1,0,0:0:0:0:
360,76,55709,1,8,0:0:0:0:
360,76,55807,1,8,0:0:0:0:
264,168,56099,1,8,0:0:0:0:
264,168,56196,1,0,0:0:0:0:
264,168,56391,1,8,0:0:0:0:
264,168,56489,1,8,0:0:0:0:
264,168,56586,1,0,0:0:0:0:
264,168,56781,1,8,0:0:0:0:
264,168,56878,1,0,0:0:0:0:
264,168,56976,1,8,0:0:0:0:
264,168,57171,1,8,0:0:0:0:
264,168,57268,1,8,0:0:0:0:
264,168,57365,1,8,0:0:0:0:
128,148,57560,1,0,0:0:0:0:
160,128,57658,1,0,0:0:0:0:
128,148,57755,1,8,0:0:0:0:
160,128,57852,1,0,0:0:0:0:
400,200,57950,1,0,0:0:0:0:
400,200,58145,1,0,0:0:0:0:
400,200,58242,1,0,0:0:0:0:
400,200,58339,1,0,0:0:0:0:
400,200,58437,1,0,0:0:0:0:
400,200,58534,1,0,0:0:0:0:
400,200,58729,1,8,0:0:0:0:
208,132,58924,1,12,0:0:0:0:
268,144,59216,1,8,0:0:0:0:
268,144,59313,1,0,0:0:0:0:
268,144,59508,1,0,0:0:0:0:
268,144,59606,1,0,0:0:0:0:
268,144,59703,1,8,0:0:0:0:
268,144,59800,1,8,0:0:0:0:
268,144,59898,1,0,0:0:0:0:
268,144,59995,1,8,0:0:0:0:
268,144,60093,1,8,0:0:0:0:
268,144,60190,1,0,0:0:0:0:
56,172,60287,1,8,0:0:0:0:
268,144,60385,1,8,0:0:0:0:
268,144,60482,1,0,0:0:0:0:
268,144,60580,1,0,0:0:0:0:
268,144,60677,1,8,0:0:0:0:
268,144,60774,1,8,0:0:0:0:
268,144,60872,1,0,0:0:0:0:
268,144,60969,1,0,0:0:0:0:
268,144,61067,1,8,0:0:0:0:
268,144,61164,1,8,0:0:0:0:
200,104,61261,1,8,0:0:0:0:
200,104,61326,1,0,0:0:0:0:
224,104,61391,1,0,0:0:0:0:
200,104,61456,1,8,0:0:0:0:
200,104,61651,1,0,0:0:0:0:
200,104,61716,1,0,0:0:0:0:
176,116,61781,1,0,0:0:0:0:
200,104,61846,1,0,0:0:0:0:
200,104,62041,1,12,0:0:0:0:
304,204,62235,1,8,0:0:0:0:
268,192,62300,1,8,0:0:0:0:
244,180,62365,1,8,0:0:0:0:
268,192,62430,1,0,0:0:0:0:
312,160,62625,1,8,0:0:0:0:
404,124,62820,1,0,0:0:0:0:
312,160,63015,1,8,0:0:0:0:
368,144,63112,1,0,0:0:0:0:
316,144,63209,1,8,0:0:0:0:
300,176,63404,1,0,0:0:0:0:
232,212,63599,1,8,0:0:0:0:
164,244,63794,1,0,0:0:0:0:
164,244,63891,1,0,0:0:0:0:
164,244,63989,1,8,0:0:0:0:
368,56,64183,1,0,0:0:0:0:
372,48,64281,1,0,0:0:0:0:
368,56,64378,1,0,0:0:0:0:
76,108,64573,1,0,0:0:0:0:
76,108,64768,1,12,0:0:0:0:
140,236,64963,1,0,0:0:0:0:
140,236,65158,1,12,0:0:0:0:
120,228,65352,1,0,0:0:0:0:
120,228,65547,1,8,0:0:0:0:
216,204,65742,1,0,0:0:0:0:
196,188,65807,1,0,0:0:0:0:
180,168,65872,1,0,0:0:0:0:
216,204,65937,1,0,0:0:0:0:
472,148,66132,1,0,0:0:0:0:
472,148,66229,1,0,0:0:0:0:
472,148,66326,1,8,0:0:0:0:
312,216,66521,1,0,0:0:0:0:
312,216,66716,1,8,0:0:0:0:
44,156,66911,1,0,0:0:0:0:
288,136,67106,1,8,0:0:0:0:
360,196,67300,1,0,0:0:0:0:
360,196,67495,1,8,0:0:0:0:
360,196,67593,1,8,0:0:0:0:
360,196,67690,1,8,0:0:0:0:
360,196,67787,1,0,0:0:0:0:
360,196,67885,1,8,0:0:0:0:
376,188,68080,1,0,0:0:0:0:
376,188,68274,1,4,0:0:0:0:
304,204,68469,1,8,0:0:0:0:
268,192,68567,1,8,0:0:0:0:
268,192,68664,1,0,0:0:0:0:
312,160,68859,1,8,0:0:0:0:
404,124,69054,1,0,0:0:0:0:
312,160,69248,1,8,0:0:0:0:
368,144,69346,1,0,0:0:0:0:
316,144,69443,1,8,0:0:0:0:
300,176,69638,1,0,0:0:0:0:
232,212,69833,1,8,0:0:0:0:
164,244,70028,1,0,0:0:0:0:
164,244,70125,1,0,0:0:0:0:
164,244,70222,1,8,0:0:0:0:
368,56,70417,1,0,0:0:0:0:
372,48,70515,1,0,0:0:0:0:
368,56,70612,1,0,0:0:0:0:
76,108,70807,1,0,0:0:0:0:
76,108,71002,1,12,0:0:0:0:
140,236,71196,1,0,0:0:0:0:
140,236,71391,1,12,0:0:0:0:
120,228,71586,1,0,0:0:0:0:
120,228,71781,1,8,0:0:0:0:
216,204,71976,1,0,0:0:0:0:
216,204,72171,1,0,0:0:0:0:
472,148,72365,1,0,0:0:0:0:
472,148,72463,1,0,0:0:0:0:
472,148,72560,1,8,0:0:0:0:
312,216,72755,1,0,0:0:0:0:
312,216,72950,1,8,0:0:0:0:
44,156,73145,1,0,0:0:0:0:
288,136,73339,1,8,0:0:0:0:
360,196,73534,1,0,0:0:0:0:
360,196,73729,1,8,0:0:0:0:
360,196,73826,1,8,0:0:0:0:
360,196,73924,1,8,0:0:0:0:
360,196,74021,1,0,0:0:0:0:
360,196,74119,1,8,0:0:0:0:
376,188,74313,1,0,0:0:0:0:
92,172,74508,1,12,0:0:0:0:
156,228,74703,1,8,0:0:0:0:
156,228,74800,1,0,0:0:0:0:
176,196,74898,1,8,0:0:0:0:
184,224,75093,1,8,0:0:0:0:
184,224,75287,1,0,0:0:0:0:
184,224,75482,1,8,0:0:0:0:
184,224,75677,1,0,0:0:0:0:
160,164,75872,1,8,0:0:0:0:
160,164,75969,1,8,0:0:0:0:
160,164,76067,1,0,0:0:0:0:
192,200,76261,1,8,0:0:0:0:
192,200,76651,1,8,0:0:0:0:
148,188,76846,1,8,0:0:0:0:
148,188,76943,1,0,0:0:0:0:
148,188,77041,1,0,0:0:0:0:
148,188,77138,1,0,0:0:0:0:
148,188,77235,1,8,0:0:0:0:
128,200,77430,1,0,0:0:0:0:
128,200,77625,1,8,0:0:0:0:
172,164,77917,1,8,0:0:0:0:
172,164,78015,1,0,0:0:0:0:
172,164,78209,1,8,0:0:0:0:
172,164,78307,1,8,0:0:0:0:
172,164,78404,1,0,0:0:0:0:
136,216,78599,1,0,0:0:0:0:
136,216,78794,1,4,0:0:0:0:
200,168,78989,1,0,0:0:0:0:
200,168,79086,1,0,0:0:0:0:
200,168,79183,1,8,0:0:0:0:
256,80,79378,1,0,0:0:0:0:
256,80,79573,1,8,0:0:0:0:
256,80,79768,1,0,0:0:0:0:
200,16,79865,1,0,0:0:0:0:
256,80,79963,1,8,0:0:0:0:
360,76,80060,1,8,0:0:0:0:
360,76,80158,1,0,0:0:0:0:
360,76,80255,1,0,0:0:0:0:
360,76,80352,1,8,0:0:0:0:
360,76,80547,1,0,0:0:0:0:
360,76,80645,1,8,0:0:0:0:
360,76,80742,1,8,0:0:0:0:
264,168,81034,1,8,0:0:0:0:
264,168,81132,1,0,0:0:0:0:
264,168,81326,1,8,0:0:0:0:
264,168,81424,1,8,0:0:0:0:
264,168,81521,1,0,0:0:0:0:
264,168,81716,1,8,0:0:0:0:
264,168,81813,1,0,0:0:0:0:
264,168,81911,1,0,0:0:0:0:
264,168,82106,1,8,0:0:0:0:
264,168,82203,1,8,0:0:0:0:
264,168,82300,1,8,0:0:0:0:
128,148,82495,1,0,0:0:0:0:
108,180,82593,1,8,0:0:0:0:
128,148,82690,1,8,0:0:0:0:
108,180,82787,1,0,0:0:0:0:
400,200,82885,1,0,0:0:0:0:
400,200,83080,1,0,0:0:0:0:
400,200,83177,1,0,0:0:0:0:
400,200,83274,1,0,0:0:0:0:
400,200,83372,1,0,0:0:0:0:
400,200,83469,1,0,0:0:0:0:
400,200,83664,1,8,0:0:0:0:
208,132,83859,1,12,0:0:0:0:
268,144,84151,1,8,0:0:0:0:
268,144,84248,1,0,0:0:0:0:
268,144,84443,1,0,0:0:0:0:
268,144,84541,1,0,0:0:0:0:
268,144,84638,1,8,0:0:0:0:
268,144,84735,1,8,0:0:0:0:
268,144,84833,1,0,0:0:0:0:
268,144,84930,1,8,0:0:0:0:
268,144,85028,1,8,0:0:0:0:
268,144,85125,1,0,0:0:0:0:
56,172,85222,1,8,0:0:0:0:
268,144,85320,1,8,0:0:0:0:
268,144,85417,1,0,0:0:0:0:
268,144,85515,1,0,0:0:0:0:
268,144,85612,1,8,0:0:0:0:
268,144,85709,1,8,0:0:0:0:
268,144,85807,1,0,0:0:0:0:
268,144,85904,1,0,0:0:0:0:
268,144,86002,1,8,0:0:0:0:
268,144,86099,1,8,0:0:0:0:
200,104,86196,1,8,0:0:0:0:
200,104,86261,1,0,0:0:0:0:
200,104,86326,1,0,0:0:0:0:
200,104,86391,1,8,0:0:0:0:
200,104,86586,1,0,0:0:0:0:
200,104,86651,1,0,0:0:0:0:
204,128,86716,1,0,0:0:0:0:
200,104,86781,1,0,0:0:0:0:
400,152,86976,1,12,0:0:0:0:
304,180,87171,1,0,0:0:0:0:
304,152,87268,1,0,0:0:0:0:
268,192,87365,1,8,0:0:0:0:
312,160,87560,1,8,0:0:0:0:
404,124,87755,1,4,0:0:0:0:
312,160,87950,1,8,0:0:0:0:
368,144,88047,1,0,0:0:0:0:
316,144,88145,1,8,0:0:0:0:
300,176,88339,1,0,0:0:0:0:
232,212,88534,1,8,0:0:0:0:
164,244,88729,1,12,0:0:0:0:
164,244,88924,1,12,0:0:0:0:
368,56,89119,1,0,0:0:0:0:
368,56,89313,1,12,0:0:0:0:
76,108,89508,1,0,0:0:0:0:
112,92,89606,1,8,0:0:0:0:
76,108,89703,1,8,0:0:0:0:
112,112,89800,1,0,0:0:0:0:
140,236,89898,1,8,0:0:0:0:
140,236,90093,1,12,0:0:0:0:
120,228,90287,1,4,0:0:0:0:
120,228,90580,1,12,0:0:0:0:
216,204,90872,1,12,0:0:0:0:
472,148,91067,1,0,0:0:0:0:
472,148,91164,1,0,0:0:0:0:
472,148,91261,1,8,0:0:0:0:
312,216,91456,1,0,0:0:0:0:
312,216,91651,1,8,0:0:0:0:
44,156,91846,1,4,0:0:0:0:
288,136,92138,1,12,0:0:0:0:
360,196,92430,1,8,0:0:0:0:
348,192,92560,1,0,0:0:0:0:
360,196,92625,1,8,0:0:0:0:
336,192,92690,1,0,0:0:0:0:
360,196,92820,1,8,0:0:0:0:
376,188,93015,1,0,0:0:0:0:
376,188,93209,1,12,0:0:0:0:
44,204,93404,1,0,0:0:0:0:
44,204,93502,1,0,0:0:0:0:
44,204,93599,1,8,0:0:0:0:
144,312,93794,1,0,0:0:0:0:
144,312,93989,1,8,0:0:0:0:
144,312,94086,1,0,0:0:0:0:
144,312,94183,1,8,0:0:0:0:
144,312,94281,1,8,0:0:0:0:
144,312,94378,1,8,0:0:0:0:
96,128,94573,1,0,0:0:0:0:
96,128,94768,1,0,0:0:0:0:
96,128,94963,1,8,0:0:0:0:
96,128,95060,1,8,0:0:0:0:
96,128,95158,1,8,0:0:0:0:
96,128,95352,1,8,0:0:0:0:
96,128,95450,1,8,0:0:0:0:
96,128,95547,1,0,0:0:0:0:
48,160,95742,1,8,0:0:0:0:
48,160,95839,1,8,0:0:0:0:
48,160,95937,1,8,0:0:0:0:
308,176,96132,1,8,0:0:0:0:
308,176,96326,1,8,0:0:0:0:
312,188,96521,1,0,0:0:0:0:
312,188,96619,1,0,0:0:0:0:
312,188,96716,1,8,0:0:0:0:
312,188,96911,1,8,0:0:0:0:
312,188,97008,1,8,0:0:0:0:
312,188,97106,1,0,0:0:0:0:
312,188,97300,1,0,0:0:0:0:
312,188,97398,1,0,0:0:0:0:
312,188,97495,1,8,0:0:0:0:
312,188,97690,1,0,0:0:0:0:
312,188,97787,1,0,0:0:0:0:
312,188,97885,1,8,0:0:0:0:
92,172,98080,1,0,0:0:0:0:
92,172,98274,1,12,0:0:0:0:
92,172,98469,1,0,0:0:0:0:
92,172,98664,1,12,0:0:0:0:
92,172,98859,1,0,0:0:0:0:
92,172,99054,1,12,0:0:0:0:
92,172,99248,1,4,0:0:0:0:
196,160,99443,5,4,0:0:0:0:
196,160,99638,1,0,0:0:0:0:
348,176,100028,1,0,0:0:0:0:
424,156,100223,1,8,0:0:0:0:
500,140,100418,1,8,0:0:0:0:
500,140,100612,1,8,0:0:0:0:
500,140,100807,1,0,0:0:0:0:
140,196,101002,1,4,0:0:0:0:
140,196,101197,1,0,0:0:0:0:
276,128,101586,1,0,0:0:0:0:
344,92,101781,1,8,0:0:0:0:
412,56,101976,1,8,0:0:0:0:
480,24,102073,1,8,0:0:0:0:
480,24,102171,1,0,0:0:0:0:
480,24,102366,1,0,0:0:0:0:
76,216,102560,1,12,0:0:0:0:
48,176,102755,1,0,0:0:0:0:
200,160,103145,1,0,0:0:0:0:
276,152,103340,1,8,0:0:0:0:
352,144,103534,1,8,0:0:0:0:
352,144,103729,1,0,0:0:0:0:
352,144,103924,1,8,0:0:0:0:
40,216,104119,1,12,0:0:0:0:
12,176,104314,1,0,0:0:0:0:
160,136,104703,1,0,0:0:0:0:
236,116,104898,1,8,0:0:0:0:
208,208,105093,1,4,0:0:0:0:
112,196,105482,1,0,0:0:0:0:
148,180,105580,1,8,0:0:0:0:
28,196,105677,1,8,0:0:0:0:
0,156,105872,1,0,0:0:0:0:
40,152,105969,1,8,0:0:0:0:
116,132,106262,1,0,0:0:0:0:
152,124,106359,1,8,0:0:0:0:
148,180,106456,1,0,0:0:0:0:
84,140,106651,1,0,0:0:0:0:
20,100,106846,1,0,0:0:0:0:
84,140,107041,1,0,0:0:0:0:
32,216,107236,1,12,0:0:0:0:
4,176,107431,1,0,0:0:0:0:
92,52,107820,1,0,0:0:0:0:
68,84,107918,1,8,0:0:0:0:
48,116,108015,1,8,0:0:0:0:
48,116,108210,1,8,0:0:0:0:
48,116,108307,1,8,0:0:0:0:
48,116,108405,1,0,0:0:0:0:
48,116,108599,1,8,0:0:0:0:
28,216,108794,1,12,0:0:0:0:
0,176,108989,1,0,0:0:0:0:
224,116,109573,1,0,0:0:0:0:
300,96,109768,1,0,0:0:0:0:
300,96,109963,1,0,0:0:0:0:
300,96,110158,1,0,0:0:0:0:
32,216,110353,1,12,0:0:0:0:
4,176,110547,1,0,0:0:0:0:
80,176,110742,5,8,0:0:0:0:
156,176,110937,1,0,0:0:0:0:
232,184,111132,1,0,0:0:0:0:
280,180,111327,1,4,0:0:0:0:
232,184,111521,1,12,0:0:0:0:
344,220,111911,1,0,0:0:0:0:
304,204,112106,1,8,0:0:0:0:
268,192,112171,1,8,0:0:0:0:
272,168,112236,1,8,0:0:0:0:
268,192,112301,1,0,0:0:0:0:
312,160,112495,1,8,0:0:0:0:
404,124,112690,1,0,0:0:0:0:
312,160,112885,1,8,0:0:0:0:
368,144,112982,1,0,0:0:0:0:
316,144,113080,1,8,0:0:0:0:
300,176,113275,1,0,0:0:0:0:
232,212,113469,1,8,0:0:0:0:
164,244,113664,1,0,0:0:0:0:
164,244,113729,1,0,0:0:0:0:
148,196,113794,1,0,0:0:0:0:
164,244,113859,1,8,0:0:0:0:
368,56,114054,1,0,0:0:0:0:
372,48,114151,1,0,0:0:0:0:
368,56,114249,1,0,0:0:0:0:
76,108,114444,1,0,0:0:0:0:
76,108,114638,1,12,0:0:0:0:
140,236,114833,1,0,0:0:0:0:
140,236,115028,1,12,0:0:0:0:
120,228,115223,1,0,0:0:0:0:
120,228,115418,1,8,0:0:0:0:
216,204,115612,1,0,0:0:0:0:
216,204,115807,1,0,0:0:0:0:
472,148,116002,1,0,0:0:0:0:
472,148,116099,1,0,0:0:0:0:
472,148,116197,1,8,0:0:0:0:
312,216,116392,1,0,0:0:0:0:
312,216,116586,1,8,0:0:0:0:
44,156,116781,1,0,0:0:0:0:
288,136,116976,1,8,0:0:0:0:
360,196,117171,1,0,0:0:0:0:
360,196,117366,1,8,0:0:0:0:
360,196,117463,1,8,0:0:0:0:
360,196,117560,1,8,0:0:0:0:
360,196,117658,1,0,0:0:0:0:
360,196,117755,1,8,0:0:0:0:
376,188,117950,1,0,0:0:0:0:
376,188,118145,1,4,0:0:0:0:
304,204,118340,1,8,0:0:0:0:
268,192,118405,1,8,0:0:0:0:
244,184,118469,1,8,0:0:0:0:
268,192,118534,1,0,0:0:0:0:
312,160,118729,1,8,0:0:0:0:
404,124,118924,1,0,0:0:0:0:
312,160,119119,1,8,0:0:0:0:
368,144,119216,1,0,0:0:0:0:
316,144,119314,1,8,0:0:0:0:
240,124,119508,1,0,0:0:0:0:
204,116,119606,1,8,0:0:0:0:
232,212,119703,1,8,0:0:0:0:
164,244,119898,1,0,0:0:0:0:
164,244,119995,1,0,0:0:0:0:
164,244,120093,1,8,0:0:0:0:
368,56,120288,1,0,0:0:0:0:
372,48,120385,1,0,0:0:0:0:
368,56,120482,1,0,0:0:0:0:
76,108,120677,1,0,0:0:0:0:
76,108,120872,1,12,0:0:0:0:
140,236,121067,1,0,0:0:0:0:
140,236,121262,1,12,0:0:0:0:
120,228,121456,1,0,0:0:0:0:
120,228,121651,1,8,0:0:0:0:
216,204,121846,1,0,0:0:0:0:
216,204,122041,1,0,0:0:0:0:
472,148,122236,1,0,0:0:0:0:
472,148,122333,1,0,0:0:0:0:
472,148,122431,1,8,0:0:0:0:
312,216,122625,1,0,0:0:0:0:
312,216,122820,1,8,0:0:0:0:
44,156,123015,1,0,0:0:0:0:
288,136,123210,1,8,0:0:0:0:
360,196,123405,5,0,0:0:0:0:
360,196,123599,1,8,0:0:0:0:
360,196,123697,1,8,0:0:0:0:
360,196,123794,1,8,0:0:0:0:
360,196,123892,1,0,0:0:0:0:
360,196,123989,1,8,0:0:0:0:
376,188,124184,1,0,0:0:0:0:
400,152,124378,1,12,0:0:0:0:
304,180,124573,1,0,0:0:0:0:
304,152,124670,1,0,0:0:0:0:
268,192,124767,1,4,0:0:0:0:
312,160,124962,1,8,0:0:0:0:
404,124,125157,1,4,0:0:0:0:
312,160,125352,1,8,0:0:0:0:
368,144,125449,1,0,0:0:0:0:
316,144,125547,1,8,0:0:0:0:
300,176,125741,1,0,0:0:0:0:
232,212,125936,1,8,0:0:0:0:
164,244,126131,1,12,0:0:0:0:
164,244,126326,1,12,0:0:0:0:
368,56,126521,1,0,0:0:0:0:
368,56,126715,1,12,0:0:0:0:
76,108,126910,1,0,0:0:0:0:
112,92,127008,1,8,0:0:0:0:
76,108,127105,1,8,0:0:0:0:
112,112,127202,1,0,0:0:0:0:
140,236,127300,1,8,0:0:0:0:
140,236,127495,1,12,0:0:0:0:
120,228,127689,1,4,0:0:0:0:
120,228,127982,1,12,0:0:0:0:
216,204,128274,1,12,0:0:0:0:
472,148,128469,1,0,0:0:0:0:
472,148,128566,1,0,0:0:0:0:
472,148,128663,1,8,0:0:0:0:
312,216,128858,1,0,0:0:0:0:
312,216,129053,1,8,0:0:0:0:
44,156,129248,1,4,0:0:0:0:
288,136,129540,1,12,0:0:0:0:
360,196,129832,1,8,0:0:0:0:
348,192,129962,1,0,0:0:0:0:
360,196,130027,1,8,0:0:0:0:
336,192,130092,1,0,0:0:0:0:
360,196,130222,1,8,0:0:0:0:
376,188,130417,1,0,0:0:0:0:
376,188,130611,1,12,0:0:0:0:
44,204,130806,1,0,0:0:0:0:
44,204,130904,1,0,0:0:0:0:
44,204,131001,1,8,0:0:0:0:
144,312,131196,1,0,0:0:0:0:
144,312,131391,1,8,0:0:0:0:
144,312,131488,1,0,0:0:0:0:
144,312,131585,1,8,0:0:0:0:
144,312,131683,1,8,0:0:0:0:
144,312,131780,1,8,0:0:0:0:
96,128,131975,1,0,0:0:0:0:
96,128,132170,1,0,0:0:0:0:
96,128,132365,1,8,0:0:0:0:
96,128,132462,1,8,0:0:0:0:
96,128,132560,1,8,0:0:0:0:
96,128,132754,1,8,0:0:0:0:
96,128,132852,1,8,0:0:0:0:
96,128,132949,1,0,0:0:0:0:
48,160,133144,1,8,0:0:0:0:
48,160,133241,1,8,0:0:0:0:
48,160,133339,1,8,0:0:0:0:
308,176,133534,1,8,0:0:0:0:
308,176,133728,1,8,0:0:0:0:
312,188,133923,1,0,0:0:0:0:
312,188,134021,1,0,0:0:0:0:
312,188,134118,1,8,0:0:0:0:
312,188,134313,1,8,0:0:0:0:
312,188,134410,1,8,0:0:0:0:
312,188,134508,1,0,0:0:0:0:
312,188,134702,1,0,0:0:0:0:
312,188,134800,1,0,0:0:0:0:
312,188,134897,1,8,0:0:0:0:
312,188,135092,1,0,0:0:0:0:
312,188,135189,1,0,0:0:0:0:
312,188,135287,1,8,0:0:0:0:
92,172,135482,1,0,0:0:0:0:
92,172,135676,5,12,0:0:0:0:
92,172,135871,1,0,0:0:0:0:
92,172,136066,1,12,0:0:0:0:
92,172,136261,1,0,0:0:0:0:
92,172,136456,1,12,0:0:0:0:
92,172,136650,1,4,0:0:0:0:
180,136,136846,5,4,0:0:0:0:
368,172,137235,1,4,0:0:0:0:
368,172,137625,1,12,0:0:0:0:
292,164,137820,1,8,0:0:0:0:
252,160,137917,1,8,0:0:0:0:
368,172,138015,1,4,0:0:0:0:
368,172,138404,1,4,0:0:0:0:
368,172,138696,1,4,0:0:0:0:
268,120,138989,1,12,0:0:0:0:
368,172,139183,1,12,0:0:0:0:
368,172,139573,1,4,0:0:0:0:
292,156,139768,1,8,0:0:0:0:
256,148,139865,1,8,0:0:0:0:
368,172,139963,1,4,0:0:0:0:
368,172,140352,1,4,0:0:0:0:
368,172,140742,1,12,0:0:0:0:
300,136,140937,1,8,0:0:0:0:
268,116,141034,1,8,0:0:0:0:
368,172,141132,1,4,0:0:0:0:
368,172,141521,1,4,0:0:0:0:
368,172,141813,1,4,0:0:0:0:
168,112,142106,1,12,0:0:0:0:
368,172,142300,1,12,0:0:0:0:
368,172,142690,1,4,0:0:0:0:
292,164,142885,1,8,0:0:0:0:
252,160,142982,1,8,0:0:0:0:
292,164,143080,1,4,0:0:0:0:
368,172,143469,1,4,0:0:0:0:
368,172,143859,1,12,0:0:0:0:
296,140,144054,1,8,0:0:0:0:
260,124,144151,1,8,0:0:0:0:
368,172,144248,1,4,0:0:0:0:
368,172,144638,1,4,0:0:0:0:
368,172,144930,1,4,0:0:0:0:
340,152,145222,1,12,0:0:0:0:
368,172,145417,1,12,0:0:0:0:
368,172,145807,1,4,0:0:0:0:
292,180,146002,1,8,0:0:0:0:
252,184,146099,1,8,0:0:0:0:
368,172,146196,1,4,0:0:0:0:
368,172,146586,1,4,0:0:0:0:
368,172,146976,1,4,0:0:0:0:
200,168,147171,1,8,0:0:0:0:
200,168,147268,1,8,0:0:0:0:
368,172,147365,1,8,0:0:0:0:
368,172,147755,1,4,0:0:0:0:
368,172,148047,1,4,0:0:0:0:
464,136,148339,1,12,0:0:0:0:
368,172,148534,1,12,0:0:0:0:
368,172,148924,1,4,0:0:0:0:
300,140,149119,1,8,0:0:0:0:
264,124,149216,1,8,0:0:0:0:
372,188,149313,1,4,0:0:0:0:
300,156,149508,1,8,0:0:0:0:
264,144,149606,1,8,0:0:0:0:
264,144,149703,1,0,0:0:0:0:
308,112,149898,1,8,0:0:0:0:
300,156,149995,1,0,0:0:0:0:
400,76,150093,1,0,0:0:0:0:
308,112,150288,1,8,0:0:0:0:
364,96,150385,1,0,0:0:0:0:
312,96,150482,1,8,0:0:0:0:
296,128,150677,1,0,0:0:0:0:
260,112,150775,1,0,0:0:0:0:
228,164,150872,1,8,0:0:0:0:
160,196,151067,1,0,0:0:0:0:
160,196,151164,1,0,0:0:0:0:
160,196,151262,1,8,0:0:0:0:
364,8,151456,1,0,0:0:0:0:
368,0,151554,1,0,0:0:0:0:
364,8,151651,1,0,0:0:0:0:
72,60,151846,1,0,0:0:0:0:
108,64,151943,1,0,0:0:0:0:
72,60,152041,1,8,0:0:0:0:
136,188,152236,1,8,0:0:0:0:
164,164,152333,1,0,0:0:0:0:
136,188,152430,1,8,0:0:0:0:
116,180,152625,1,0,0:0:0:0:
116,180,152820,1,8,0:0:0:0:
212,156,153015,1,0,0:0:0:0:
212,156,153210,1,0,0:0:0:0:
468,100,153404,1,8,0:0:0:0:
468,100,153502,1,8,0:0:0:0:
468,100,153599,1,0,0:0:0:0:
308,168,153794,1,0,0:0:0:0:
308,168,153989,1,8,0:0:0:0:
40,108,154184,1,0,0:0:0:0:
284,88,154379,1,8,0:0:0:0:
356,148,154573,1,0,0:0:0:0:
356,148,154768,1,8,0:0:0:0:
356,148,154866,1,8,0:0:0:0:
356,148,154963,1,8,0:0:0:0:
356,148,155060,1,0,0:0:0:0:
356,148,155158,1,8,0:0:0:0:
372,140,155353,1,8,0:0:0:0:
336,124,155450,1,8,0:0:0:0:
372,140,155547,1,4,0:0:0:0:
40,156,155742,1,0,0:0:0:0:
40,156,155840,1,0,0:0:0:0:
40,156,155937,1,8,0:0:0:0:
140,264,156132,1,0,0:0:0:0:
140,264,156327,1,8,0:0:0:0:
140,264,156424,1,0,0:0:0:0:
140,264,156521,1,8,0:0:0:0:
140,264,156619,1,0,0:0:0:0:
140,264,156716,1,8,0:0:0:0:
120,188,156911,1,0,0:0:0:0:
92,80,157106,1,0,0:0:0:0:
92,80,157301,1,8,0:0:0:0:
92,80,157398,1,8,0:0:0:0:
92,80,157495,1,8,0:0:0:0:
92,80,157690,1,8,0:0:0:0:
92,80,157788,1,8,0:0:0:0:
92,80,157885,1,0,0:0:0:0:
44,112,158080,1,8,0:0:0:0:
44,112,158177,1,8,0:0:0:0:
44,112,158275,1,8,0:0:0:0:
304,128,158469,1,8,0:0:0:0:
264,120,158567,1,8,0:0:0:0:
304,128,158664,1,8,0:0:0:0:
308,140,158859,1,0,0:0:0:0:
308,140,158956,1,0,0:0:0:0:
308,140,159054,1,8,0:0:0:0:
308,140,159249,1,8,0:0:0:0:
308,140,159346,1,8,0:0:0:0:
308,140,159443,1,0,0:0:0:0:
308,140,159638,1,8,0:0:0:0:
308,140,159735,1,8,0:0:0:0:
308,140,159833,1,0,0:0:0:0:
308,140,160028,1,8,0:0:0:0:
308,140,160125,1,8,0:0:0:0:
308,140,160223,1,8,0:0:0:0:
88,124,160417,1,0,0:0:0:0:
120,104,160515,1,0,0:0:0:0:
88,124,160612,1,8,0:0:0:0:
88,124,160807,5,0,0:0:0:0:
120,104,160904,1,0,0:0:0:0:
88,124,161002,1,8,0:0:0:0:
88,124,161197,1,0,0:0:0:0:
88,124,161391,1,12,0:0:0:0:
88,124,161586,1,0,0:0:0:0:
88,124,161781,1,12,0:0:0:0:
304,204,161976,1,8,0:0:0:0:
272,180,162073,1,8,0:0:0:0:
268,192,162171,1,4,0:0:0:0:
312,160,162365,1,8,0:0:0:0:
404,124,162560,1,4,0:0:0:0:
312,160,162755,1,8,0:0:0:0:
368,144,162852,1,0,0:0:0:0:
316,144,162950,1,8,0:0:0:0:
300,176,163145,1,8,0:0:0:0:
280,144,163242,1,8,0:0:0:0:
232,212,163339,1,0,0:0:0:0:
164,244,163534,1,12,0:0:0:0:
164,244,163729,1,12,0:0:0:0:
368,56,163924,1,0,0:0:0:0:
368,56,164119,1,12,0:0:0:0:
76,108,164313,1,8,0:0:0:0:
108,88,164411,1,8,0:0:0:0:
76,108,164508,1,0,0:0:0:0:
140,236,164703,1,12,0:0:0:0:
140,236,164898,1,12,0:0:0:0:
120,228,165093,1,4,0:0:0:0:
120,228,165385,1,12,0:0:0:0:
216,204,165677,1,4,0:0:0:0:
472,148,165872,1,0,0:0:0:0:
472,148,165969,1,0,0:0:0:0:
472,148,166067,1,8,0:0:0:0:
312,216,166261,1,0,0:0:0:0:
288,184,166359,1,0,0:0:0:0:
312,216,166456,1,8,0:0:0:0:
44,156,166651,1,12,0:0:0:0:
288,136,166943,1,12,0:0:0:0:
360,196,167235,1,8,0:0:0:0:
360,196,167333,1,8,0:0:0:0:
360,196,167430,1,8,0:0:0:0:
360,196,167528,1,8,0:0:0:0:
360,196,167625,1,8,0:0:0:0:
376,188,167820,1,0,0:0:0:0:
376,188,168015,1,12,0:0:0:0:
44,204,168209,1,0,0:0:0:0:
44,204,168307,1,0,0:0:0:0:
44,204,168404,1,8,0:0:0:0:
144,312,168599,1,0,0:0:0:0:
144,312,168794,1,8,0:0:0:0:
144,312,168891,1,0,0:0:0:0:
144,312,168989,1,8,0:0:0:0:
144,312,169086,1,0,0:0:0:0:
144,312,169183,1,8,0:0:0:0:
96,128,169378,1,0,0:0:0:0:
96,128,169573,1,0,0:0:0:0:
96,128,169671,1,8,0:0:0:0:
96,128,169768,1,8,0:0:0:0:
96,128,169963,1,8,0:0:0:0:
96,128,170158,1,8,0:0:0:0:
96,128,170255,1,8,0:0:0:0:
96,128,170352,1,0,0:0:0:0:
48,160,170547,1,8,0:0:0:0:
48,160,170645,1,8,0:0:0:0:
48,160,170742,1,0,0:0:0:0:
308,176,170937,1,8,0:0:0:0:
308,176,171132,1,8,0:0:0:0:
312,188,171326,1,0,0:0:0:0:
312,188,171424,1,0,0:0:0:0:
312,188,171521,1,8,0:0:0:0:
312,188,171716,1,8,0:0:0:0:
312,188,171813,1,8,0:0:0:0:
312,188,171911,1,0,0:0:0:0:
312,188,172106,1,0,0:0:0:0:
312,188,172203,1,0,0:0:0:0:
312,188,172300,1,8,0:0:0:0:
312,188,172398,1,0,0:0:0:0:
312,188,172495,1,0,0:0:0:0:
284,164,172593,1,0,0:0:0:0:
312,188,172690,1,8,0:0:0:0:
92,172,172885,1,0,0:0:0:0:
92,172,173080,1,12,0:0:0:0:
92,172,173274,1,0,0:0:0:0:
92,172,173469,1,12,0:0:0:0:
92,172,173664,1,0,0:0:0:0:
92,172,173859,1,12,0:0:0:0:
92,172,174054,1,4,0:0:0:0:
384,200,174248,1,4,0:0:0:0:
